CUDA GPU use intermittent

General questions or discussion about HandBrake, Video and/or audio transcoding, trends etc.
Post Reply
colinegreen
Posts: 5
Joined: Tue Oct 19, 2021 10:07 pm

CUDA GPU use intermittent

Post by colinegreen »

Description of problem or question:

Yesterday my RTX was cranking along at around 100%. Today, it was arouinf 25%. Now it is lunch time, and it is at~ 5%.

I have not changed any settings. I have rebooted a few times. I have checked the relevant setting. Can't figure it out.

Steps to reproduce the problem (If Applicable):

No idea.


HandBrake version (e.g., 1.0.0):

1.4.2 (2021100300)


Operating system and version (e.g., Ubuntu 16.04 LTS, macOS 10.13 High Sierra, Windows 10 Creators Update):


Windows 10 64.

HandBrake Activity Log ***required*** (see How-to get an activity log)

HandBrake 1.4.2 (2021100300)
OS: Microsoft Windows NT 10.0.19043.0
CPU: 11th Gen Intel(R) Core(TM) i9-11900K @ 3.50GHz
Ram: 16253 MB,
GPU Information:
NVIDIA GeForce RTX 3070 - 30.0.14.7141
Screen: 2560x1080
Temp Dir: C:\Users\colin\AppData\Local\Temp\
Install Dir: C:\Program Files\HandBrake\
Data Dir: C:\Users\colin\AppData\Roaming\HandBrake

-------------------------------------------


# Starting Encode ...
[11:13:09] base preset: CEG_1920_04 (Modified)
Remote Process started with Process ID: 25972 using port: 8038. Max Allowed Instances: 1
Worker: Starting HandBrake Engine ...
Worker: Starting Web Server on port 8038 ...
Worker: Disconnected worker monitoring enabled!
[11:13:10] Compile-time hardening features are enabled
[11:13:10] hb_init: starting libhb thread
[11:13:10] Starting work at: Wed Oct 20 11:13:10 2021
[11:13:10] 1 job(s) to process
[11:13:10] json job:
{
"Audio": {
"AudioList": [],
"CopyMask": [
"copy:aac",
"copy:ac3",
"copy:dtshd",
"copy:dts",
"copy:eac3",
"copy:flac",
"copy:mp3",
"copy:truehd",
"copy:mp2"
],
"FallbackEncoder": "ac3"
},
"Destination": {
"ChapterList": [
{
"Name": "Chapter 1"
}
],
"ChapterMarkers": true,
"AlignAVStart": true,
"File": "C:\\CEG\\handbrake\\1920_02\\REEL 03.m4v",
"Mp4Options": {
"IpodAtom": false,
"Mp4Optimize": false
},
"Mux": "av_mp4"
},
"Filters": {
"FilterList": [
{
"ID": 9,
"Settings": {
"cb-frame-count": 2,
"cb-origin-tune": 0.90000000000000002,
"cb-patch-size": 7,
"cb-prefilter": 0,
"cb-range": 3,
"cb-strength": 4.0,
"y-frame-count": 2,
"y-origin-tune": 0.90000000000000002,
"y-patch-size": 7,
"y-prefilter": 0,
"y-range": 3,
"y-strength": 3.0
}
},
{
"ID": 7,
"Settings": {
"blocksize": "4",
"strength": "strong",
"thresh": "20"
}
},
{
"ID": 13,
"Settings": {
"crop-bottom": "0",
"crop-left": "0",
"crop-right": "0",
"crop-top": "0",
"height": "1080",
"width": "1920"
}
},
{
"ID": 18,
"Settings": {
"desat": "0",
"matrix": "bt709",
"primaries": "bt709",
"tonemap": "hable",
"transfer": "bt709"
}
},
{
"ID": 10,
"Settings": {
"cb-size": 11,
"cb-strength": 1.2
}
},
{
"ID": 6,
"Settings": {
"mode": "1",
"rate": "27000000/1126125"
}
}
]
},
"PAR": {
"Num": 1,
"Den": 1
},
"Metadata": {},
"SequenceID": 0,
"Source": {
"Angle": 1,
"Range": {
"Type": "chapter",
"Start": 1,
"End": 1
},
"Title": 3,
"Path": "C:\\CEG\\FILM TRANSFER\\REEL 03.MP4"
},
"Subtitle": {
"Search": {
"Burn": true,
"Default": false,
"Enable": true,
"Forced": true
},
"SubtitleList": []
},
"Video": {
"Encoder": "nvenc_h265",
"Level": "auto",
"TwoPass": false,
"Turbo": false,
"ColorMatrixCode": 0,
"Options": "",
"Preset": "medium",
"Profile": "auto",
"Quality": 20,
"QSV": {
"Decode": false
}
}
}
[11:13:10] CPU: 11th Gen Intel(R) Core(TM) i9-11900K @ 3.50GHz
[11:13:10] - logical processor count: 16
[11:13:10] Intel Quick Sync Video support: no
[11:13:10] hb_scan: path=C:\CEG\FILM TRANSFER\REEL 03.MP4, title_index=3
udfread ERROR: ECMA 167 Volume Recognition failed
src/libbluray/disc/disc.c:333: failed opening UDF image C:\CEG\FILM TRANSFER\REEL 03.MP4
src/libbluray/disc/disc.c:437: error opening file BDMV\index.bdmv
src/libbluray/disc/disc.c:437: error opening file BDMV\BACKUP\index.bdmv
src/libbluray/bluray.c:2646: nav_get_title_list(C:\CEG\FILM TRANSFER\REEL 03.MP4\) failed
[11:13:10] bd: not a bd - trying as a stream/file instead
libdvdread: Encrypted DVD support unavailable.
libdvdread: Calibdvdread: DVDOpenFileUDF:UDFFindFile /VIDEO_TS/VIDEO_TS.IFO failed
n't open file VIDEO_TS.IFO.
libdvdnav: vm: vm: failed to read VIDEO_TS.IFO
[11:13:10] dvd: not a dvd - trying as a stream/file instead
Input #0, mov,mp4,m4a,3gp,3g2,mj2, from 'C:\CEG\FILM TRANSFER\REEL 03.MP4':
Metadata:
major_brand : XAVC
minor_version : 16785407
compatible_brands: XAVCmp42iso2
creation_time : 2021-09-20T17:33:37.000000Z
Duration: 00:12:08.23, start: 0.000000, bitrate: 51981 kb/s
Stream #0:0(und): Video: h264 (High) (avc1 / 0x31637661), yuv420p(tv, bt709/bt709/iec61966-2-4), 1920x1080 [SAR 1:1 DAR 16:9], 49951 kb/s, 59.94 fps, 59.94 tbr, 60k tbn, 119.88 tbc (default)
Metadata:
creation_time : 2021-09-20T17:33:37.000000Z
handler_name : Video Media Handler
vendor_id : [0][0][0][0]
encoder : AVC Coding
Stream #0:1(und): Audio: pcm_s16be (twos / 0x736F7774), 48000 Hz, 2 channels, s16, 1536 kb/s (default)
Metadata:
creation_time : 2021-09-20T17:33:37.000000Z
handler_name : Sound Media Handler
vendor_id : [0][0][0][0]
Stream #0:2(und): Data: none (rtmd / 0x646D7472), 491 kb/s (default)
Metadata:
creation_time : 2021-09-20T17:33:37.000000Z
handler_name : Timed Metadata Media Handler
timecode : 83:01:01;02
[11:13:10] scan: decoding previews for title 3
[11:13:10] scan: audio 0x1: pcm_s16be, rate=48000Hz, bitrate=1536000 Unknown (pcm_s16be) (2.0 ch) (1536 kbps)
[11:13:11] scan: 10 previews, 1920x1080, 59.940 fps, autocrop = 0/0/134/150, aspect 16:9, PAR 1:1, color profile: 1-11-1
[11:13:11] libhb: scan thread found 1 valid title(s)
[11:13:11] Skipping subtitle scan. No suitable subtitle tracks.
[11:13:11] Starting Task: Encoding Pass
[11:13:11] Skipping crop/scale filter
[11:13:11] NLMeans using SSE2 optimizations
[11:13:11] NLMeans using 12 threads
[11:13:11] MTFrame thread started for segment 7
[11:13:11] MTFrame thread started for segment 15
[11:13:11] MTFrame thread started for segment 1
[11:13:11] MTFrame thread started for segment 2
[11:13:11] MTFrame thread started for segment 3
[11:13:11] MTFrame thread started for segment 0
[11:13:11] MTFrame thread started for segment 4
[11:13:11] MTFrame thread started for segment 6
[11:13:11] MTFrame thread started for segment 8
[11:13:11] MTFrame thread started for segment 9
[11:13:11] MTFrame thread started for segment 11
[11:13:11] MTFrame thread started for segment 5
[11:13:11] MTFrame thread started for segment 12
[11:13:11] MTFrame thread started for segment 10
[11:13:11] MTFrame thread started for segment 13
[11:13:11] MTFrame thread started for segment 14
[11:13:11] work: only 1 chapter, disabling chapter markers
[11:13:11] job configuration:
[11:13:11] * source
[11:13:11] + C:\CEG\FILM TRANSFER\REEL 03.MP4
[11:13:11] + title 3, chapter(s) 1 to 1
[11:13:11] + container: mov,mp4,m4a,3gp,3g2,mj2
[11:13:11] + data rate: 51981 kbps
[11:13:11] * destination
[11:13:11] + C:\CEG\handbrake\1920_02\REEL 03.m4v
[11:13:11] + container: MPEG-4 (libavformat)
[11:13:11] + align initial A/V stream timestamps
[11:13:11] * video track
[11:13:11] + decoder: h264 8-bit (yuv420p)
[11:13:11] + bitrate 49951 kbps
[11:13:11] + filters
[11:13:11] + Framerate Shaper (mode=1:rate=27000000/1126125)
[11:13:11] + frame rate: 59.940 fps -> constant 23.976 fps
[11:13:11] + Deblock (strength=strong:thresh=20:blocksize=4)
[11:13:11] + Denoise (nlmeans) (y-strength=3:y-origin-tune=0.9:y-patch-size=7:y-range=3:y-frame-count=2:y-prefilter=0:cb-strength=4:cb-origin-tune=0.9:cb-patch-size=7:cb-range=3:cb-frame-count=2:cb-prefilter=0)
[11:13:11] + Colorspace (primaries=bt709:transfer=bt709:matrix=bt709:tonemap=hable:desat=0)
[11:13:11] + Chroma Smooth (cb-strength=1.2:cb-size=11)
[11:13:11] + Output geometry
[11:13:11] + storage dimensions: 1920 x 1080
[11:13:11] + pixel aspect ratio: 1 : 1
[11:13:11] + display dimensions: 1920 x 1080
[11:13:11] + encoder: H.265 (NVEnc)
[11:13:11] + preset: medium
[11:13:11] + profile: auto
[11:13:11] + level: auto
[11:13:11] + quality: 20.00 (CQ)
[11:13:11] + color profile: 1-1-1
[11:13:11] sync: expecting 43650 video frames
[11:13:11] encavcodecInit: H.265 (Nvidia NVENC)
[11:13:11] encavcodec: encoding at rc=vbr, multipass=fullres, 20.00
[11:13:11] encavcodec: encoding with stored aspect 1/1
[11:13:11] sync: first pts video is 0
[11:13:11] sync: "Chapter 1" (1) at frame 1 time 0
User avatar
s55
HandBrake Team
Posts: 10246
Joined: Sun Dec 24, 2006 1:05 pm

Re: CUDA GPU use intermittent

Post by s55 »

HandBrake does not use CUDA. NVENC != CUDA

High CPU usage is normal since everything before the encode step, including all the filters, are done on the CPU.

Your current setup of filters will likely heavily bottleneck the NVEnc encoder so low GPU utilisation is to be expected.

Depending on the filters, some may actually bottleneck on the CPU due to single threaded performance as well. Also note, some filters will vary in utilisation depending on the work needing done. Even framerate scaling can cause utilisation differences.
User avatar
Rodeo
HandBrake Team
Posts: 13045
Joined: Tue Mar 03, 2009 8:55 pm

Re: CUDA GPU use intermittent

Post by Rodeo »

The nlmeans filter, in particular, while multi-threaded remains a very CPU-heavy filter and likely to bottleneck.

Also the deblock filter is not threaded, IIRC, and given your source appears to be XAVC (relatively high-bitrate H.264), I wonder why on earth it would even be required?
colinegreen
Posts: 5
Joined: Tue Oct 19, 2021 10:07 pm

Re: CUDA GPU use intermittent

Post by colinegreen »

I am not clear - if NVENC does not use the GPU, then why was it using 100% of mine yesterday?

Nothing else was running.
colinegreen
Posts: 5
Joined: Tue Oct 19, 2021 10:07 pm

Re: CUDA GPU use intermittent

Post by colinegreen »

Rodeo wrote: Wed Oct 20, 2021 9:02 pm The nlmeans filter, in particular, while multi-threaded remains a very CPU-heavy filter and likely to bottleneck.

Also the deblock filter is not threaded, IIRC, and given your source appears to be XAVC (relatively high-bitrate H.264), I wonder why on earth it would even be required?
I added some filters since yesterday, so that is a partial explanation. It went WAY faster when it was using the GPU. I guess I should turn off the filters and see if it starts using the GPU.
User avatar
s55
HandBrake Team
Posts: 10246
Joined: Sun Dec 24, 2006 1:05 pm

Re: CUDA GPU use intermittent

Post by s55 »

NVEnc is actually an ASIC, not a GPU encoder. (it's on the same silicon, but the GPU is mostly idle when NVenc is in use). The ASIC is a very small portion of the code that's designed soley for video encoding. Windows still reports it as GPU usage but it's not strictly true. If you look at the breakdown, you'll see it's an aggregate display. I.e The Video encode engine is at X percent but the GPU itself isn't doing much.

The Nvidia ASIC is being used in your log above. Your CPU simply isn't fast enough to allow the ASIC to run at anymore than a small percentage of it's capability when also adding those filters.
I have not changed any settings
Adding filters is a dramatic change in settings.

NVEnc does not support any of these filters that you added. Thus, they run on the CPU.
Filters are expensive so if your CPU can only push say 20 fps with them enabled, though the pipeline, then the NVEnc encoder is going to just sit there and wait for more frames coming in.
colinegreen
Posts: 5
Joined: Tue Oct 19, 2021 10:07 pm

Re: CUDA GPU use intermittent

Post by colinegreen »

Update - I turned off those filter and the RTX is back to life.

I should have know the only GPU part was the NVENC and not the filters.

Thanks to you all for helping a noob.
ph3arr3t
New User
Posts: 1
Joined: Sun Nov 20, 2022 1:19 am

Re: CUDA GPU use intermittent

Post by ph3arr3t »

I'm not sure if Handbrake is even using the GPU on my system currently.. I am using the flatpak version 1.5.1 (x86_64) on
MX-linux 21.2.1_ahs Wildflower
The optirun command is used to load and run handbrake
I am curious as to if there was a recent change to flatpak version as I have seen framerates on this machine using another version of handbrake over 1000. I was thoroughly impressed. Or if it is some small silly setting I forgot to set after installing the flatpak version I would like to know.
I wonder if its possible for handbrake to have the option to load entire video file into RAM as nowadays the standard is more than a video file size.
and to have the option to enable CUDA / GPU usage
On a plus, it does see and use all cores to about 90%. Great program, thank you for it.
system is:

Code: Select all

System:    Kernel: 5.18.0-4mx-amd64 [5.18.16-1~mx21+1] x86_64 bits: 64 compiler: gcc v: 10.2.1 
           parameters: root=UUID=<filter> ro quiet splash 
           init=/lib/systemd/systemd initrd=boot\initrd.img-5.18.0-4mx-amd64 
           Desktop: Xfce 4.16.0 tk: Gtk 3.24.24 info: xfce4-panel wm: xfwm 4.16.1 vt: 7 
           dm: LightDM 1.26.0 Distro: MX-21.2.1_ahs_x64 Wildflower November 22  2021 
           base: Debian GNU/Linux 11 (bullseye) 
Machine:   Type: Laptop System: ASUSTeK product: ROG Strix G513QC_G513QC v: 1.0 serial: <filter> 
           Mobo: ASUSTeK model: G513QC v: 1.0 serial: <filter> UEFI: American Megatrends LLC. 
           v: G513QC.313 date: 03/29/2022 
Battery:   ID-1: BAT0 charge: 52.0 Wh (100.0%) condition: 52.0/56.0 Wh (92.9%) volts: 17.2 
           min: 15.9 model: AS3GWZC3KC G513-36 type: Li-ion serial: <filter> status: Full 
CPU:       Info: 8-Core model: AMD Ryzen 9 5900HX with Radeon Graphics bits: 64 type: MT MCP 
           arch: Zen 3 family: 19 (25) model-id: 50 (80) stepping: 0 microcode: A50000C cache: 
           L2: 4 MiB 
           flags: avx avx2 lm nx pae sse sse2 sse3 sse4_1 sse4_2 sse4a ssse3 svm bogomips: 105394 
           Speed: 4085 MHz min/max: 1200/3300 MHz boost: enabled Core speeds (MHz): 1: 4085 
           2: 1296 3: 1297 4: 1296 5: 1297 6: 1295 7: 1297 8: 1300 9: 1179 10: 1219 11: 3378 
           12: 1297 13: 1135 14: 1133 15: 1294 16: 1135 
           Vulnerabilities: Type: itlb_multihit status: Not affected 
           Type: l1tf status: Not affected 
           Type: mds status: Not affected 
           Type: meltdown status: Not affected 
           Type: mmio_stale_data status: Not affected 
           Type: retbleed status: Not affected 
           Type: spec_store_bypass mitigation: Speculative Store Bypass disabled via prctl 
           Type: spectre_v1 mitigation: usercopy/swapgs barriers and __user pointer sanitization 
           Type: spectre_v2 mitigation: Retpolines, IBPB: conditional, IBRS_FW, STIBP: always-on, 
           RSB filling, PBRSB-eIBRS: Not affected 
           Type: srbds status: Not affected 
           Type: tsx_async_abort status: Not affected 
Graphics:  Device-1: NVIDIA GA107M [GeForce RTX 3050 Mobile] vendor: ASUSTeK driver: nvidia 
           v: 510.85.02 bus-ID: 01:00.0 chip-ID: 10de:25a2 class-ID: 0300 
           Device-2: AMD Cezanne vendor: ASUSTeK driver: amdgpu v: kernel bus-ID: 06:00.0 
           chip-ID: 1002:1638 class-ID: 0300 
           Display: x11 server: X.Org 1.20.14 compositor: compton v: 1 driver: loaded: nvidia 
           display-ID: :0.0 screens: 1 
           Screen-1: 0 s-res: 1920x1080 s-dpi: 96 s-size: 508x285mm (20.0x11.2") 
           s-diag: 582mm (22.9") 
           Monitor-1: eDP res: 1920x1080 hz: 144 dpi: 142 size: 344x194mm (13.5x7.6") 
           diag: 395mm (15.5") 
           OpenGL: renderer: AMD RENOIR (LLVM 14.0.5 DRM 3.46 5.18.0-4mx-amd64) v: 4.6 Mesa 22.0.5 
           direct render: Yes 
The log file:

Code: Select all

[19:32:29] gtkgui: HandBrake 1.5.1 (2022011000) - Linux x86_64 - https://handbrake.fr
[19:32:29] Compile-time hardening features are enabled
[19:32:29] hb_init: starting libhb thread
[19:32:29] hb_init: starting libhb thread
[19:32:29] hb_init: starting libhb thread
** Message: 19:32:29.841: udev: Failed to lookup device /dev/nvme0n1
** Message: 19:32:29.842: udev: Failed to lookup device /dev/nvme1n1
** Message: 19:32:29.842: udev: Failed to lookup device /dev/sda

(ghb:2): GVFS-WARNING **: 19:32:29.975: The peer-to-peer connection failed: Error when getting information for file “/run/user/1000/gvfsd”: No such file or directory. Falling back to the session bus. Your application is probably missing --filesystem=xdg-run/gvfsd privileges.

(ghb:2): GVFS-WARNING **: 19:32:29.975: The peer-to-peer connection failed: Error when getting information for file “/run/user/1000/gvfsd”: No such file or directory. Falling back to the session bus. Your application is probably missing --filesystem=xdg-run/gvfsd privileges.

(ghb:2): GVFS-WARNING **: 19:32:29.975: The peer-to-peer connection failed: Error when getting information for file “/run/user/1000/gvfsd”: No such file or directory. Falling back to the session bus. Your application is probably missing --filesystem=xdg-run/gvfsd privileges.

(ghb:2): GVFS-WARNING **: 19:32:29.979: The peer-to-peer connection failed: Error when getting information for file “/run/user/1000/gvfsd”: No such file or directory. Falling back to the session bus. Your application is probably missing --filesystem=xdg-run/gvfsd privileges.

(ghb:2): GVFS-WARNING **: 19:32:29.979: The peer-to-peer connection failed: Error when getting information for file “/run/user/1000/gvfsd”: No such file or directory. Falling back to the session bus. Your application is probably missing --filesystem=xdg-run/gvfsd privileges.

(ghb:2): GVFS-WARNING **: 19:32:29.979: The peer-to-peer connection failed: Error when getting information for file “/run/user/1000/gvfsd”: No such file or directory. Falling back to the session bus. Your application is probably missing --filesystem=xdg-run/gvfsd privileges.

(ghb:2): GVFS-WARNING **: 19:32:29.980: The peer-to-peer connection failed: Error when getting information for file “/run/user/1000/gvfsd”: No such file or directory. Falling back to the session bus. Your application is probably missing --filesystem=xdg-run/gvfsd privileges.

(ghb:2): GVFS-WARNING **: 19:32:29.980: The peer-to-peer connection failed: Error when getting information for file “/run/user/1000/gvfsd”: No such file or directory. Falling back to the session bus. Your application is probably missing --filesystem=xdg-run/gvfsd privileges.

(ghb:2): GVFS-WARNING **: 19:32:29.981: The peer-to-peer connection failed: Error when getting information for file “/run/user/1000/gvfsd”: No such file or directory. Falling back to the session bus. Your application is probably missing --filesystem=xdg-run/gvfsd privileges.

(ghb:2): GVFS-WARNING **: 19:32:29.981: The peer-to-peer connection failed: Error when getting information for file “/run/user/1000/gvfsd”: No such file or directory. Falling back to the session bus. Your application is probably missing --filesystem=xdg-run/gvfsd privileges.

(ghb:2): GVFS-WARNING **: 19:32:29.981: The peer-to-peer connection failed: Error when getting information for file “/run/user/1000/gvfsd”: No such file or directory. Falling back to the session bus. Your application is probably missing --filesystem=xdg-run/gvfsd privileges.

(ghb:2): GVFS-WARNING **: 19:32:29.982: The peer-to-peer connection failed: Error when getting information for file “/run/user/1000/gvfsd”: No such file or directory. Falling back to the session bus. Your application is probably missing --filesystem=xdg-run/gvfsd privileges.

(ghb:2): Pango-WARNING **: 19:32:29.988: failed to create cairo scaled font, expect ugly output. the offending font is 'VL Gothic 10.5'

(ghb:2): Pango-WARNING **: 19:32:29.988: font_face status is: file not found

(ghb:2): Pango-WARNING **: 19:32:29.988: scaled_font status is: file not found

(ghb:2): Pango-WARNING **: 19:32:29.989: failed to create cairo scaled font, expect ugly output. the offending font is 'VL Gothic 10.5'

(ghb:2): Pango-WARNING **: 19:32:29.989: font_face status is: file not found

(ghb:2): Pango-WARNING **: 19:32:29.989: scaled_font status is: file not found

(ghb:2): GVFS-WARNING **: 19:32:30.060: The peer-to-peer connection failed: Error when getting information for file “/run/user/1000/gvfsd”: No such file or directory. Falling back to the session bus. Your application is probably missing --filesystem=xdg-run/gvfsd privileges.
** Message: 19:32:47.296: udev: Failed to lookup device /dev/nvme0n1
** Message: 19:32:47.296: udev: Failed to lookup device /dev/nvme1n1
** Message: 19:32:47.296: udev: Failed to lookup device /dev/sda
[19:32:52] CPU: AMD Ryzen 9 5900HX with Radeon Graphics        
[19:32:52]  - logical processor count: 16
[19:32:52] Intel Quick Sync Video support: no
[19:32:52] hb_scan: path=/home/ph3arr3t/Downloads/Kung.Fu.2021.S03E07.Villains.mkv, title_index=0
udfread ERROR: ECMA 167 Volume Recognition failed
disc.c:333: failed opening UDF image /home/ph3arr3t/Downloads/Kung.Fu.2021.S03E07.Villains.mkv
disc.c:437: error opening file BDMV/index.bdmv
disc.c:437: error opening file BDMV/BACKUP/index.bdmv
bluray.c:2646: nav_get_title_list(/home/ph3arr3t/Downloads/Kung.Fu.2021.S03E07.Villains.mkv/) failed
[19:32:52] bd: not a bd - trying as a stream/file instead
libdvdread: DVDOpenFileUDF:UDFFindFile /VIDEO_TS/VIDEO_TS.IFO failed
libdvdnav: vm: vm: failed to read VIDEO_TS.IFO
[19:32:52] dvd: not a dvd - trying as a stream/file instead
Input #0, matroska,webm, from '/home/ph3arr3t/Downloads/Kung.Fu.2021.S03E07.Villains.mkv':
  Metadata:
    encoder         : libebml v1.4.4 + libmatroska v1.7.1
    creation_time   : 2022-11-20T00:24:56.000000Z
  Duration: 00:42:17.60, start: 0.000000, bitrate: 7967 kb/s
  Stream #0:0: Video: h264 (High), yuv420p(tv, bt709, progressive), 1920x960 [SAR 1:1 DAR 2:1], 23.98 fps, 23.98 tbr, 1k tbn, 47.95 tbc (default)
    Metadata:
      BPS             : 7326029
      DURATION        : 00:42:17.577000000
      NUMBER_OF_FRAMES: 60841
      NUMBER_OF_BYTES : 2323795506
      _STATISTICS_WRITING_APP: mkvmerge v72.0.0 ('Minuano (Six-eight)') 64-bit
      _STATISTICS_WRITING_DATE_UTC: 2022-11-20 00:24:56
      _STATISTICS_TAGS: BPS DURATION NUMBER_OF_FRAMES NUMBER_OF_BYTES
  Stream #0:1(eng): Audio: eac3, 48000 Hz, 5.1(side), fltp, 640 kb/s (default)
    Metadata:
      BPS             : 640000
      DURATION        : 00:42:17.600000000
      NUMBER_OF_FRAMES: 79300
      NUMBER_OF_BYTES : 203008000
      _STATISTICS_WRITING_APP: mkvmerge v72.0.0 ('Minuano (Six-eight)') 64-bit
      _STATISTICS_WRITING_DATE_UTC: 2022-11-20 00:24:56
      _STATISTICS_TAGS: BPS DURATION NUMBER_OF_FRAMES NUMBER_OF_BYTES
[19:32:52] scan: decoding previews for title 1
[19:32:52] scan: audio 0x1: eac3, rate=48000Hz, bitrate=640000 English (E-AC3) (5.1 ch) (640 kbps)
[19:32:52] scan: 10 previews, 1920x960, 23.976 fps, autocrop = 0/0/0/0, aspect 2.00:1, PAR 1:1, color profile: 1-1-1, chroma location: left
[19:32:52] libhb: scan thread found 1 valid title(s)
[19:32:52] decomb: deinterlaced 1 | blended 0 | unfiltered 0 | total 1
[19:32:52] decomb: deinterlaced 1 | blended 0 | unfiltered 0 | total 1
** Message: 19:33:25.623: udev: Failed to lookup device /dev/nvme0n1
** Message: 19:33:25.623: udev: Failed to lookup device /dev/nvme1n1
** Message: 19:33:25.623: udev: Failed to lookup device /dev/sda
[19:33:32] CPU: AMD Ryzen 9 5900HX with Radeon Graphics        
[19:33:32]  - logical processor count: 16
[19:33:32] Intel Quick Sync Video support: no
[19:33:32] hb_scan: path=/home/ph3arr3t/Downloads/law.and.order.svu.s24e08.A Better Person.mkv, title_index=0
udfread ERROR: ECMA 167 Volume Recognition failed
disc.c:333: failed opening UDF image /home/ph3arr3t/Downloads/law.and.order.svu.s24e08.A Better Person.mkv
disc.c:437: error opening file BDMV/index.bdmv
disc.c:437: error opening file BDMV/BACKUP/index.bdmv
bluray.c:2646: nav_get_title_list(/home/ph3arr3t/Downloads/law.and.order.svu.s24e08.A Better Person.mkv/) failed
[19:33:32] bd: not a bd - trying as a stream/file instead
libdvdread: DVDOpenFileUDF:UDFFindFile /VIDEO_TS/VIDEO_TS.IFO failed
libdvdnav: vm: vm: failed to read VIDEO_TS.IFO
[19:33:32] dvd: not a dvd - trying as a stream/file instead
Input #0, matroska,webm, from '/home/ph3arr3t/Downloads/law.and.order.svu.s24e08.A Better Person.mkv':
  Metadata:
    encoder         : libebml v1.4.4 + libmatroska v1.7.1
    creation_time   : 2022-11-20T00:29:50.000000Z
  Duration: 00:41:56.99, start: 0.000000, bitrate: 8022 kb/s
  Stream #0:0: Video: h264 (High), yuv420p(tv, bt709, progressive), 1920x1080 [SAR 1:1 DAR 16:9], Closed Captions, 23.98 fps, 23.98 tbr, 1k tbn, 47.95 tbc (default)
    Metadata:
      BPS             : 7828649
      DURATION        : 00:41:56.931000000
      NUMBER_OF_FRAMES: 60346
      NUMBER_OF_BYTES : 2463021371
      _STATISTICS_WRITING_APP: mkvmerge v72.0.0 ('Minuano (Six-eight)') 64-bit
      _STATISTICS_WRITING_DATE_UTC: 2022-11-20 00:29:50
      _STATISTICS_TAGS: BPS DURATION NUMBER_OF_FRAMES NUMBER_OF_BYTES
  Stream #0:1(eng): Audio: eac3, 48000 Hz, 5.1(side), fltp, 192 kb/s (default)
    Metadata:
      BPS             : 192000
      DURATION        : 00:41:56.992000000
      NUMBER_OF_FRAMES: 78656
      NUMBER_OF_BYTES : 60407808
      _STATISTICS_WRITING_APP: mkvmerge v72.0.0 ('Minuano (Six-eight)') 64-bit
      _STATISTICS_WRITING_DATE_UTC: 2022-11-20 00:29:50
      _STATISTICS_TAGS: BPS DURATION NUMBER_OF_FRAMES NUMBER_OF_BYTES
[19:33:32] scan: decoding previews for title 1
[19:33:32] scan: audio 0x1: eac3, rate=48000Hz, bitrate=192000 English (E-AC3) (5.1 ch) (192 kbps)
[19:33:32] scan: 10 previews, 1920x1080, 23.976 fps, autocrop = 0/0/0/0, aspect 16:9, PAR 1:1, color profile: 1-1-1, chroma location: left
[19:33:32] libhb: scan thread found 1 valid title(s)
[19:33:32] decomb: deinterlaced 1 | blended 0 | unfiltered 0 | total 1
[19:33:32] decomb: deinterlaced 1 | blended 0 | unfiltered 0 | total 1
** Message: 19:34:56.408: udev: Failed to lookup device /dev/nvme0n1
** Message: 19:34:56.408: udev: Failed to lookup device /dev/nvme1n1
** Message: 19:34:56.408: udev: Failed to lookup device /dev/sda
[19:34:58] CPU: AMD Ryzen 9 5900HX with Radeon Graphics        
[19:34:58]  - logical processor count: 16
[19:34:58] Intel Quick Sync Video support: no
[19:34:58] hb_scan: path=/home/ph3arr3t/Downloads/Blue.Bloods.S13E06.On.Dangerous.Ground.mkv, title_index=0
udfread ERROR: ECMA 167 Volume Recognition failed
disc.c:333: failed opening UDF image /home/ph3arr3t/Downloads/Blue.Bloods.S13E06.On.Dangerous.Ground.mkv
disc.c:437: error opening file BDMV/index.bdmv
disc.c:437: error opening file BDMV/BACKUP/index.bdmv
bluray.c:2646: nav_get_title_list(/home/ph3arr3t/Downloads/Blue.Bloods.S13E06.On.Dangerous.Ground.mkv/) failed
[19:34:58] bd: not a bd - trying as a stream/file instead
libdvdread: DVDOpenFileUDF:UDFFindFile /VIDEO_TS/VIDEO_TS.IFO failed
libdvdnav: vm: vm: failed to read VIDEO_TS.IFO
[19:34:58] dvd: not a dvd - trying as a stream/file instead
Input #0, matroska,webm, from '/home/ph3arr3t/Downloads/Blue.Bloods.S13E06.On.Dangerous.Ground.mkv':
  Metadata:
    encoder         : libebml v1.4.4 + libmatroska v1.7.1
    creation_time   : 2022-11-20T00:23:38.000000Z
  Duration: 00:43:11.17, start: 0.000000, bitrate: 7273 kb/s
  Stream #0:0: Video: h264 (High), yuv420p(tv, bt709, progressive), 1920x1080 [SAR 1:1 DAR 16:9], 24 fps, 24 tbr, 1k tbn, 48 tbc (default)
    Metadata:
      BPS             : 7080005
      DURATION        : 00:43:11.167000000
      NUMBER_OF_FRAMES: 62188
      NUMBER_OF_BYTES : 2293184415
      _STATISTICS_WRITING_APP: mkvmerge v72.0.0 ('Minuano (Six-eight)') 64-bit
      _STATISTICS_WRITING_DATE_UTC: 2022-11-20 00:23:38
      _STATISTICS_TAGS: BPS DURATION NUMBER_OF_FRAMES NUMBER_OF_BYTES
  Stream #0:1(eng): Audio: eac3, 48000 Hz, 5.1(side), fltp, 192 kb/s (default)
    Metadata:
      BPS             : 192000
      DURATION        : 00:43:11.168000000
      NUMBER_OF_FRAMES: 80974
      NUMBER_OF_BYTES : 62188032
      _STATISTICS_WRITING_APP: mkvmerge v72.0.0 ('Minuano (Six-eight)') 64-bit
      _STATISTICS_WRITING_DATE_UTC: 2022-11-20 00:23:38
      _STATISTICS_TAGS: BPS DURATION NUMBER_OF_FRAMES NUMBER_OF_BYTES
[19:34:58] scan: decoding previews for title 1
[19:34:58] scan: audio 0x1: eac3, rate=48000Hz, bitrate=192000 English (E-AC3) (5.1 ch) (192 kbps)
[19:34:58] scan: 10 previews, 1920x1080, 24.000 fps, autocrop = 0/0/0/0, aspect 16:9, PAR 1:1, color profile: 1-1-1, chroma location: left
[19:34:58] libhb: scan thread found 1 valid title(s)
[19:34:58] decomb: deinterlaced 1 | blended 0 | unfiltered 0 | total 1
[19:34:58] decomb: deinterlaced 1 | blended 0 | unfiltered 0 | total 1
** Message: 19:35:23.969: udev: Failed to lookup device /dev/nvme0n1
** Message: 19:35:23.969: udev: Failed to lookup device /dev/nvme1n1
** Message: 19:35:23.969: udev: Failed to lookup device /dev/sda
[19:35:25] CPU: AMD Ryzen 9 5900HX with Radeon Graphics        
[19:35:25]  - logical processor count: 16
[19:35:25] Intel Quick Sync Video support: no
[19:35:25] hb_scan: path=/home/ph3arr3t/Downloads/Law.and.Order.Organized.Crime.S03E08.Whipping.Post.mkv, title_index=0
udfread ERROR: ECMA 167 Volume Recognition failed
disc.c:333: failed opening UDF image /home/ph3arr3t/Downloads/Law.and.Order.Organized.Crime.S03E08.Whipping.Post.mkv
disc.c:437: error opening file BDMV/index.bdmv
disc.c:437: error opening file BDMV/BACKUP/index.bdmv
bluray.c:2646: nav_get_title_list(/home/ph3arr3t/Downloads/Law.and.Order.Organized.Crime.S03E08.Whipping.Post.mkv/) failed
[19:35:25] bd: not a bd - trying as a stream/file instead
libdvdread: DVDOpenFileUDF:UDFFindFile /VIDEO_TS/VIDEO_TS.IFO failed
libdvdnav: vm: vm: failed to read VIDEO_TS.IFO
[19:35:25] dvd: not a dvd - trying as a stream/file instead
Input #0, matroska,webm, from '/home/ph3arr3t/Downloads/Law.and.Order.Organized.Crime.S03E08.Whipping.Post.mkv':
  Metadata:
    encoder         : libebml v1.4.4 + libmatroska v1.7.1
    creation_time   : 2022-11-20T00:26:43.000000Z
  Duration: 00:41:44.70, start: 0.000000, bitrate: 5779 kb/s
  Stream #0:0: Video: h264 (High), yuv420p(tv, bt709, progressive), 1280x720 [SAR 1:1 DAR 16:9], 23.98 fps, 23.98 tbr, 1k tbn, 47.95 tbc (default)
    Metadata:
      BPS             : 5137969
      DURATION        : 00:41:44.669000000
      NUMBER_OF_FRAMES: 60052
      NUMBER_OF_BYTES : 1608614148
      _STATISTICS_WRITING_APP: mkvmerge v72.0.0 ('Minuano (Six-eight)') 64-bit
      _STATISTICS_WRITING_DATE_UTC: 2022-11-20 00:26:43
      _STATISTICS_TAGS: BPS DURATION NUMBER_OF_FRAMES NUMBER_OF_BYTES
  Stream #0:1(eng): Audio: eac3, 48000 Hz, 5.1(side), fltp, 640 kb/s (default)
    Metadata:
      BPS             : 640000
      DURATION        : 00:41:44.704000000
      NUMBER_OF_FRAMES: 78272
      NUMBER_OF_BYTES : 200376320
      _STATISTICS_WRITING_APP: mkvmerge v72.0.0 ('Minuano (Six-eight)') 64-bit
      _STATISTICS_WRITING_DATE_UTC: 2022-11-20 00:26:43
      _STATISTICS_TAGS: BPS DURATION NUMBER_OF_FRAMES NUMBER_OF_BYTES
[19:35:25] scan: decoding previews for title 1
[19:35:25] scan: audio 0x1: eac3, rate=48000Hz, bitrate=640000 English (E-AC3) (5.1 ch) (640 kbps)
[19:35:26] scan: 10 previews, 1280x720, 23.976 fps, autocrop = 0/0/0/0, aspect 16:9, PAR 1:1, color profile: 1-1-1, chroma location: left
[19:35:26] libhb: scan thread found 1 valid title(s)
[19:35:26] decomb: deinterlaced 1 | blended 0 | unfiltered 0 | total 1
[19:35:26] decomb: deinterlaced 1 | blended 0 | unfiltered 0 | total 1
** Message: 19:35:50.173: udev: Failed to lookup device /dev/nvme0n1
** Message: 19:35:50.173: udev: Failed to lookup device /dev/nvme1n1
** Message: 19:35:50.173: udev: Failed to lookup device /dev/sda
** Message: 19:37:23.133: udev: Failed to lookup device /dev/nvme0n1
** Message: 19:37:23.133: udev: Failed to lookup device /dev/nvme1n1
** Message: 19:37:23.133: udev: Failed to lookup device /dev/sda
[19:40:08] gtkgui: Custom Preset: /General/Fast 1080p30
[19:40:08] Starting work at: Sat Nov 19 19:40:08 2022

[19:40:08] 1 job(s) to process
[19:40:08] json job:
{
    "Audio": {
        "AudioList": [
            {
                "Bitrate": 160,
                "CompressionLevel": -1.0,
                "DRC": 0.0,
                "DitherMethod": "auto",
                "Encoder": "av_aac",
                "Gain": 0.0,
                "Mixdown": "stereo",
                "NormalizeMixLevel": false,
                "PresetEncoder": "av_aac",
                "Quality": -3.0,
                "Samplerate": 0,
                "Track": 0
            }
        ],
        "CopyMask": [
            "copy:aac"
        ],
        "FallbackEncoder": "av_aac"
    },
    "Destination": {
        "AlignAVStart": true,
        "ChapterList": [
            {
                "Duration": {
                    "Hours": 0,
                    "Minutes": 42,
                    "Seconds": 17,
                    "Ticks": 228384000
                },
                "Name": ""
            }
        ],
        "ChapterMarkers": false,
        "File": "/home/ph3arr3t/Videos/Kung.Fu.2021.S03E07.Villains.mp4",
        "InlineParameterSets": false,
        "Mp4Options": {
            "IpodAtom": false,
            "Mp4Optimize": false
        },
        "Mux": "m4v"
    },
    "Filters": {
        "FilterList": [
            {
                "ID": 2,
                "Settings": {
                    "plane": "0",
                    "skip-bottom": "4",
                    "skip-left": "1",
                    "skip-right": "1",
                    "skip-top": "4"
                }
            },
            {
                "ID": 3,
                "Settings": {
                    "block-height": "16",
                    "block-thresh": "40",
                    "block-width": "16",
                    "filter-mode": "2",
                    "mode": "3",
                    "motion-thresh": "1",
                    "spatial-metric": "2",
                    "spatial-thresh": "1"
                }
            },
            {
                "ID": 4,
                "Settings": {
                    "mode": "7"
                }
            },
            {
                "ID": 6,
                "Settings": {
                    "mode": 2,
                    "rate": "27000000/900000"
                }
            },
            {
                "ID": 13,
                "Settings": {
                    "crop-bottom": 0,
                    "crop-left": 0,
                    "crop-right": 0,
                    "crop-top": 0,
                    "height": 960,
                    "width": 1920
                }
            }
        ]
    },
    "Metadata": {},
    "PAR": {
        "Den": 1,
        "Num": 1
    },
    "SequenceID": 0,
    "Source": {
        "Angle": 0,
        "Path": "/home/ph3arr3t/Downloads/Kung.Fu.2021.S03E07.Villains.mkv",
        "Range": {
            "End": 1,
            "Start": 1,
            "Type": "chapter"
        },
        "Title": 1
    },
    "Subtitle": {
        "Search": {
            "Burn": true,
            "Default": false,
            "Enable": false,
            "Forced": false
        },
        "SubtitleList": []
    },
    "Video": {
        "ChromaLocation": 1,
        "ColorInputFormat": 0,
        "ColorMatrix": 1,
        "ColorOutputFormat": 0,
        "ColorPrimaries": 1,
        "ColorRange": 1,
        "ColorTransfer": 1,
        "Encoder": "x264",
        "Level": "4.0",
        "Options": "",
        "Preset": "fast",
        "Profile": "main",
        "QSV": {
            "AdapterIndex": 0,
            "AsyncDepth": 0,
            "Decode": false
        },
        "Quality": 22.0,
        "Tune": "",
        "Turbo": false,
        "TwoPass": false
    }
}
[19:40:08] CPU: AMD Ryzen 9 5900HX with Radeon Graphics        
[19:40:08]  - logical processor count: 16
[19:40:08] Intel Quick Sync Video support: no
[19:40:08] hb_scan: path=/home/ph3arr3t/Downloads/Kung.Fu.2021.S03E07.Villains.mkv, title_index=1
udfread ERROR: ECMA 167 Volume Recognition failed
disc.c:333: failed opening UDF image /home/ph3arr3t/Downloads/Kung.Fu.2021.S03E07.Villains.mkv
disc.c:437: error opening file BDMV/index.bdmv
disc.c:437: error opening file BDMV/BACKUP/index.bdmv
bluray.c:2646: nav_get_title_list(/home/ph3arr3t/Downloads/Kung.Fu.2021.S03E07.Villains.mkv/) failed
[19:40:08] bd: not a bd - trying as a stream/file instead
libdvdread: DVDOpenFileUDF:UDFFindFile /VIDEO_TS/VIDEO_TS.IFO failed
libdvdnav: vm: vm: failed to read VIDEO_TS.IFO
[19:40:08] dvd: not a dvd - trying as a stream/file instead
Input #0, matroska,webm, from '/home/ph3arr3t/Downloads/Kung.Fu.2021.S03E07.Villains.mkv':
  Metadata:
    encoder         : libebml v1.4.4 + libmatroska v1.7.1
    creation_time   : 2022-11-20T00:24:56.000000Z
  Duration: 00:42:17.60, start: 0.000000, bitrate: 7967 kb/s
  Stream #0:0: Video: h264 (High), yuv420p(tv, bt709, progressive), 1920x960 [SAR 1:1 DAR 2:1], 23.98 fps, 23.98 tbr, 1k tbn, 47.95 tbc (default)
    Metadata:
      BPS             : 7326029
      DURATION        : 00:42:17.577000000
      NUMBER_OF_FRAMES: 60841
      NUMBER_OF_BYTES : 2323795506
      _STATISTICS_WRITING_APP: mkvmerge v72.0.0 ('Minuano (Six-eight)') 64-bit
      _STATISTICS_WRITING_DATE_UTC: 2022-11-20 00:24:56
      _STATISTICS_TAGS: BPS DURATION NUMBER_OF_FRAMES NUMBER_OF_BYTES
  Stream #0:1(eng): Audio: eac3, 48000 Hz, 5.1(side), fltp, 640 kb/s (default)
    Metadata:
      BPS             : 640000
      DURATION        : 00:42:17.600000000
      NUMBER_OF_FRAMES: 79300
      NUMBER_OF_BYTES : 203008000
      _STATISTICS_WRITING_APP: mkvmerge v72.0.0 ('Minuano (Six-eight)') 64-bit
      _STATISTICS_WRITING_DATE_UTC: 2022-11-20 00:24:56
      _STATISTICS_TAGS: BPS DURATION NUMBER_OF_FRAMES NUMBER_OF_BYTES
[19:40:08] scan: decoding previews for title 1
[19:40:08] scan: audio 0x1: eac3, rate=48000Hz, bitrate=640000 English (E-AC3) (5.1 ch) (640 kbps)
[19:40:08] scan: 10 previews, 1920x960, 23.976 fps, autocrop = 0/0/0/0, aspect 2.00:1, PAR 1:1, color profile: 1-1-1, chroma location: left
[19:40:08] libhb: scan thread found 1 valid title(s)
[19:40:08] Starting Task: Encoding Pass
[19:40:08] Skipping crop/scale filter
[19:40:08] job configuration:
[19:40:08]  * source
[19:40:08]    + /home/ph3arr3t/Downloads/Kung.Fu.2021.S03E07.Villains.mkv
[19:40:08]    + title 1, chapter(s) 1 to 1
[19:40:08]    + container: matroska,webm
[19:40:08]    + data rate: 7967 kbps
[19:40:08]  * destination
[19:40:08]    + /home/ph3arr3t/Videos/Kung.Fu.2021.S03E07.Villains.mp4
[19:40:08]    + container: MPEG-4 (libavformat)
[19:40:08]      + align initial A/V stream timestamps
[19:40:08]  * video track
[19:40:08]    + decoder: h264 8-bit (yuv420p)
[19:40:08]    + filters
[19:40:08]      + Detelecine (pullup) (skip-left=1:skip-right=1:skip-top=4:skip-bottom=4:plane=0)
[19:40:08]      + Comb Detect (mode=3:spatial-metric=2:motion-thresh=1:spatial-thresh=1:filter-mode=2:block-thresh=40:block-width=16:block-height=16)
[19:40:08]      + Decomb (mode=39)
[19:40:08]      + Framerate Shaper (mode=2:rate=27000000/900000)
[19:40:08]        + frame rate: 23.976 fps -> peak rate limited to 30.000 fps
[19:40:08]    + Output geometry
[19:40:08]      + storage dimensions: 1920 x 960
[19:40:08]      + pixel aspect ratio: 1 : 1
[19:40:08]      + display dimensions: 1920 x 960
[19:40:08]    + encoder: H.264 (libx264)
[19:40:08]      + preset:  fast
[19:40:08]      + profile: main
[19:40:08]      + level:   4.0
[19:40:08]      + quality: 22.00 (RF)
[19:40:08]      + color profile: 1-1-1
[19:40:08]      + chroma location: left
[19:40:08]  * audio track 1
[19:40:08]    + decoder: English (E-AC3) (5.1 ch) (640 kbps) (track 1, id 0x1)
[19:40:08]      + bitrate: 640 kbps, samplerate: 48000 Hz
[19:40:08]    + mixdown: Stereo
[19:40:08]    + encoder: AAC (libavcodec)
[19:40:08]      + bitrate: 160 kbps, samplerate: 48000 Hz
[19:40:08] sync: expecting 60841 video frames
[19:40:08] encx264: min-keyint: 24, keyint: 240
[19:40:08] encx264: encoding at constant RF 22.000000
[19:40:08] encx264: unparsed options: level=4.0:ref=2:8x8dct=0:weightp=1:subme=6:vbv-bufsize=25000:vbv-maxrate=20000:rc-lookahead=30
x264 [info]: using SAR=1/1
x264 [info]: using cpu capabilities: MMX2 SSE2Fast SSSE3 SSE4.2 AVX FMA3 BMI2 AVX2
x264 [info]: profile Main, level 4.0, 4:2:0, 8-bit
[19:40:08] sync: first pts video is 0
[19:40:08] sync: Chapter 1 at frame 1 time 0
[19:40:08] sync: first pts audio 0x1 is 0
[19:52:02] reader: done. 1 scr changes
[19:52:03] work: average encoding speed for job is 85.176315 fps
[19:52:03] comb detect: heavy 2631 | light 1850 | uncombed 56358 | total 60839
[19:52:03] decomb: deinterlaced 2631 | blended 1850 | unfiltered 56358 | total 60839
[19:52:03] vfr: 60839 frames output, 0 dropped and 0 duped for CFR/PFR
[19:52:03] vfr: lost time: 7508 (0 frames)
[19:52:03] vfr: gained time: 7508 (8 frames) (0 not accounted for)
[19:52:03] eac3-decoder done: 79300 frames, 0 decoder errors
[19:52:03] h264-decoder done: 60841 frames, 0 decoder errors
[19:52:03] sync: got 60841 frames, 60841 expected
[19:52:03] sync: framerate min 23.976 fps, max 23.976 fps, avg 23.976 fps
x264 [info]: frame I:1089  Avg QP:17.22  size: 79259
x264 [info]: frame P:17840 Avg QP:20.49  size: 21672
x264 [info]: frame B:41910 Avg QP:21.71  size:  9864
x264 [info]: consecutive B-frames:  5.1%  5.6% 11.0% 78.3%
x264 [info]: mb I  I16..4: 44.2%  0.0% 55.8%
x264 [info]: mb P  I16..4:  8.6%  0.0%  3.7%  P16..4: 44.0%  9.9%  7.9%  0.0%  0.0%    skip:25.8%
x264 [info]: mb B  I16..4:  6.7%  0.0%  0.3%  B16..8: 28.2%  3.5%  0.1%  direct:17.9%  skip:43.4%  L0:47.9% L1:48.7% BI: 3.3%
x264 [info]: coded y,uvDC,uvAC intra: 23.3% 68.1% 17.4% inter: 6.1% 32.6% 0.1%
x264 [info]: i16 v,h,dc,p: 44% 21% 17% 19%
x264 [info]: i4 v,h,dc,ddl,ddr,vr,hd,vl,hu: 27% 18% 22%  6%  7%  6%  6%  5%  3%
x264 [info]: i8c dc,h,v,p: 55% 18% 22%  4%
x264 [info]: Weighted P-Frames: Y:1.0% UV:0.6%
x264 [info]: ref P L0: 66.7% 33.3%
x264 [info]: ref B L0: 79.2% 20.8%
x264 [info]: ref B L1: 95.1%  4.9%
x264 [info]: kb/s:2794.33
[19:52:03] mux: track 0, 60839 frames, 886316727 bytes, 2794.12 kbps, fifo 2048
[19:52:03] mux: track 1, 118951 frames, 50850845 bytes, 160.31 kbps, fifo 4096
[19:52:03] Finished work at: Sat Nov 19 19:52:03 2022

[19:52:03] libhb: work result = 0
[19:52:03] gtkgui: Custom Preset: /General/Fast 1080p30
[19:52:03] Starting work at: Sat Nov 19 19:52:03 2022

[19:52:03] 1 job(s) to process
[19:52:03] json job:
{
    "Audio": {
        "AudioList": [
            {
                "Bitrate": 160,
                "CompressionLevel": -1.0,
                "DRC": 0.0,
                "DitherMethod": "auto",
                "Encoder": "av_aac",
                "Gain": 0.0,
                "Mixdown": "stereo",
                "NormalizeMixLevel": false,
                "PresetEncoder": "av_aac",
                "Quality": -3.0,
                "Samplerate": 0,
                "Track": 0
            }
        ],
        "CopyMask": [
            "copy:aac"
        ],
        "FallbackEncoder": "av_aac"
    },
    "Destination": {
        "AlignAVStart": true,
        "ChapterList": [
            {
                "Duration": {
                    "Hours": 0,
                    "Minutes": 41,
                    "Seconds": 56,
                    "Ticks": 226529280
                },
                "Name": ""
            }
        ],
        "ChapterMarkers": false,
        "File": "/home/ph3arr3t/Videos/law.and.order.svu.s24e08.A Better Person.mp4",
        "InlineParameterSets": false,
        "Mp4Options": {
            "IpodAtom": false,
            "Mp4Optimize": false
        },
        "Mux": "m4v"
    },
    "Filters": {
        "FilterList": [
            {
                "ID": 2,
                "Settings": {
                    "plane": "0",
                    "skip-bottom": "4",
                    "skip-left": "1",
                    "skip-right": "1",
                    "skip-top": "4"
                }
            },
            {
                "ID": 3,
                "Settings": {
                    "block-height": "16",
                    "block-thresh": "40",
                    "block-width": "16",
                    "filter-mode": "2",
                    "mode": "3",
                    "motion-thresh": "1",
                    "spatial-metric": "2",
                    "spatial-thresh": "1"
                }
            },
            {
                "ID": 4,
                "Settings": {
                    "mode": "7"
                }
            },
            {
                "ID": 6,
                "Settings": {
                    "mode": 2,
                    "rate": "27000000/900000"
                }
            },
            {
                "ID": 13,
                "Settings": {
                    "crop-bottom": 0,
                    "crop-left": 0,
                    "crop-right": 0,
                    "crop-top": 0,
                    "height": 1080,
                    "width": 1920
                }
            }
        ]
    },
    "Metadata": {},
    "PAR": {
        "Den": 1,
        "Num": 1
    },
    "SequenceID": 0,
    "Source": {
        "Angle": 0,
        "Path": "/home/ph3arr3t/Downloads/law.and.order.svu.s24e08.A Better Person.mkv",
        "Range": {
            "End": 1,
            "Start": 1,
            "Type": "chapter"
        },
        "Title": 1
    },
    "Subtitle": {
        "Search": {
            "Burn": true,
            "Default": false,
            "Enable": false,
            "Forced": true
        },
        "SubtitleList": []
    },
    "Video": {
        "ChromaLocation": 1,
        "ColorInputFormat": 0,
        "ColorMatrix": 1,
        "ColorOutputFormat": 0,
        "ColorPrimaries": 1,
        "ColorRange": 1,
        "ColorTransfer": 1,
        "Encoder": "x264",
        "Level": "4.0",
        "Options": "",
        "Preset": "fast",
        "Profile": "main",
        "QSV": {
            "AdapterIndex": 0,
            "AsyncDepth": 0,
            "Decode": false
        },
        "Quality": 22.0,
        "Tune": "",
        "Turbo": false,
        "TwoPass": false
    }
}
[19:52:03] CPU: AMD Ryzen 9 5900HX with Radeon Graphics        
[19:52:03]  - logical processor count: 16
[19:52:03] Intel Quick Sync Video support: no
[19:52:03] hb_scan: path=/home/ph3arr3t/Downloads/law.and.order.svu.s24e08.A Better Person.mkv, title_index=1
udfread ERROR: ECMA 167 Volume Recognition failed
disc.c:333: failed opening UDF image /home/ph3arr3t/Downloads/law.and.order.svu.s24e08.A Better Person.mkv
disc.c:437: error opening file BDMV/index.bdmv
disc.c:437: error opening file BDMV/BACKUP/index.bdmv
bluray.c:2646: nav_get_title_list(/home/ph3arr3t/Downloads/law.and.order.svu.s24e08.A Better Person.mkv/) failed
[19:52:03] bd: not a bd - trying as a stream/file instead
libdvdread: DVDOpenFileUDF:UDFFindFile /VIDEO_TS/VIDEO_TS.IFO failed
libdvdnav: vm: vm: failed to read VIDEO_TS.IFO
[19:52:03] dvd: not a dvd - trying as a stream/file instead
Input #0, matroska,webm, from '/home/ph3arr3t/Downloads/law.and.order.svu.s24e08.A Better Person.mkv':
  Metadata:
    encoder         : libebml v1.4.4 + libmatroska v1.7.1
    creation_time   : 2022-11-20T00:29:50.000000Z
  Duration: 00:41:56.99, start: 0.000000, bitrate: 8022 kb/s
  Stream #0:0: Video: h264 (High), yuv420p(tv, bt709, progressive), 1920x1080 [SAR 1:1 DAR 16:9], Closed Captions, 23.98 fps, 23.98 tbr, 1k tbn, 47.95 tbc (default)
    Metadata:
      BPS             : 7828649
      DURATION        : 00:41:56.931000000
      NUMBER_OF_FRAMES: 60346
      NUMBER_OF_BYTES : 2463021371
      _STATISTICS_WRITING_APP: mkvmerge v72.0.0 ('Minuano (Six-eight)') 64-bit
      _STATISTICS_WRITING_DATE_UTC: 2022-11-20 00:29:50
      _STATISTICS_TAGS: BPS DURATION NUMBER_OF_FRAMES NUMBER_OF_BYTES
  Stream #0:1(eng): Audio: eac3, 48000 Hz, 5.1(side), fltp, 192 kb/s (default)
    Metadata:
      BPS             : 192000
      DURATION        : 00:41:56.992000000
      NUMBER_OF_FRAMES: 78656
      NUMBER_OF_BYTES : 60407808
      _STATISTICS_WRITING_APP: mkvmerge v72.0.0 ('Minuano (Six-eight)') 64-bit
      _STATISTICS_WRITING_DATE_UTC: 2022-11-20 00:29:50
      _STATISTICS_TAGS: BPS DURATION NUMBER_OF_FRAMES NUMBER_OF_BYTES
[19:52:03] scan: decoding previews for title 1
[19:52:03] scan: audio 0x1: eac3, rate=48000Hz, bitrate=192000 English (E-AC3) (5.1 ch) (192 kbps)
[19:52:04] scan: 10 previews, 1920x1080, 23.976 fps, autocrop = 0/0/0/0, aspect 16:9, PAR 1:1, color profile: 1-1-1, chroma location: left
[19:52:04] libhb: scan thread found 1 valid title(s)
[19:52:04] Starting Task: Encoding Pass
[19:52:04] Skipping crop/scale filter
[19:52:04] job configuration:
[19:52:04]  * source
[19:52:04]    + /home/ph3arr3t/Downloads/law.and.order.svu.s24e08.A Better Person.mkv
[19:52:04]    + title 1, chapter(s) 1 to 1
[19:52:04]    + container: matroska,webm
[19:52:04]    + data rate: 8022 kbps
[19:52:04]  * destination
[19:52:04]    + /home/ph3arr3t/Videos/law.and.order.svu.s24e08.A Better Person.mp4
[19:52:04]    + container: MPEG-4 (libavformat)
[19:52:04]      + align initial A/V stream timestamps
[19:52:04]  * video track
[19:52:04]    + decoder: h264 8-bit (yuv420p)
[19:52:04]    + filters
[19:52:04]      + Detelecine (pullup) (skip-left=1:skip-right=1:skip-top=4:skip-bottom=4:plane=0)
[19:52:04]      + Comb Detect (mode=3:spatial-metric=2:motion-thresh=1:spatial-thresh=1:filter-mode=2:block-thresh=40:block-width=16:block-height=16)
[19:52:04]      + Decomb (mode=39)
[19:52:04]      + Framerate Shaper (mode=2:rate=27000000/900000)
[19:52:04]        + frame rate: 23.976 fps -> peak rate limited to 30.000 fps
[19:52:04]    + Output geometry
[19:52:04]      + storage dimensions: 1920 x 1080
[19:52:04]      + pixel aspect ratio: 1 : 1
[19:52:04]      + display dimensions: 1920 x 1080
[19:52:04]    + encoder: H.264 (libx264)
[19:52:04]      + preset:  fast
[19:52:04]      + profile: main
[19:52:04]      + level:   4.0
[19:52:04]      + quality: 22.00 (RF)
[19:52:04]      + color profile: 1-1-1
[19:52:04]      + chroma location: left
[19:52:04]  * audio track 1
[19:52:04]    + decoder: English (E-AC3) (5.1 ch) (192 kbps) (track 1, id 0x1)
[19:52:04]      + bitrate: 192 kbps, samplerate: 48000 Hz
[19:52:04]    + mixdown: Stereo
[19:52:04]    + encoder: AAC (libavcodec)
[19:52:04]      + bitrate: 160 kbps, samplerate: 48000 Hz
[19:52:04] sync: expecting 60347 video frames
[19:52:04] encx264: min-keyint: 24, keyint: 240
[19:52:04] encx264: encoding at constant RF 22.000000
[19:52:04] encx264: unparsed options: level=4.0:ref=2:8x8dct=0:weightp=1:subme=6:vbv-bufsize=25000:vbv-maxrate=20000:rc-lookahead=30
x264 [info]: using SAR=1/1
x264 [info]: using cpu capabilities: MMX2 SSE2Fast SSSE3 SSE4.2 AVX FMA3 BMI2 AVX2
x264 [info]: profile Main, level 4.0, 4:2:0, 8-bit
[19:52:04] sync: first pts video is 0
[19:52:04] sync: Chapter 1 at frame 1 time 0
[19:52:04] sync: first pts audio 0x1 is 0
[20:05:13] reader: done. 1 scr changes
[20:05:14] work: average encoding speed for job is 76.432068 fps
[20:05:14] comb detect: heavy 504 | light 1130 | uncombed 58708 | total 60342
[20:05:14] decomb: deinterlaced 504 | blended 1130 | unfiltered 58708 | total 60342
[20:05:14] vfr: 60342 frames output, 0 dropped and 0 duped for CFR/PFR
[20:05:14] vfr: lost time: 15015 (0 frames)
[20:05:14] vfr: gained time: 15015 (16 frames) (0 not accounted for)
[20:05:14] eac3-decoder done: 78656 frames, 0 decoder errors
[20:05:14] h264-decoder done: 60346 frames, 0 decoder errors
[20:05:14] sync: got 60346 frames, 60347 expected
[20:05:14] sync: framerate min 23.976 fps, max 23.976 fps, avg 23.976 fps
x264 [info]: frame I:832   Avg QP:16.95  size: 94349
x264 [info]: frame P:16769 Avg QP:20.08  size: 28766
x264 [info]: frame B:42741 Avg QP:21.39  size: 12322
x264 [info]: consecutive B-frames:  3.1%  2.8% 13.5% 80.6%
x264 [info]: mb I  I16..4: 50.2%  0.0% 49.8%
x264 [info]: mb P  I16..4: 15.8%  0.0%  4.1%  P16..4: 42.1% 10.4%  5.9%  0.0%  0.0%    skip:21.7%
x264 [info]: mb B  I16..4:  6.6%  0.0%  0.3%  B16..8: 28.8%  4.8%  0.1%  direct:15.9%  skip:43.5%  L0:47.3% L1:48.6% BI: 4.1%
x264 [info]: coded y,uvDC,uvAC intra: 20.4% 67.6% 19.7% inter: 7.7% 31.5% 0.3%
x264 [info]: i16 v,h,dc,p: 47% 23% 18% 12%
x264 [info]: i4 v,h,dc,ddl,ddr,vr,hd,vl,hu: 28% 18% 21%  6%  7%  6%  5%  5%  4%
x264 [info]: i8c dc,h,v,p: 55% 19% 23%  3%
x264 [info]: Weighted P-Frames: Y:2.8% UV:1.6%
x264 [info]: ref P L0: 65.9% 34.1%
x264 [info]: ref B L0: 80.0% 20.0%
x264 [info]: ref B L1: 94.9%  5.1%
x264 [info]: kb/s:3456.63
[20:05:14] mux: track 0, 60342 frames, 1087480920 bytes, 3456.42 kbps, fifo 2048
[20:05:14] mux: track 1, 117985 frames, 50205105 bytes, 159.57 kbps, fifo 4096
[20:05:14] Finished work at: Sat Nov 19 20:05:14 2022

[20:05:14] libhb: work result = 0
[20:05:14] gtkgui: Custom Preset: /General/Fast 1080p30
[20:05:14] Starting work at: Sat Nov 19 20:05:14 2022

[20:05:14] 1 job(s) to process
[20:05:14] json job:
{
    "Audio": {
        "AudioList": [
            {
                "Bitrate": 160,
                "CompressionLevel": -1.0,
                "DRC": 0.0,
                "DitherMethod": "auto",
                "Encoder": "av_aac",
                "Gain": 0.0,
                "Mixdown": "stereo",
                "NormalizeMixLevel": false,
                "PresetEncoder": "av_aac",
                "Quality": -3.0,
                "Samplerate": 0,
                "Track": 0
            }
        ],
        "CopyMask": [
            "copy:aac"
        ],
        "FallbackEncoder": "av_aac"
    },
    "Destination": {
        "AlignAVStart": true,
        "ChapterList": [
            {
                "Duration": {
                    "Hours": 0,
                    "Minutes": 43,
                    "Seconds": 11,
                    "Ticks": 233205120
                },
                "Name": ""
            }
        ],
        "ChapterMarkers": false,
        "File": "/home/ph3arr3t/Videos/Blue.Bloods.S13E06.On.Dangerous.Ground.mp4",
        "InlineParameterSets": false,
        "Mp4Options": {
            "IpodAtom": false,
            "Mp4Optimize": false
        },
        "Mux": "m4v"
    },
    "Filters": {
        "FilterList": [
            {
                "ID": 2,
                "Settings": {
                    "plane": "0",
                    "skip-bottom": "4",
                    "skip-left": "1",
                    "skip-right": "1",
                    "skip-top": "4"
                }
            },
            {
                "ID": 3,
                "Settings": {
                    "block-height": "16",
                    "block-thresh": "40",
                    "block-width": "16",
                    "filter-mode": "2",
                    "mode": "3",
                    "motion-thresh": "1",
                    "spatial-metric": "2",
                    "spatial-thresh": "1"
                }
            },
            {
                "ID": 4,
                "Settings": {
                    "mode": "7"
                }
            },
            {
                "ID": 6,
                "Settings": {
                    "mode": 2,
                    "rate": "27000000/900000"
                }
            },
            {
                "ID": 13,
                "Settings": {
                    "crop-bottom": 0,
                    "crop-left": 0,
                    "crop-right": 0,
                    "crop-top": 0,
                    "height": 1080,
                    "width": 1920
                }
            }
        ]
    },
    "Metadata": {},
    "PAR": {
        "Den": 1,
        "Num": 1
    },
    "SequenceID": 0,
    "Source": {
        "Angle": 0,
        "Path": "/home/ph3arr3t/Downloads/Blue.Bloods.S13E06.On.Dangerous.Ground.mkv",
        "Range": {
            "End": 1,
            "Start": 1,
            "Type": "chapter"
        },
        "Title": 1
    },
    "Subtitle": {
        "Search": {
            "Burn": true,
            "Default": false,
            "Enable": false,
            "Forced": false
        },
        "SubtitleList": []
    },
    "Video": {
        "ChromaLocation": 1,
        "ColorInputFormat": 0,
        "ColorMatrix": 1,
        "ColorOutputFormat": 0,
        "ColorPrimaries": 1,
        "ColorRange": 1,
        "ColorTransfer": 1,
        "Encoder": "x264",
        "Level": "4.0",
        "Options": "",
        "Preset": "fast",
        "Profile": "main",
        "QSV": {
            "AdapterIndex": 0,
            "AsyncDepth": 0,
            "Decode": false
        },
        "Quality": 22.0,
        "Tune": "",
        "Turbo": false,
        "TwoPass": false
    }
}
[20:05:14] CPU: AMD Ryzen 9 5900HX with Radeon Graphics        
[20:05:14]  - logical processor count: 16
[20:05:14] Intel Quick Sync Video support: no
[20:05:14] hb_scan: path=/home/ph3arr3t/Downloads/Blue.Bloods.S13E06.On.Dangerous.Ground.mkv, title_index=1
udfread ERROR: ECMA 167 Volume Recognition failed
disc.c:333: failed opening UDF image /home/ph3arr3t/Downloads/Blue.Bloods.S13E06.On.Dangerous.Ground.mkv
disc.c:437: error opening file BDMV/index.bdmv
disc.c:437: error opening file BDMV/BACKUP/index.bdmv
bluray.c:2646: nav_get_title_list(/home/ph3arr3t/Downloads/Blue.Bloods.S13E06.On.Dangerous.Ground.mkv/) failed
[20:05:14] bd: not a bd - trying as a stream/file instead
libdvdread: DVDOpenFileUDF:UDFFindFile /VIDEO_TS/VIDEO_TS.IFO failed
libdvdnav: vm: vm: failed to read VIDEO_TS.IFO
[20:05:14] dvd: not a dvd - trying as a stream/file instead
Input #0, matroska,webm, from '/home/ph3arr3t/Downloads/Blue.Bloods.S13E06.On.Dangerous.Ground.mkv':
  Metadata:
    encoder         : libebml v1.4.4 + libmatroska v1.7.1
    creation_time   : 2022-11-20T00:23:38.000000Z
  Duration: 00:43:11.17, start: 0.000000, bitrate: 7273 kb/s
  Stream #0:0: Video: h264 (High), yuv420p(tv, bt709, progressive), 1920x1080 [SAR 1:1 DAR 16:9], 24 fps, 24 tbr, 1k tbn, 48 tbc (default)
    Metadata:
      BPS             : 7080005
      DURATION        : 00:43:11.167000000
      NUMBER_OF_FRAMES: 62188
      NUMBER_OF_BYTES : 2293184415
      _STATISTICS_WRITING_APP: mkvmerge v72.0.0 ('Minuano (Six-eight)') 64-bit
      _STATISTICS_WRITING_DATE_UTC: 2022-11-20 00:23:38
      _STATISTICS_TAGS: BPS DURATION NUMBER_OF_FRAMES NUMBER_OF_BYTES
  Stream #0:1(eng): Audio: eac3, 48000 Hz, 5.1(side), fltp, 192 kb/s (default)
    Metadata:
      BPS             : 192000
      DURATION        : 00:43:11.168000000
      NUMBER_OF_FRAMES: 80974
      NUMBER_OF_BYTES : 62188032
      _STATISTICS_WRITING_APP: mkvmerge v72.0.0 ('Minuano (Six-eight)') 64-bit
      _STATISTICS_WRITING_DATE_UTC: 2022-11-20 00:23:38
      _STATISTICS_TAGS: BPS DURATION NUMBER_OF_FRAMES NUMBER_OF_BYTES
[20:05:14] scan: decoding previews for title 1
[20:05:14] scan: audio 0x1: eac3, rate=48000Hz, bitrate=192000 English (E-AC3) (5.1 ch) (192 kbps)
[20:05:14] scan: 10 previews, 1920x1080, 24.000 fps, autocrop = 0/0/0/0, aspect 16:9, PAR 1:1, color profile: 1-1-1, chroma location: left
[20:05:14] libhb: scan thread found 1 valid title(s)
[20:05:14] Starting Task: Encoding Pass
[20:05:14] Skipping crop/scale filter
[20:05:14] job configuration:
[20:05:14]  * source
[20:05:14]    + /home/ph3arr3t/Downloads/Blue.Bloods.S13E06.On.Dangerous.Ground.mkv
[20:05:14]    + title 1, chapter(s) 1 to 1
[20:05:14]    + container: matroska,webm
[20:05:14]    + data rate: 7273 kbps
[20:05:14]  * destination
[20:05:14]    + /home/ph3arr3t/Videos/Blue.Bloods.S13E06.On.Dangerous.Ground.mp4
[20:05:14]    + container: MPEG-4 (libavformat)
[20:05:14]      + align initial A/V stream timestamps
[20:05:14]  * video track
[20:05:14]    + decoder: h264 8-bit (yuv420p)
[20:05:14]    + filters
[20:05:14]      + Detelecine (pullup) (skip-left=1:skip-right=1:skip-top=4:skip-bottom=4:plane=0)
[20:05:14]      + Comb Detect (mode=3:spatial-metric=2:motion-thresh=1:spatial-thresh=1:filter-mode=2:block-thresh=40:block-width=16:block-height=16)
[20:05:14]      + Decomb (mode=39)
[20:05:14]      + Framerate Shaper (mode=2:rate=27000000/900000)
[20:05:14]        + frame rate: 24.000 fps -> peak rate limited to 30.000 fps
[20:05:14]    + Output geometry
[20:05:14]      + storage dimensions: 1920 x 1080
[20:05:14]      + pixel aspect ratio: 1 : 1
[20:05:14]      + display dimensions: 1920 x 1080
[20:05:14]    + encoder: H.264 (libx264)
[20:05:14]      + preset:  fast
[20:05:14]      + profile: main
[20:05:14]      + level:   4.0
[20:05:14]      + quality: 22.00 (RF)
[20:05:14]      + color profile: 1-1-1
[20:05:14]      + chroma location: left
[20:05:14]  * audio track 1
[20:05:14]    + decoder: English (E-AC3) (5.1 ch) (192 kbps) (track 1, id 0x1)
[20:05:14]      + bitrate: 192 kbps, samplerate: 48000 Hz
[20:05:14]    + mixdown: Stereo
[20:05:14]    + encoder: AAC (libavcodec)
[20:05:14]      + bitrate: 160 kbps, samplerate: 48000 Hz
[20:05:14] sync: expecting 62188 video frames
[20:05:14] encx264: min-keyint: 24, keyint: 240
[20:05:14] encx264: encoding at constant RF 22.000000
[20:05:14] encx264: unparsed options: level=4.0:ref=2:8x8dct=0:weightp=1:subme=6:vbv-bufsize=25000:vbv-maxrate=20000:rc-lookahead=30
x264 [info]: using SAR=1/1
x264 [info]: using cpu capabilities: MMX2 SSE2Fast SSSE3 SSE4.2 AVX FMA3 BMI2 AVX2
x264 [info]: profile Main, level 4.0, 4:2:0, 8-bit
[20:05:15] sync: first pts video is 0
[20:05:15] sync: Chapter 1 at frame 1 time 0
[20:05:15] sync: first pts audio 0x1 is 0
[20:18:23] reader: done. 1 scr changes
[20:18:24] work: average encoding speed for job is 78.811798 fps
[20:18:24] comb detect: heavy 76 | light 278 | uncombed 61822 | total 62176
[20:18:24] decomb: deinterlaced 76 | blended 278 | unfiltered 61822 | total 62176
[20:18:24] vfr: 62176 frames output, 0 dropped and 0 duped for CFR/PFR
[20:18:24] vfr: lost time: 45000 (0 frames)
[20:18:24] vfr: gained time: 45000 (48 frames) (0 not accounted for)
[20:18:24] eac3-decoder done: 80974 frames, 0 decoder errors
[20:18:24] h264-decoder done: 62188 frames, 0 decoder errors
[20:18:24] sync: got 62188 frames, 62188 expected
[20:18:24] sync: framerate min 24.000 fps, max 24.000 fps, avg 24.000 fps
x264 [info]: frame I:938   Avg QP:16.76  size:100269
x264 [info]: frame P:17044 Avg QP:19.80  size: 22464
x264 [info]: frame B:44194 Avg QP:21.18  size:  9432
x264 [info]: consecutive B-frames:  2.8%  4.2%  9.2% 83.7%
x264 [info]: mb I  I16..4: 42.1%  0.0% 57.9%
x264 [info]: mb P  I16..4:  5.6%  0.0%  2.6%  P16..4: 42.3%  9.9%  7.8%  0.0%  0.0%    skip:31.8%
x264 [info]: mb B  I16..4:  4.9%  0.0%  0.2%  B16..8: 25.8%  3.2%  0.1%  direct:14.7%  skip:51.1%  L0:47.9% L1:48.7% BI: 3.5%
x264 [info]: coded y,uvDC,uvAC intra: 26.1% 64.6% 15.9% inter: 5.3% 26.1% 0.1%
x264 [info]: i16 v,h,dc,p: 47% 21% 17% 15%
x264 [info]: i4 v,h,dc,ddl,ddr,vr,hd,vl,hu: 27% 18% 20%  6%  7%  6%  6%  5%  4%
x264 [info]: i8c dc,h,v,p: 58% 18% 21%  3%
x264 [info]: Weighted P-Frames: Y:1.1% UV:0.4%
x264 [info]: ref P L0: 64.5% 35.5%
x264 [info]: ref B L0: 77.0% 23.0%
x264 [info]: ref B L1: 94.1%  5.9%
x264 [info]: kb/s:2759.51
[20:18:24] mux: track 0, 62176 frames, 893758784 bytes, 2759.36 kbps, fifo 2048
[20:18:24] mux: track 1, 121462 frames, 51620008 bytes, 159.37 kbps, fifo 4096
[20:18:24] Finished work at: Sat Nov 19 20:18:24 2022

[20:18:24] libhb: work result = 0
[20:18:24] gtkgui: Custom Preset: /General/Fast 1080p30
[20:18:24] Starting work at: Sat Nov 19 20:18:24 2022

[20:18:24] 1 job(s) to process
[20:18:24] json job:
{
    "Audio": {
        "AudioList": [
            {
                "Bitrate": 160,
                "CompressionLevel": -1.0,
                "DRC": 0.0,
                "DitherMethod": "auto",
                "Encoder": "av_aac",
                "Gain": 0.0,
                "Mixdown": "stereo",
                "NormalizeMixLevel": false,
                "PresetEncoder": "av_aac",
                "Quality": -3.0,
                "Samplerate": 0,
                "Track": 0
            }
        ],
        "CopyMask": [
            "copy:aac"
        ],
        "FallbackEncoder": "av_aac"
    },
    "Destination": {
        "AlignAVStart": true,
        "ChapterList": [
            {
                "Duration": {
                    "Hours": 0,
                    "Minutes": 41,
                    "Seconds": 44,
                    "Ticks": 225423360
                },
                "Name": ""
            }
        ],
        "ChapterMarkers": false,
        "File": "/home/ph3arr3t/Videos/Law.and.Order.Organized.Crime.S03E08.Whipping.Post.mp4",
        "InlineParameterSets": false,
        "Mp4Options": {
            "IpodAtom": false,
            "Mp4Optimize": false
        },
        "Mux": "m4v"
    },
    "Filters": {
        "FilterList": [
            {
                "ID": 2,
                "Settings": {
                    "plane": "0",
                    "skip-bottom": "4",
                    "skip-left": "1",
                    "skip-right": "1",
                    "skip-top": "4"
                }
            },
            {
                "ID": 3,
                "Settings": {
                    "block-height": "16",
                    "block-thresh": "40",
                    "block-width": "16",
                    "filter-mode": "2",
                    "mode": "3",
                    "motion-thresh": "1",
                    "spatial-metric": "2",
                    "spatial-thresh": "1"
                }
            },
            {
                "ID": 4,
                "Settings": {
                    "mode": "7"
                }
            },
            {
                "ID": 6,
                "Settings": {
                    "mode": 2,
                    "rate": "27000000/900000"
                }
            },
            {
                "ID": 13,
                "Settings": {
                    "crop-bottom": 0,
                    "crop-left": 0,
                    "crop-right": 0,
                    "crop-top": 0,
                    "height": 720,
                    "width": 1280
                }
            }
        ]
    },
    "Metadata": {},
    "PAR": {
        "Den": 1,
        "Num": 1
    },
    "SequenceID": 0,
    "Source": {
        "Angle": 0,
        "Path": "/home/ph3arr3t/Downloads/Law.and.Order.Organized.Crime.S03E08.Whipping.Post.mkv",
        "Range": {
            "End": 1,
            "Start": 1,
            "Type": "chapter"
        },
        "Title": 1
    },
    "Subtitle": {
        "Search": {
            "Burn": true,
            "Default": false,
            "Enable": false,
            "Forced": false
        },
        "SubtitleList": []
    },
    "Video": {
        "ChromaLocation": 1,
        "ColorInputFormat": 0,
        "ColorMatrix": 1,
        "ColorOutputFormat": 0,
        "ColorPrimaries": 1,
        "ColorRange": 1,
        "ColorTransfer": 1,
        "Encoder": "x264",
        "Level": "4.0",
        "Options": "",
        "Preset": "fast",
        "Profile": "main",
        "QSV": {
            "AdapterIndex": 0,
            "AsyncDepth": 0,
            "Decode": false
        },
        "Quality": 22.0,
        "Tune": "",
        "Turbo": false,
        "TwoPass": false
    }
}
[20:18:24] CPU: AMD Ryzen 9 5900HX with Radeon Graphics        
[20:18:24]  - logical processor count: 16
[20:18:24] Intel Quick Sync Video support: no
[20:18:24] hb_scan: path=/home/ph3arr3t/Downloads/Law.and.Order.Organized.Crime.S03E08.Whipping.Post.mkv, title_index=1
udfread ERROR: ECMA 167 Volume Recognition failed
disc.c:333: failed opening UDF image /home/ph3arr3t/Downloads/Law.and.Order.Organized.Crime.S03E08.Whipping.Post.mkv
disc.c:437: error opening file BDMV/index.bdmv
disc.c:437: error opening file BDMV/BACKUP/index.bdmv
bluray.c:2646: nav_get_title_list(/home/ph3arr3t/Downloads/Law.and.Order.Organized.Crime.S03E08.Whipping.Post.mkv/) failed
[20:18:24] bd: not a bd - trying as a stream/file instead
libdvdread: DVDOpenFileUDF:UDFFindFile /VIDEO_TS/VIDEO_TS.IFO failed
libdvdnav: vm: vm: failed to read VIDEO_TS.IFO
[20:18:24] dvd: not a dvd - trying as a stream/file instead
Input #0, matroska,webm, from '/home/ph3arr3t/Downloads/Law.and.Order.Organized.Crime.S03E08.Whipping.Post.mkv':
  Metadata:
    encoder         : libebml v1.4.4 + libmatroska v1.7.1
    creation_time   : 2022-11-20T00:26:43.000000Z
  Duration: 00:41:44.70, start: 0.000000, bitrate: 5779 kb/s
  Stream #0:0: Video: h264 (High), yuv420p(tv, bt709, progressive), 1280x720 [SAR 1:1 DAR 16:9], 23.98 fps, 23.98 tbr, 1k tbn, 47.95 tbc (default)
    Metadata:
      BPS             : 5137969
      DURATION        : 00:41:44.669000000
      NUMBER_OF_FRAMES: 60052
      NUMBER_OF_BYTES : 1608614148
      _STATISTICS_WRITING_APP: mkvmerge v72.0.0 ('Minuano (Six-eight)') 64-bit
      _STATISTICS_WRITING_DATE_UTC: 2022-11-20 00:26:43
      _STATISTICS_TAGS: BPS DURATION NUMBER_OF_FRAMES NUMBER_OF_BYTES
  Stream #0:1(eng): Audio: eac3, 48000 Hz, 5.1(side), fltp, 640 kb/s (default)
    Metadata:
      BPS             : 640000
      DURATION        : 00:41:44.704000000
      NUMBER_OF_FRAMES: 78272
      NUMBER_OF_BYTES : 200376320
      _STATISTICS_WRITING_APP: mkvmerge v72.0.0 ('Minuano (Six-eight)') 64-bit
      _STATISTICS_WRITING_DATE_UTC: 2022-11-20 00:26:43
      _STATISTICS_TAGS: BPS DURATION NUMBER_OF_FRAMES NUMBER_OF_BYTES
[20:18:24] scan: decoding previews for title 1
[20:18:24] scan: audio 0x1: eac3, rate=48000Hz, bitrate=640000 English (E-AC3) (5.1 ch) (640 kbps)
[20:18:24] scan: 10 previews, 1280x720, 23.976 fps, autocrop = 0/0/0/0, aspect 16:9, PAR 1:1, color profile: 1-1-1, chroma location: left
[20:18:24] libhb: scan thread found 1 valid title(s)
[20:18:24] Starting Task: Encoding Pass
[20:18:24] Skipping crop/scale filter
[20:18:24] job configuration:
[20:18:24]  * source
[20:18:24]    + /home/ph3arr3t/Downloads/Law.and.Order.Organized.Crime.S03E08.Whipping.Post.mkv
[20:18:24]    + title 1, chapter(s) 1 to 1
[20:18:24]    + container: matroska,webm
[20:18:24]    + data rate: 5779 kbps
[20:18:24]  * destination
[20:18:24]    + /home/ph3arr3t/Videos/Law.and.Order.Organized.Crime.S03E08.Whipping.Post.mp4
[20:18:24]    + container: MPEG-4 (libavformat)
[20:18:24]      + align initial A/V stream timestamps
[20:18:24]  * video track
[20:18:24]    + decoder: h264 8-bit (yuv420p)
[20:18:24]    + filters
[20:18:24]      + Detelecine (pullup) (skip-left=1:skip-right=1:skip-top=4:skip-bottom=4:plane=0)
[20:18:24]      + Comb Detect (mode=3:spatial-metric=2:motion-thresh=1:spatial-thresh=1:filter-mode=2:block-thresh=40:block-width=16:block-height=16)
[20:18:24]      + Decomb (mode=39)
[20:18:24]      + Framerate Shaper (mode=2:rate=27000000/900000)
[20:18:24]        + frame rate: 23.976 fps -> peak rate limited to 30.000 fps
[20:18:24]    + Output geometry
[20:18:24]      + storage dimensions: 1280 x 720
[20:18:24]      + pixel aspect ratio: 1 : 1
[20:18:24]      + display dimensions: 1280 x 720
[20:18:24]    + encoder: H.264 (libx264)
[20:18:24]      + preset:  fast
[20:18:24]      + profile: main
[20:18:24]      + level:   4.0
[20:18:24]      + quality: 22.00 (RF)
[20:18:24]      + color profile: 1-1-1
[20:18:24]      + chroma location: left
[20:18:24]  * audio track 1
[20:18:24]    + decoder: English (E-AC3) (5.1 ch) (640 kbps) (track 1, id 0x1)
[20:18:24]      + bitrate: 640 kbps, samplerate: 48000 Hz
[20:18:24]    + mixdown: Stereo
[20:18:24]    + encoder: AAC (libavcodec)
[20:18:24]      + bitrate: 160 kbps, samplerate: 48000 Hz
[20:18:24] sync: expecting 60052 video frames
[20:18:24] encx264: min-keyint: 24, keyint: 240
[20:18:24] encx264: encoding at constant RF 22.000000
[20:18:24] encx264: unparsed options: level=4.0:ref=2:8x8dct=0:weightp=1:subme=6:vbv-bufsize=25000:vbv-maxrate=20000:rc-lookahead=30
x264 [info]: using SAR=1/1
x264 [info]: using cpu capabilities: MMX2 SSE2Fast SSSE3 SSE4.2 AVX FMA3 BMI2 AVX2
x264 [info]: profile Main, level 4.0, 4:2:0, 8-bit
[20:18:24] sync: first pts video is 0
[20:18:24] sync: Chapter 1 at frame 1 time 0
[20:18:24] sync: first pts audio 0x1 is 0
[20:24:38] reader: done. 1 scr changes
[20:24:38] work: average encoding speed for job is 160.538879 fps
[20:24:38] comb detect: heavy 714 | light 1725 | uncombed 57605 | total 60044
[20:24:38] decomb: deinterlaced 714 | blended 1725 | unfiltered 57605 | total 60044
[20:24:38] vfr: 60044 frames output, 0 dropped and 0 duped for CFR/PFR
[20:24:38] vfr: lost time: 30031 (0 frames)
[20:24:38] vfr: gained time: 30031 (32 frames) (0 not accounted for)
[20:24:38] eac3-decoder done: 78272 frames, 0 decoder errors
[20:24:38] h264-decoder done: 60052 frames, 0 decoder errors
[20:24:38] sync: got 60052 frames, 60052 expected
[20:24:38] sync: framerate min 23.976 fps, max 23.976 fps, avg 23.976 fps
x264 [info]: frame I:871   Avg QP:17.98  size: 63389
x264 [info]: frame P:16729 Avg QP:21.30  size: 14252
x264 [info]: frame B:42444 Avg QP:22.80  size:  4900
x264 [info]: consecutive B-frames:  3.4%  4.4%  8.2% 84.1%
x264 [info]: mb I  I16..4: 33.6%  0.0% 66.4%
x264 [info]: mb P  I16..4:  4.4%  0.0%  4.5%  P16..4: 43.5% 13.3%  8.6%  0.0%  0.0%    skip:25.7%
x264 [info]: mb B  I16..4:  4.5%  0.0%  0.3%  B16..8: 29.4%  4.6%  0.2%  direct:13.9%  skip:47.2%  L0:45.0% L1:49.0% BI: 6.0%
x264 [info]: coded y,uvDC,uvAC intra: 36.8% 63.7% 18.7% inter: 8.3% 24.8% 0.2%
x264 [info]: i16 v,h,dc,p: 39% 20% 19% 22%
x264 [info]: i4 v,h,dc,ddl,ddr,vr,hd,vl,hu: 26% 18% 18%  6%  8%  7%  7%  6%  4%
x264 [info]: i8c dc,h,v,p: 57% 17% 22%  4%
x264 [info]: Weighted P-Frames: Y:2.3% UV:0.8%
x264 [info]: ref P L0: 69.9% 30.1%
x264 [info]: ref B L0: 82.4% 17.6%
x264 [info]: ref B L1: 95.3%  4.7%
x264 [info]: kb/s:1602.14
[20:24:38] mux: track 0, 60044 frames, 501571044 bytes, 1601.98 kbps, fifo 2048
[20:24:38] mux: track 1, 117409 frames, 50163720 bytes, 160.22 kbps, fifo 4096
[20:24:38] Finished work at: Sat Nov 19 20:24:38 2022

[20:24:38] libhb: work result = 0
Last edited by s55 on Sun Nov 20, 2022 2:33 pm, edited 1 time in total.
Reason: Added Code blocks
Post Reply