Help with aspect ratio on 1964 Man on a String

General questions or discussion about HandBrake, Video and/or audio transcoding, trends etc.
Post Reply
wunderlong88
Posts: 47
Joined: Mon Apr 29, 2013 8:15 pm

Help with aspect ratio on 1964 Man on a String

Post by wunderlong88 »

Description of problem or question:
I am trying to encode 1964 Man on a String but the output is not the correct aspect ratio. I would appreciate help with this. Thank you.



Steps to reproduce the problem (If Applicable):




HandBrake version (e.g., 1.0.0):
1.3.1



Operating system and version (e.g., Ubuntu 16.04 LTS, macOS 10.13 High Sierra, Windows 10 Creators Update):

Windows 10


HandBrake Activity Log ***required*** (see How-to get an activity log)

Code: Select all

HandBrake 1.3.1 (2020010400)
OS: Microsoft Windows NT 10.0.18362.0
CPU: Intel(R) Core(TM)2 Quad CPU    Q8300  @ 2.50GHz
Ram: 8191 MB, 
GPU Information:
  NVIDIA GeForce G210 - 21.21.13.4201
Screen: 1920x1200
Temp Dir: C:\Users\Linda\AppData\Local\Temp\
Install Dir: C:\Program Files\Handbrake
Data Dir: C:\Users\Linda\AppData\Roaming\HandBrake

-------------------------------------------


# Starting Encode ...

[11:31:52] base preset: Fast 1080p30
[11:31:52] hb_init: starting libhb thread
[11:31:52] Starting work at: Fri Jan 10 11:31:52 2020
[11:31:52] 1 job(s) to process
[11:31:52] json job:
{
  "Audio": {
    "AudioList": [
      {
        "Bitrate": 160,
        "DRC": 0.0,
        "Encoder": "av_aac",
        "Gain": 0.0,
        "Mixdown": 4,
        "NormalizeMixLevel": false,
        "Samplerate": 0,
        "Name": "Stereo",
        "Track": 0,
        "DitherMethod": 0
      }
    ],
    "CopyMask": [
      "copy:aac",
      "copy:ac3",
      "copy:dtshd",
      "copy:dts",
      "copy:eac3",
      "copy:flac",
      "copy:mp3",
      "copy:truehd"
    ],
    "FallbackEncoder": "ac3"
  },
  "Destination": {
    "ChapterList": [
      {
        "Name": "Chapter 1"
      },
      {
        "Name": "Chapter 2"
      },
      {
        "Name": "Chapter 3"
      },
      {
        "Name": "Chapter 4"
      }
    ],
    "ChapterMarkers": true,
    "AlignAVStart": true,
    "File": "C:\\Users\\Linda\\Videos\\Man On A String (1964) - Own-1.m4v",
    "Mp4Options": {
      "IpodAtom": false,
      "Mp4Optimize": false
    },
    "Mux": "mp4"
  },
  "Filters": {
    "FilterList": [
      {
        "ID": 4,
        "Settings": {
          "mode": "7"
        }
      },
      {
        "ID": 3,
        "Settings": {
          "block-height": "16",
          "block-thresh": "40",
          "block-width": "16",
          "filter-mode": "2",
          "mode": "3",
          "motion-thresh": "1",
          "spatial-metric": "2",
          "spatial-thresh": "1"
        }
      },
      {
        "ID": 12,
        "Settings": {
          "crop-bottom": "8",
          "crop-left": "0",
          "crop-right": "0",
          "crop-top": "6",
          "height": "466",
          "width": "720"
        }
      },
      {
        "ID": 6,
        "Settings": {
          "mode": "2",
          "rate": "27000000/900000"
        }
      }
    ]
  },
  "PAR": {
    "Num": 8,
    "Den": 9
  },
  "Metadata": {},
  "SequenceID": 0,
  "Source": {
    "Angle": 1,
    "Range": {
      "Type": "chapter",
      "Start": 1,
      "End": 2
    },
    "Title": 1,
    "Path": "L:\\Test 2\\Man on a String (1964) - own.mkv"
  },
  "Subtitle": {
    "Search": {
      "Burn": true,
      "Default": false,
      "Enable": true,
      "Forced": true
    },
    "SubtitleList": []
  },
  "Video": {
    "Encoder": "x264",
    "Level": "4.0",
    "TwoPass": false,
    "Turbo": false,
    "ColorMatrixCode": 0,
    "Options": "",
    "Preset": "fast",
    "Profile": "main",
    "Quality": 22.0,
    "QSV": {
      "Decode": false,
      "AsyncDepth": 0
    }
  }
}
[11:31:52] CPU: Intel(R) Core(TM)2 Quad CPU    Q8300  @ 2.50GHz
[11:31:52]  - logical processor count: 4
[11:31:52] Intel Quick Sync Video support: no
[11:31:52] hb_scan: path=L:\Test 2\Man on a String (1964) - own.mkv, title_index=1
udfread ERROR: ECMA 167 Volume Recognition failed
src/libbluray/disc/disc.c:323: failed opening UDF image L:\Test 2\Man on a String (1964) - own.mkv
src/libbluray/disc/disc.c:424: error opening file BDMV\index.bdmv
src/libbluray/disc/disc.c:424: error opening file BDMV\BACKUP\index.bdmv
src/libbluray/bluray.c:2585: nav_get_title_list(L:\Test 2\Man on a String (1964) - own.mkv\) failed
[11:31:52] bd: not a bd - trying as a stream/file instead
libdvdnav: Using dvdnav version 6.0.1
libdvdread: Encrypted DVD support unavailable.
libdvdread:DVDOpenFileUDF:UDFFindFile /VIDEO_TS/VIDEO_TS.IFO failed
libdvdread:DVDOpenFileUDF:UDFFindFile /VIDEO_TS/VIDEO_TS.BUP failed
libdvdread: Can't open file VIDEO_TS.IFO.
libdvdnav: vm: failed to read VIDEO_TS.IFO
[11:31:52] dvd: not a dvd - trying as a stream/file instead
Input #0, matroska,webm, from 'L:\Test 2\Man on a String (1964) - own.mkv':
  Metadata:
    encoder         : libmakemkv v1.14.1 (1.3.5/1.4.7) win(x64-release)
    creation_time   : 2020-01-10T17:03:02.000000Z
  Duration: 01:32:34.08, start: 0.000000, bitrate: 3589 kb/s
    Chapter #0:0: start 0.000000, end 848.314133
    Metadata:
      title           : Chapter 01
    Chapter #0:1: start 848.314133, end 2948.879267
    Metadata:
      title           : Chapter 02
    Chapter #0:2: start 2948.879267, end 4563.158600
    Metadata:
      title           : Chapter 03
    Chapter #0:3: start 4563.158600, end 5554.081867
    Metadata:
      title           : Chapter 04
    Stream #0:0(eng): Video: mpeg2video (Main), yuv420p(tv, bottom first), 720x480 [SAR 8:9 DAR 4:3], 29.97 fps, 29.97 tbr, 1k tbn, 59.94 tbc
    Metadata:
      BPS-eng         : 3391672
      DURATION-eng    : 01:32:34.081866666
      NUMBER_OF_FRAMES-eng: 166456
      NUMBER_OF_BYTES-eng: 2354703304
      SOURCE_ID-eng   : 0100E0
      _STATISTICS_WRITING_APP-eng: MakeMKV v1.14.1 win(x64-release)
      _STATISTICS_WRITING_DATE_UTC-eng: 2020-01-10 17:03:02
      _STATISTICS_TAGS-eng: BPS DURATION NUMBER_OF_FRAMES NUMBER_OF_BYTES SOURCE_ID
    Stream #0:1(eng): Audio: ac3, 48000 Hz, stereo, fltp, 192 kb/s (default)
    Metadata:
      title           : Stereo
      BPS-eng         : 192000
      DURATION-eng    : 01:32:33.888000000
      NUMBER_OF_FRAMES-eng: 173559
      NUMBER_OF_BYTES-eng: 133293312
      SOURCE_ID-eng   : 0180BD
      _STATISTICS_WRITING_APP-eng: MakeMKV v1.14.1 win(x64-release)
      _STATISTICS_WRITING_DATE_UTC-eng: 2020-01-10 17:03:02
      _STATISTICS_TAGS-eng: BPS DURATION NUMBER_OF_FRAMES NUMBER_OF_BYTES SOURCE_ID
[11:31:52] scan: decoding previews for title 1
[11:31:52] scan: audio 0x1: ac3, rate=48000Hz, bitrate=192000 English (AC3) (2.0 ch) (192 kbps)
[11:31:52] scan: 10 previews, 720x480, 29.970 fps, autocrop = 6/8/0/0, aspect 4:3, PAR 8:9
[11:31:52] libhb: scan thread found 1 valid title(s)
[11:31:52] Skipping subtitle scan.  No suitable subtitle tracks.
[11:31:52] Starting Task: Encoding Pass
[11:31:52] job configuration:
[11:31:52]  * source
[11:31:52]    + L:\Test 2\Man on a String (1964) - own.mkv
[11:31:52]    + title 1, chapter(s) 1 to 2
[11:31:52]    + container: matroska,webm
[11:31:52]    + data rate: 3589 kbps
[11:31:52]  * destination
[11:31:52]    + C:\Users\Linda\Videos\Man On A String (1964) - Own-1.m4v
[11:31:52]    + container: MPEG-4 (libavformat)
[11:31:52]      + align initial A/V stream timestamps
[11:31:52]      + chapter markers
[11:31:52]  * video track
[11:31:52]    + decoder: mpeg2video
[11:31:52]    + filters
[11:31:52]      + Comb Detect (mode=3:spatial-metric=2:motion-thresh=1:spatial-thresh=1:filter-mode=2:block-thresh=40:block-width=16:block-height=16)
[11:31:52]      + Decomb (mode=39)
[11:31:52]      + Framerate Shaper (mode=2:rate=27000000/900000)
[11:31:52]        + frame rate: 29.970 fps -> peak rate limited to 30.000 fps
[11:31:52]      + Crop and Scale (width=720:height=466:crop-top=6:crop-bottom=8:crop-left=0:crop-right=0)
[11:31:52]        + source: 720 * 480, crop (6/8/0/0): 720 * 466, scale: 720 * 466
[11:31:52]    + Output geometry
[11:31:52]      + storage dimensions: 720 x 466
[11:31:52]      + pixel aspect ratio: 8 : 9
[11:31:52]      + display dimensions: 640 x 466
[11:31:52]    + encoder: H.264 (libx264)
[11:31:52]      + preset:  fast
[11:31:52]      + profile: main
[11:31:52]      + level:   4.0
[11:31:52]      + quality: 22.00 (RF)
[11:31:52]      + color profile: 6-1-6
[11:31:52]  * audio track 1
[11:31:52]    + name: Stereo
[11:31:52]    + decoder: English (AC3) (2.0 ch) (192 kbps) (track 1, id 0x1)
[11:31:52]      + bitrate: 192 kbps, samplerate: 48000 Hz
[11:31:52]    + mixdown: Stereo
[11:31:52]    + dither: none
[11:31:52]    + encoder: AAC (libavcodec)
[11:31:52]      + bitrate: 160 kbps, samplerate: 48000 Hz
[11:31:52] sync: expecting 88377 video frames
[11:31:52] encx264: min-keyint: 30, keyint: 300
[11:31:52] encx264: encoding at constant RF 22.000000
[11:31:52] encx264: unparsed options: level=4.0:ref=2:8x8dct=0:weightp=1:subme=6:vbv-bufsize=25000:vbv-maxrate=20000:rc-lookahead=30
x264 [info]: using SAR=8/9
x264 [info]: using cpu capabilities: MMX2 SSE2Fast SSSE3 SSE4.1 Cache64
x264 [info]: profile Main, level 4.0, 4:2:0, 8-bit
[11:31:52] sync: first pts video is 0
[11:31:52] sync: "Chapter 1" (1) at frame 1 time 0
[11:31:52] sync: first pts audio 0x1 is 0
[11:38:48] sync: "Chapter 2" (2) at frame 25428 time 76357281
[11:54:14] reader: end of chapter 2 (media 2) reached at media chapter 3
[11:54:14] reader: done. 1 scr changes
[11:54:16] work: average encoding speed for job is 65.803253 fps
[11:54:16] comb detect: heavy 29235 | light 4764 | uncombed 54381 | total 88380
[11:54:16] decomb: deinterlaced 29235 | blended 4764 | unfiltered 54381 | total 88380
[11:54:16] vfr: 88380 frames output, 0 dropped and 0 duped for CFR/PFR
[11:54:16] vfr: lost time: 0 (0 frames)
[11:54:16] vfr: gained time: 0 (0 frames) (0 not accounted for)
[11:54:16] ac3-decoder done: 92155 frames, 0 decoder errors
[11:54:16] mpeg2video-decoder done: 88380 frames, 0 decoder errors
[11:54:16] sync: got 88380 frames, 88377 expected
[11:54:16] sync: framerate min 10.000 fps, max 29.970 fps, avg 29.969 fps
x264 [info]: frame I:455   Avg QP:18.93  size: 25702
x264 [info]: frame P:23405 Avg QP:22.59  size:  6382
x264 [info]: frame B:64520 Avg QP:25.13  size:  1342
x264 [info]: consecutive B-frames:  1.3%  2.9%  3.6% 92.2%
x264 [info]: mb I  I16..4: 25.8%  0.0% 74.2%
x264 [info]: mb P  I16..4:  2.3%  0.0%  4.0%  P16..4: 38.2% 16.7%  9.5%  0.0%  0.0%    skip:29.3%
x264 [info]: mb B  I16..4:  2.4%  0.0%  0.3%  B16..8: 19.9%  4.9%  0.3%  direct: 4.9%  skip:67.4%  L0:40.7% L1:48.2% BI:11.1%
x264 [info]: coded y,uvDC,uvAC intra: 44.0% 0.0% 0.0% inter: 10.7% 0.0% 0.0%
x264 [info]: i16 v,h,dc,p: 49% 20% 19% 13%
x264 [info]: i4 v,h,dc,ddl,ddr,vr,hd,vl,hu: 35% 14% 16%  5%  6%  8%  5%  6%  4%
x264 [info]: i8c dc,h,v,p: 100%  0%  0%  0%
x264 [info]: Weighted P-Frames: Y:20.6% UV:0.0%
x264 [info]: ref P L0: 64.7% 35.3%
x264 [info]: ref B L0: 81.5% 18.5%
x264 [info]: ref B L1: 95.6%  4.4%
x264 [info]: kb/s:671.73
[11:54:16] mux: track 0, 88380 frames, 247604310 bytes, 671.69 kbps, fifo 8192
[11:54:16] mux: track 1, 138233 frames, 59227470 bytes, 160.67 kbps, fifo 8192
[11:54:16] Finished work at: Fri Jan 10 11:54:16 2020
[11:54:16] libhb: work result = 0

# Encode Completed ...


wunderlong88
Posts: 47
Joined: Mon Apr 29, 2013 8:15 pm

Re: Help with aspect ratio on 1964 Man on a String

Post by wunderlong88 »

I think I posted the wrong activity log.

HandBrake Activity Log ***required*** (see How-to get an activity log)

Code: Select all

HandBrake 1.3.1 (2020010400)
OS: Microsoft Windows NT 10.0.18362.0
CPU: Intel(R) Core(TM)2 Quad CPU    Q8300  @ 2.50GHz
Ram: 8191 MB, 
GPU Information:
  NVIDIA GeForce G210 - 21.21.13.4201
Screen: 1920x1200
Temp Dir: C:\Users\Linda\AppData\Local\Temp\
Install Dir: C:\Program Files\Handbrake
Data Dir: C:\Users\Linda\AppData\Roaming\HandBrake

-------------------------------------------


# Starting Encode ...

[11:31:52] base preset: Fast 1080p30
[11:31:52] hb_init: starting libhb thread
[11:31:52] Starting work at: Fri Jan 10 11:31:52 2020
[11:31:52] 1 job(s) to process
[11:31:52] json job:
{
  "Audio": {
    "AudioList": [
      {
        "Bitrate": 160,
        "DRC": 0.0,
        "Encoder": "av_aac",
        "Gain": 0.0,
        "Mixdown": 4,
        "NormalizeMixLevel": false,
        "Samplerate": 0,
        "Name": "Stereo",
        "Track": 0,
        "DitherMethod": 0
      }
    ],
    "CopyMask": [
      "copy:aac",
      "copy:ac3",
      "copy:dtshd",
      "copy:dts",
      "copy:eac3",
      "copy:flac",
      "copy:mp3",
      "copy:truehd"
    ],
    "FallbackEncoder": "ac3"
  },
  "Destination": {
    "ChapterList": [
      {
        "Name": "Chapter 1"
      },
      {
        "Name": "Chapter 2"
      },
      {
        "Name": "Chapter 3"
      },
      {
        "Name": "Chapter 4"
      }
    ],
    "ChapterMarkers": true,
    "AlignAVStart": true,
    "File": "C:\\Users\\Linda\\Videos\\Man On A String (1964) - Own-1.m4v",
    "Mp4Options": {
      "IpodAtom": false,
      "Mp4Optimize": false
    },
    "Mux": "mp4"
  },
  "Filters": {
    "FilterList": [
      {
        "ID": 4,
        "Settings": {
          "mode": "7"
        }
      },
      {
        "ID": 3,
        "Settings": {
          "block-height": "16",
          "block-thresh": "40",
          "block-width": "16",
          "filter-mode": "2",
          "mode": "3",
          "motion-thresh": "1",
          "spatial-metric": "2",
          "spatial-thresh": "1"
        }
      },
      {
        "ID": 12,
        "Settings": {
          "crop-bottom": "8",
          "crop-left": "0",
          "crop-right": "0",
          "crop-top": "6",
          "height": "466",
          "width": "720"
        }
      },
      {
        "ID": 6,
        "Settings": {
          "mode": "2",
          "rate": "27000000/900000"
        }
      }
    ]
  },
  "PAR": {
    "Num": 8,
    "Den": 9
  },
  "Metadata": {},
  "SequenceID": 0,
  "Source": {
    "Angle": 1,
    "Range": {
      "Type": "chapter",
      "Start": 1,
      "End": 2
    },
    "Title": 1,
    "Path": "L:\\Test 2\\Man on a String (1964) - own.mkv"
  },
  "Subtitle": {
    "Search": {
      "Burn": true,
      "Default": false,
      "Enable": true,
      "Forced": true
    },
    "SubtitleList": []
  },
  "Video": {
    "Encoder": "x264",
    "Level": "4.0",
    "TwoPass": false,
    "Turbo": false,
    "ColorMatrixCode": 0,
    "Options": "",
    "Preset": "fast",
    "Profile": "main",
    "Quality": 22.0,
    "QSV": {
      "Decode": false,
      "AsyncDepth": 0
    }
  }
}
[11:31:52] CPU: Intel(R) Core(TM)2 Quad CPU    Q8300  @ 2.50GHz
[11:31:52]  - logical processor count: 4
[11:31:52] Intel Quick Sync Video support: no
[11:31:52] hb_scan: path=L:\Test 2\Man on a String (1964) - own.mkv, title_index=1
udfread ERROR: ECMA 167 Volume Recognition failed
src/libbluray/disc/disc.c:323: failed opening UDF image L:\Test 2\Man on a String (1964) - own.mkv
src/libbluray/disc/disc.c:424: error opening file BDMV\index.bdmv
src/libbluray/disc/disc.c:424: error opening file BDMV\BACKUP\index.bdmv
src/libbluray/bluray.c:2585: nav_get_title_list(L:\Test 2\Man on a String (1964) - own.mkv\) failed
[11:31:52] bd: not a bd - trying as a stream/file instead
libdvdnav: Using dvdnav version 6.0.1
libdvdread: Encrypted DVD support unavailable.
libdvdread:DVDOpenFileUDF:UDFFindFile /VIDEO_TS/VIDEO_TS.IFO failed
libdvdread:DVDOpenFileUDF:UDFFindFile /VIDEO_TS/VIDEO_TS.BUP failed
libdvdread: Can't open file VIDEO_TS.IFO.
libdvdnav: vm: failed to read VIDEO_TS.IFO
[11:31:52] dvd: not a dvd - trying as a stream/file instead
Input #0, matroska,webm, from 'L:\Test 2\Man on a String (1964) - own.mkv':
  Metadata:
    encoder         : libmakemkv v1.14.1 (1.3.5/1.4.7) win(x64-release)
    creation_time   : 2020-01-10T17:03:02.000000Z
  Duration: 01:32:34.08, start: 0.000000, bitrate: 3589 kb/s
    Chapter #0:0: start 0.000000, end 848.314133
    Metadata:
      title           : Chapter 01
    Chapter #0:1: start 848.314133, end 2948.879267
    Metadata:
      title           : Chapter 02
    Chapter #0:2: start 2948.879267, end 4563.158600
    Metadata:
      title           : Chapter 03
    Chapter #0:3: start 4563.158600, end 5554.081867
    Metadata:
      title           : Chapter 04
    Stream #0:0(eng): Video: mpeg2video (Main), yuv420p(tv, bottom first), 720x480 [SAR 8:9 DAR 4:3], 29.97 fps, 29.97 tbr, 1k tbn, 59.94 tbc
    Metadata:
      BPS-eng         : 3391672
      DURATION-eng    : 01:32:34.081866666
      NUMBER_OF_FRAMES-eng: 166456
      NUMBER_OF_BYTES-eng: 2354703304
      SOURCE_ID-eng   : 0100E0
      _STATISTICS_WRITING_APP-eng: MakeMKV v1.14.1 win(x64-release)
      _STATISTICS_WRITING_DATE_UTC-eng: 2020-01-10 17:03:02
      _STATISTICS_TAGS-eng: BPS DURATION NUMBER_OF_FRAMES NUMBER_OF_BYTES SOURCE_ID
    Stream #0:1(eng): Audio: ac3, 48000 Hz, stereo, fltp, 192 kb/s (default)
    Metadata:
      title           : Stereo
      BPS-eng         : 192000
      DURATION-eng    : 01:32:33.888000000
      NUMBER_OF_FRAMES-eng: 173559
      NUMBER_OF_BYTES-eng: 133293312
      SOURCE_ID-eng   : 0180BD
      _STATISTICS_WRITING_APP-eng: MakeMKV v1.14.1 win(x64-release)
      _STATISTICS_WRITING_DATE_UTC-eng: 2020-01-10 17:03:02
      _STATISTICS_TAGS-eng: BPS DURATION NUMBER_OF_FRAMES NUMBER_OF_BYTES SOURCE_ID
[11:31:52] scan: decoding previews for title 1
[11:31:52] scan: audio 0x1: ac3, rate=48000Hz, bitrate=192000 English (AC3) (2.0 ch) (192 kbps)
[11:31:52] scan: 10 previews, 720x480, 29.970 fps, autocrop = 6/8/0/0, aspect 4:3, PAR 8:9
[11:31:52] libhb: scan thread found 1 valid title(s)
[11:31:52] Skipping subtitle scan.  No suitable subtitle tracks.
[11:31:52] Starting Task: Encoding Pass
[11:31:52] job configuration:
[11:31:52]  * source
[11:31:52]    + L:\Test 2\Man on a String (1964) - own.mkv
[11:31:52]    + title 1, chapter(s) 1 to 2
[11:31:52]    + container: matroska,webm
[11:31:52]    + data rate: 3589 kbps
[11:31:52]  * destination
[11:31:52]    + C:\Users\Linda\Videos\Man On A String (1964) - Own-1.m4v
[11:31:52]    + container: MPEG-4 (libavformat)
[11:31:52]      + align initial A/V stream timestamps
[11:31:52]      + chapter markers
[11:31:52]  * video track
[11:31:52]    + decoder: mpeg2video
[11:31:52]    + filters
[11:31:52]      + Comb Detect (mode=3:spatial-metric=2:motion-thresh=1:spatial-thresh=1:filter-mode=2:block-thresh=40:block-width=16:block-height=16)
[11:31:52]      + Decomb (mode=39)
[11:31:52]      + Framerate Shaper (mode=2:rate=27000000/900000)
[11:31:52]        + frame rate: 29.970 fps -> peak rate limited to 30.000 fps
[11:31:52]      + Crop and Scale (width=720:height=466:crop-top=6:crop-bottom=8:crop-left=0:crop-right=0)
[11:31:52]        + source: 720 * 480, crop (6/8/0/0): 720 * 466, scale: 720 * 466
[11:31:52]    + Output geometry
[11:31:52]      + storage dimensions: 720 x 466
[11:31:52]      + pixel aspect ratio: 8 : 9
[11:31:52]      + display dimensions: 640 x 466
[11:31:52]    + encoder: H.264 (libx264)
[11:31:52]      + preset:  fast
[11:31:52]      + profile: main
[11:31:52]      + level:   4.0
[11:31:52]      + quality: 22.00 (RF)
[11:31:52]      + color profile: 6-1-6
[11:31:52]  * audio track 1
[11:31:52]    + name: Stereo
[11:31:52]    + decoder: English (AC3) (2.0 ch) (192 kbps) (track 1, id 0x1)
[11:31:52]      + bitrate: 192 kbps, samplerate: 48000 Hz
[11:31:52]    + mixdown: Stereo
[11:31:52]    + dither: none
[11:31:52]    + encoder: AAC (libavcodec)
[11:31:52]      + bitrate: 160 kbps, samplerate: 48000 Hz
[11:31:52] sync: expecting 88377 video frames
[11:31:52] encx264: min-keyint: 30, keyint: 300
[11:31:52] encx264: encoding at constant RF 22.000000
[11:31:52] encx264: unparsed options: level=4.0:ref=2:8x8dct=0:weightp=1:subme=6:vbv-bufsize=25000:vbv-maxrate=20000:rc-lookahead=30
x264 [info]: using SAR=8/9
x264 [info]: using cpu capabilities: MMX2 SSE2Fast SSSE3 SSE4.1 Cache64
x264 [info]: profile Main, level 4.0, 4:2:0, 8-bit
[11:31:52] sync: first pts video is 0
[11:31:52] sync: "Chapter 1" (1) at frame 1 time 0
[11:31:52] sync: first pts audio 0x1 is 0
[11:38:48] sync: "Chapter 2" (2) at frame 25428 time 76357281
[11:54:14] reader: end of chapter 2 (media 2) reached at media chapter 3
[11:54:14] reader: done. 1 scr changes
[11:54:16] work: average encoding speed for job is 65.803253 fps
[11:54:16] comb detect: heavy 29235 | light 4764 | uncombed 54381 | total 88380
[11:54:16] decomb: deinterlaced 29235 | blended 4764 | unfiltered 54381 | total 88380
[11:54:16] vfr: 88380 frames output, 0 dropped and 0 duped for CFR/PFR
[11:54:16] vfr: lost time: 0 (0 frames)
[11:54:16] vfr: gained time: 0 (0 frames) (0 not accounted for)
[11:54:16] ac3-decoder done: 92155 frames, 0 decoder errors
[11:54:16] mpeg2video-decoder done: 88380 frames, 0 decoder errors
[11:54:16] sync: got 88380 frames, 88377 expected
[11:54:16] sync: framerate min 10.000 fps, max 29.970 fps, avg 29.969 fps
x264 [info]: frame I:455   Avg QP:18.93  size: 25702
x264 [info]: frame P:23405 Avg QP:22.59  size:  6382
x264 [info]: frame B:64520 Avg QP:25.13  size:  1342
x264 [info]: consecutive B-frames:  1.3%  2.9%  3.6% 92.2%
x264 [info]: mb I  I16..4: 25.8%  0.0% 74.2%
x264 [info]: mb P  I16..4:  2.3%  0.0%  4.0%  P16..4: 38.2% 16.7%  9.5%  0.0%  0.0%    skip:29.3%
x264 [info]: mb B  I16..4:  2.4%  0.0%  0.3%  B16..8: 19.9%  4.9%  0.3%  direct: 4.9%  skip:67.4%  L0:40.7% L1:48.2% BI:11.1%
x264 [info]: coded y,uvDC,uvAC intra: 44.0% 0.0% 0.0% inter: 10.7% 0.0% 0.0%
x264 [info]: i16 v,h,dc,p: 49% 20% 19% 13%
x264 [info]: i4 v,h,dc,ddl,ddr,vr,hd,vl,hu: 35% 14% 16%  5%  6%  8%  5%  6%  4%
x264 [info]: i8c dc,h,v,p: 100%  0%  0%  0%
x264 [info]: Weighted P-Frames: Y:20.6% UV:0.0%
x264 [info]: ref P L0: 64.7% 35.3%
x264 [info]: ref B L0: 81.5% 18.5%
x264 [info]: ref B L1: 95.6%  4.4%
x264 [info]: kb/s:671.73
[11:54:16] mux: track 0, 88380 frames, 247604310 bytes, 671.69 kbps, fifo 8192
[11:54:16] mux: track 1, 138233 frames, 59227470 bytes, 160.67 kbps, fifo 8192
[11:54:16] Finished work at: Fri Jan 10 11:54:16 2020
[11:54:16] libhb: work result = 0

# Encode Completed ...


User avatar
Rodeo
HandBrake Team
Posts: 12621
Joined: Tue Mar 03, 2009 8:55 pm

Re: Help with aspect ratio on 1964 Man on a String

Post by Rodeo »

Is this an episode of The Fugitive? The output looks like it's 4:3 which is correct for a TV series of the 1960s.
wunderlong88
Posts: 47
Joined: Mon Apr 29, 2013 8:15 pm

Re: Help with aspect ratio on 1964 Man on a String

Post by wunderlong88 »

No, it is a movie.
wunderlong88
Posts: 47
Joined: Mon Apr 29, 2013 8:15 pm

Re: Help with aspect ratio on 1964 Man on a String

Post by wunderlong88 »

Everybody looks tall and skinny to me.
User avatar
Rodeo
HandBrake Team
Posts: 12621
Joined: Tue Mar 03, 2009 8:55 pm

Re: Help with aspect ratio on 1964 Man on a String

Post by Rodeo »

The movie is from 1960 apparently, whereas the episode of The Fugitive titled "Man on a String" aired in 1964, which got me confused.
wunderlong88
Posts: 47
Joined: Mon Apr 29, 2013 8:15 pm

Re: Help with aspect ratio on 1964 Man on a String

Post by wunderlong88 »

Sorry, got the wrong year.
User avatar
Rodeo
HandBrake Team
Posts: 12621
Joined: Tue Mar 03, 2009 8:55 pm

Re: Help with aspect ratio on 1964 Man on a String

Post by Rodeo »

Not really a big deal, but it does matter as to which aspect ratio is correct. Did MakeMKV offer to rip any other titles than the one you did?

Either way, in HandBrake, under Dimensions, you can do:

(1) switch anamorphic mode to Custom

(2) uncheck "keep aspect ratio"

(3) switch PAR from "8 x 9" to "32 x 27"

(4) leave everything else as is

The output should then be (in the log):

Code: Select all

    + Output geometry
      + storage dimensions: 720 x 466
      + pixel aspect ratio: 32 : 27
      + display dimensions: 853 x 466
wunderlong88
Posts: 47
Joined: Mon Apr 29, 2013 8:15 pm

Re: Help with aspect ratio on 1964 Man on a String

Post by wunderlong88 »

There were 3 movies on the disc and I ripped all of them. I haven't checked the other 2 yet to see if the ratio was right. I don't think there was anything else on there.
wunderlong88
Posts: 47
Joined: Mon Apr 29, 2013 8:15 pm

Re: Help with aspect ratio on 1964 Man on a String

Post by wunderlong88 »

Thanks. I am trying out the settings now.
Post Reply