Setting for USB/DVD Player

General questions or discussion about HandBrake, Video and/or audio transcoding, trends etc.
Post Reply
csaa2191
Posts: 1
Joined: Wed Sep 04, 2019 4:01 pm

Setting for USB/DVD Player

Post by csaa2191 » Wed Sep 04, 2019 4:07 pm

Description of problem or question:

Hello! I'm looking for the settings to transcode a computer video (like youtube) into a file that can be reed by DVD Player with USB Stick.
The Player can reed MPEG4 files, and it recnize only AVi files. I tried something, but or I see and i hear nothing, or I hear only the file
I have an old PAL TV.
Have you any ideas?

Thank you PP

Steps to reproduce the problem (If Applicable):




HandBrake version (e.g., 1.0.0):

Nandbrake 1.2.2


Operating system and version (e.g., Ubuntu 16.04 LTS, macOS 10.13 High Sierra, Windows 10 Creators Update):

Ubuntu Mate 18.04


HandBrake Activity Log ***required*** (see How-to get an activity log)

Code: Select all

17:28:06] gtkgui: HandBrake 20180625001806-cda4188-master (2018062501) - Linux x86_64 - https://handbrake.fr
[17:28:06] hb_init: starting libhb thread
[17:28:06] hb_init: starting libhb thread
[17:28:06] hb_init: starting libhb thread
LibThai: Fail to open dictionary at '/usr/share/libthai/thbrk.tri'.
shm_open() failed: Permission denied
shm_open() failed: Permission denied
shm_open() failed: Permission denied
shm_open() failed: Permission denied
shm_open() failed: Permission denied
shm_open() failed: Permission denied
shm_open() failed: Permission denied
[17:28:17] CPU: Pentium(R) Dual-Core CPU       T4300  @ 2.10GHz
[17:28:17]  - logical processor count: 2
[17:28:17] hb_scan: path=/home/pino/Schreibtisch/esel_large.jpg, title_index=0
shm_open() failed: Permission denied
shm_open() failed: Permission denied
udfread ERROR: ECMA 167 Volume Recognition failed
disc.c:323: failed opening UDF image /home/pino/Schreibtisch/esel_large.jpg
disc.c:424: error opening file BDMV/index.bdmv
disc.c:424: error opening file BDMV/BACKUP/index.bdmv
[17:28:17] bd: not a bd - trying as a stream/file instead
libdvdnav: Using dvdnav version 5.0.3
libdvdread: Encrypted DVD support unavailable.
libdvdread:DVDOpenFileUDF:UDFFindFile /VIDEO_TS/VIDEO_TS.IFO failed
libdvdread:DVDOpenFileUDF:UDFFindFile /VIDEO_TS/VIDEO_TS.BUP failed
libdvdread: Can't open file VIDEO_TS.IFO.
libdvdnav: vm: failed to read VIDEO_TS.IFO
[17:28:17] dvd: not a dvd - trying as a stream/file instead
Input #0, image2, from '/home/pino/Schreibtisch/esel_large.jpg':
  Duration: 00:00:00.04, start: 0.000000, bitrate: N/A
    Stream #0:0: Video: mjpeg
      yuvj420p, pc, bt470bg/unknown/unknown
      1100x1100 [PAR 96:96 DAR 1:1]
      25 tbn
[17:28:17] scan: decoding previews for title 1
[17:28:17] avformat_seek_file failed
[17:28:17] Warning: Could not read data for preview 2, skipped
[17:28:17] scan: 1 previews, 1100x1100, 25,000 fps, autocrop = 0/0/0/0, aspect 1,00:1, PAR 96:96
[17:28:17] Title is likely interlaced or telecined (0 out of 1 previews). You should do something about that.
[17:28:17] scan: Too few previews (1), trying harder
[17:28:17] scan: decoding previews for title 1
[17:28:17] Warning: Could not read data for preview 2, skipped
[17:28:17] scan: 1 previews, 1100x1100, 25,000 fps, autocrop = 0/0/0/0, aspect 1,00:1, PAR 96:96
[17:28:17] Title is likely interlaced or telecined (0 out of 1 previews). You should do something about that.
[17:28:17] libhb: scan thread found 1 valid title(s)
shm_open() failed: Permission denied
shm_open() failed: Permission denied
shm_open() failed: Permission denied
shm_open() failed: Permission denied
[17:28:21] CPU: Pentium(R) Dual-Core CPU       T4300  @ 2.10GHz
[17:28:21]  - logical processor count: 2
[17:28:21] hb_scan: path=/home/pino/Schreibtisch/jjjjj, title_index=0
shm_open() failed: Permission denied
shm_open() failed: Permission denied
udfread ERROR: ECMA 167 Volume Recognition failed
disc.c:323: failed opening UDF image /home/pino/Schreibtisch/jjjjj
disc.c:424: error opening file BDMV/index.bdmv
disc.c:424: error opening file BDMV/BACKUP/index.bdmv
[17:28:21] bd: not a bd - trying as a stream/file instead
libdvdnav: Using dvdnav version 5.0.3
libdvdread: Encrypted DVD support unavailable.
libdvdread:DVDOpenFileUDF:UDFFindFile /VIDEO_TS/VIDEO_TS.IFO failed
libdvdread:DVDOpenFileUDF:UDFFindFile /VIDEO_TS/VIDEO_TS.BUP failed
libdvdread: Can't open file VIDEO_TS.IFO.
libdvdnav: vm: failed to read VIDEO_TS.IFO
[17:28:21] dvd: not a dvd - trying as a stream/file instead
Input #0, matroska,webm, from '/home/pino/Schreibtisch/jjjjj':
  Metadata:
    ENCODER         : Google
  Duration: 00:03:11.99, start: 0.000000, bitrate: N/A
    Stream #0:0: Video: vp8
      yuv420p, 640x360, PAR 1:1 DAR 16:9
      25 fps, 1k tbn (default)
    Metadata:
      DURATION        : 00:03:11.960000000
    Stream #0:1: Audio: vorbis
      44100 Hz, stereo, fltp (default)
    Metadata:
      DURATION        : 00:03:11.998000000
[17:28:21] scan: decoding previews for title 1
[17:28:21] scan: audio 0x1: vorbis, rate=44100Hz, bitrate=1 Unknown (Vorbis) (2.0 ch)
[17:28:21] scan: 10 previews, 640x360, 25,000 fps, autocrop = 0/0/0/0, aspect 16:9, PAR 1:1
[17:28:21] libhb: scan thread found 1 valid title(s)
shm_open() failed: Permission denied
shm_open() failed: Permission denied
shm_open() failed: Permission denied
shm_open() failed: Permission denied
shm_open() failed: Permission denied
shm_open() failed: Permission denied
shm_open() failed: Permission denied
shm_open() failed: Permission denied
shm_open() failed: Permission denied
shm_open() failed: Permission denied
shm_open() failed: Permission denied
shm_open() failed: Permission denied
shm_open() failed: Permission denied
shm_open() failed: Permission denied
shm_open() failed: Permission denied
shm_open() failed: Permission denied
shm_open() failed: Permission denied
shm_open() failed: Permission denied
shm_open() failed: Permission denied
shm_open() failed: Permission denied
shm_open() failed: Permission denied
shm_open() failed: Permission denied
shm_open() failed: Permission denied
shm_open() failed: Permission denied
shm_open() failed: Permission denied
shm_open() failed: Permission denied
shm_open() failed: Permission denied
shm_open() failed: Permission denied
shm_open() failed: Permission denied
shm_open() failed: Permission denied
shm_open() failed: Permission denied
shm_open() failed: Permission denied
shm_open() failed: Permission denied
shm_open() failed: Permission denied
shm_open() failed: Permission denied
shm_open() failed: Permission denied
shm_open() failed: Permission denied
shm_open() failed: Permission denied
shm_open() failed: Permission denied
shm_open() failed: Permission denied
shm_open() failed: Permission denied
shm_open() failed: Permission denied
shm_open() failed: Permission denied
shm_open() failed: Permission denied
shm_open() failed: Permission denied
shm_open() failed: Permission denied
shm_open() failed: Permission denied
shm_open() failed: Permission denied
shm_open() failed: Permission denied
shm_open() failed: Permission denied
shm_open() failed: Permission denied
shm_open() failed: Permission denied
shm_open() failed: Permission denied
[17:41:19] gtkgui: Modified Preset: /General/Fast 1080p30
[17:41:19] 1 job(s) to process
[17:41:19] json job:
{
    "Audio": {
        "AudioList": [
            {
                "Bitrate": 160,
                "CompressionLevel": -1.0,
                "DRC": 0.0,
                "DitherMethod": "auto",
                "Encoder": "av_aac",
                "Gain": 0.0,
                "Mixdown": "stereo",
                "NormalizeMixLevel": false,
                "PresetEncoder": "av_aac",
                "Quality": -3.0,
                "Samplerate": 0,
                "Track": 0
            }
        ],
        "CopyMask": [
            "copy:aac"
        ],
        "FallbackEncoder": "av_aac"
    },
    "Destination": {
        "AlignAVStart": true,
        "ChapterList": [
            {
                "Name": ""
            }
        ],
        "ChapterMarkers": false,
        "File": "/home/pino/Schreibtisch/prova.avi",
        "InlineParameterSets": false,
        "Mp4Options": {
            "IpodAtom": false,
            "Mp4Optimize": false
        },
        "Mux": "m4v"
    },
    "Filters": {
        "FilterList": [
            {
                "ID": 3,
                "Settings": {
                    "block-height": "16",
                    "block-thresh": "40",
                    "block-width": "16",
                    "filter-mode": "2",
                    "mode": "3",
                    "motion-thresh": "1",
                    "spatial-metric": "2",
                    "spatial-thresh": "1"
                }
            },
            {
                "ID": 4,
                "Settings": {
                    "mode": "7"
                }
            },
            {
                "ID": 6,
                "Settings": {
                    "mode": 1,
                    "rate": "27000000/1080000"
                }
            },
            {
                "ID": 11,
                "Settings": {
                    "crop-bottom": 0,
                    "crop-left": 0,
                    "crop-right": 0,
                    "crop-top": 0,
                    "height": 576,
                    "width": 720
                }
            }
        ]
    },
    "Metadata": {
        "Name": "jjjjj"
    },
    "PAR": {
        "Den": 45,
        "Num": 64
    },
    "SequenceID": 0,
    "Source": {
        "Angle": 0,
        "Path": "/home/pino/Schreibtisch/jjjjj",
        "Range": {
            "End": 1,
            "Start": 1,
            "Type": "chapter"
        },
        "Title": 1
    },
    "Subtitle": {
        "Search": {
            "Burn": true,
            "Default": false,
            "Enable": false,
            "Forced": false
        },
        "SubtitleList": []
    },
    "Video": {
        "Bitrate": 6000,
        "ColorMatrixCode": 0,
        "Encoder": "mpeg4",
        "Level": "auto",
        "Options": "",
        "Preset": "medium",
        "Profile": "auto",
        "QSV": {
            "AsyncDepth": 4,
            "Decode": false
        },
        "Tune": "",
        "Turbo": true,
        "TwoPass": false
    }
}
[17:41:19] CPU: Pentium(R) Dual-Core CPU       T4300  @ 2.10GHz
[17:41:19]  - logical processor count: 2
[17:41:19] hb_scan: path=/home/pino/Schreibtisch/jjjjj, title_index=1
udfread ERROR: ECMA 167 Volume Recognition failed
disc.c:323: failed opening UDF image /home/pino/Schreibtisch/jjjjj
disc.c:424: error opening file BDMV/index.bdmv
disc.c:424: error opening file BDMV/BACKUP/index.bdmv
[17:41:19] bd: not a bd - trying as a stream/file instead
libdvdnav: Using dvdnav version 5.0.3
libdvdread: Encrypted DVD support unavailable.
libdvdread:DVDOpenFileUDF:UDFFindFile /VIDEO_TS/VIDEO_TS.IFO failed
libdvdread:DVDOpenFileUDF:UDFFindFile /VIDEO_TS/VIDEO_TS.BUP failed
libdvdread: Can't open file VIDEO_TS.IFO.
libdvdnav: vm: failed to read VIDEO_TS.IFO
[17:41:19] dvd: not a dvd - trying as a stream/file instead
Input #0, matroska,webm, from '/home/pino/Schreibtisch/jjjjj':
  Metadata:
    ENCODER         : Google
  Duration: 00:03:11.99, start: 0.000000, bitrate: N/A
    Stream #0:0: Video: vp8
      yuv420p, 640x360, PAR 1:1 DAR 16:9
      25 fps, 1k tbn (default)
    Metadata:
      DURATION        : 00:03:11.960000000
    Stream #0:1: Audio: vorbis
      44100 Hz, stereo, fltp (default)
    Metadata:
      DURATION        : 00:03:11.998000000
[17:41:19] scan: decoding previews for title 1
shm_open() failed: Permission denied
[17:41:19] scan: audio 0x1: vorbis, rate=44100Hz, bitrate=1 Unknown (Vorbis) (2.0 ch)
[17:41:19] scan: 10 previews, 640x360, 25,000 fps, autocrop = 0/0/0/0, aspect 16:9, PAR 1:1
[17:41:19] libhb: scan thread found 1 valid title(s)
[17:41:19] starting job
[17:41:19] decomb filter thread started for segment 0
[17:41:19] job configuration:
[17:41:19]  * source
[17:41:19]    + /home/pino/Schreibtisch/jjjjj
[17:41:19]    + title 1, chapter(s) 1 to 1
[17:41:19]    + container: matroska,webm
[17:41:19]  * destination
[17:41:19]    + /home/pino/Schreibtisch/prova.avi
[17:41:19]    + container: MPEG-4 (libavformat)
[17:41:19]      + align initial A/V stream timestamps
[17:41:19]  * video track
[17:41:19]    + decoder: vp8
[17:41:19]    + filters
[17:41:19]      + Comb Detect (mode=3:spatial-metric=2:motion-thresh=1:spatial-thresh=1:filter-mode=2:block-thresh=40:block-width=16:block-height=16)
[17:41:19]      + Decomb (mode=39)
[17:41:19]      + Framerate Shaper (mode=1:rate=27000000/1080000)
[17:41:19]        + frame rate: 25,000 fps -> constant 25,000 fps
[17:41:19]      + Crop and Scale (width=720:height=576:crop-top=0:crop-bottom=0:crop-left=0:crop-right=0)
[17:41:19]        + source: 640 * 360, crop (0/0/0/0): 640 * 360, scale: 720 * 576
[17:41:19]    + Output geometry
[17:41:19]      + storage dimensions: 720 x 576
[17:41:19]      + pixel aspect ratio: 64 : 45
[17:41:19]      + display dimensions: 1024 x 576
[17:41:19]    + encoder: MPEG-4 (libavcodec)
[17:41:19]      + bitrate: 6000 kbps, pass: 0
[17:41:19]  * audio track 1
[17:41:19]    + decoder: Unknown (Vorbis) (2.0 ch) (track 1, id 0x1)
[17:41:19]      + samplerate: 44100 Hz
[17:41:19]    + mixdown: Stereo
[17:41:19]    + encoder: AAC (libavcodec)
[17:41:19]      + bitrate: 160 kbps, samplerate: 44100 Hz
[17:41:19] decomb check thread started for segment 0
[17:41:19] decomb filter thread started for segment 1
[17:41:19] mask dilate thread started for segment 0
[17:41:19] mask dilate thread started for segment 1
[17:41:19] yadif thread started for segment 0
[17:41:19] yadif thread started for segment 1
[17:41:19] mask erode thread started for segment 1
[17:41:19] sync: expecting 4799 video frames
[17:41:19] decomb check thread started for segment 1
[17:41:19] mask erode thread started for segment 0
[17:41:19] mask filter thread started for segment 1
[17:41:19] mask filter thread started for segment 0
[17:41:19] encavcodecInit: MPEG-4 ASP encoder
[17:41:19] encavcodec: encoding with stored aspect 64/45
[17:41:19] sync: first pts video is 0
[17:41:19] sync: Chapter 1 at frame 1 time 0
[17:41:19] sync: first pts audio 0x1 is 0
shm_open() failed: Permission denied
shm_open() failed: Permission denied
shm_open() failed: Permission denied
shm_open() failed: Permission denied
[17:42:15] reader: done. 1 scr changes
[17:42:16] work: average encoding speed for job is 84,617882 fps
[17:42:16] comb detect: heavy 8 | light 122 | uncombed 4669 | total 4799
[17:42:16] decomb: deinterlaced 8 | blended 122 | unfiltered 4669 | total 4799
[17:42:16] vfr: 4799 frames output, 0 dropped and 0 duped for CFR/PFR
[17:42:16] vfr: lost time: 0 (0 frames)
[17:42:16] vfr: gained time: 0 (0 frames) (0 not accounted for)
[17:42:16] vorbis-decoder done: 11475 frames, 0 decoder errors
[17:42:16] vp8-decoder done: 4799 frames, 0 decoder errors
[17:42:16] sync: got 4799 frames, 4799 expected
[17:42:16] sync: framerate min 25,000 fps, max 25,000 fps, avg 25,000 fps
[17:42:16] mux: track 0, 4799 frames, 78747090 bytes, 3281,13 kbps, fifo 1024
[17:42:16] mux: track 1, 8269 frames, 3845404 bytes, 160,23 kbps, fifo 2048
[17:42:16] libhb: work result = 0
shm_open() failed: Permission denied
shm_open() failed: Permission denied
shm_open() failed: Permission denied
shm_open() failed: Permission denied
shm_open() failed: Permission denied
shm_open() failed: Permission denied
shm_open() failed: Permission denied
shm_open() failed: Permission denied
shm_open() failed: Permission denied
shm_open() failed: Permission denied
shm_open() failed: Permission denied
shm_open() failed: Permission denied
shm_open() failed: Permission denied
shm_open() failed: Permission denied
shm_open() failed: Permission denied
shm_open() failed: Permission denied
[17:52:36] CPU: Pentium(R) Dual-Core CPU       T4300  @ 2.10GHz
[17:52:36]  - logical processor count: 2
[17:52:36] hb_scan: path=/home/pino/Schreibtisch/jjjjj, title_index=0
udfread ERROR: ECMA 167 Volume Recognition failed
disc.c:323: failed opening UDF image /home/pino/Schreibtisch/jjjjj
disc.c:424: error opening file BDMV/index.bdmv
disc.c:424: error opening file BDMV/BACKUP/index.bdmv
[17:52:36] bd: not a bd - trying as a stream/file instead
libdvdnav: Using dvdnav version 5.0.3
libdvdread: Encrypted DVD support unavailable.
libdvdread:DVDOpenFileUDF:UDFFindFile /VIDEO_TS/VIDEO_TS.IFO failed
libdvdread:DVDOpenFileUDF:UDFFindFile /VIDEO_TS/VIDEO_TS.BUP failed
libdvdread: Can't open file VIDEO_TS.IFO.
libdvdnav: vm: failed to read VIDEO_TS.IFO
[17:52:36] dvd: not a dvd - trying as a stream/file instead
Input #0, matroska,webm, from '/home/pino/Schreibtisch/jjjjj':
  Metadata:
    ENCODER         : Google
  Duration: 00:03:11.99, start: 0.000000, bitrate: N/A
    Stream #0:0: Video: vp8
      yuv420p, 640x360, PAR 1:1 DAR 16:9
      25 fps, 1k tbn (default)
    Metadata:
      DURATION        : 00:03:11.960000000
    Stream #0:1: Audio: vorbis
      44100 Hz, stereo, fltp (default)
    Metadata:
      DURATION        : 00:03:11.998000000
[17:52:36] scan: decoding previews for title 1
[17:52:36] scan: audio 0x1: vorbis, rate=44100Hz, bitrate=1 Unknown (Vorbis) (2.0 ch)
shm_open() failed: Permission denied
shm_open() failed: Permission denied
[17:52:36] scan: 10 previews, 640x360, 25,000 fps, autocrop = 0/0/0/0, aspect 16:9, PAR 1:1
[17:52:36] libhb: scan thread found 1 valid title(s)
shm_open() failed: Permission denied
shm_open() failed: Permission denied
shm_open() failed: Permission denied
shm_open() failed: Permission denied
shm_open() failed: Permission denied
shm_open() failed: Permission denied
shm_open() failed: Permission denied
shm_open() failed: Permission denied
shm_open() failed: Permission denied
shm_open() failed: Permission denied
shm_open() failed: Permission denied
shm_open() failed: Permission denied
shm_open() failed: Permission denied
shm_open() failed: Permission denied
shm_open() failed: Permission denied
shm_open() failed: Permission denied
shm_open() failed: Permission denied
shm_open() failed: Permission denied
shm_open() failed: Permission denied
shm_open() failed: Permission denied
shm_open() failed: Permission denied
shm_open() failed: Permission denied
shm_open() failed: Permission denied
shm_open() failed: Permission denied
shm_open() failed: Permission denied
shm_open() failed: Permission denied
shm_open() failed: Permission denied
shm_open() failed: Permission denied
shm_open() failed: Permission denied
[17:54:12] gtkgui: Preset: /General/Fast 576p25
[17:54:12] 1 job(s) to process
[17:54:12] json job:
{
    "Audio": {
        "AudioList": [
            {
                "Bitrate": 160,
                "CompressionLevel": -1.0,
                "DRC": 0.0,
                "DitherMethod": "auto",
                "Encoder": "av_aac",
                "Gain": 0.0,
                "Mixdown": "stereo",
                "NormalizeMixLevel": false,
                "PresetEncoder": "av_aac",
                "Quality": -3.0,
                "Samplerate": 0,
                "Track": 0
            }
        ],
        "CopyMask": [
            "copy:aac"
        ],
        "FallbackEncoder": "av_aac"
    },
    "Destination": {
        "AlignAVStart": true,
        "ChapterList": [
            {
                "Name": ""
            }
        ],
        "ChapterMarkers": false,
        "File": "/home/pino/Schreibtisch/prova1.avi",
        "InlineParameterSets": false,
        "Mp4Options": {
            "IpodAtom": false,
            "Mp4Optimize": false
        },
        "Mux": "m4v"
    },
    "Filters": {
        "FilterList": [
            {
                "ID": 3,
                "Settings": {
                    "block-height": "16",
                    "block-thresh": "40",
                    "block-width": "16",
                    "filter-mode": "2",
                    "mode": "3",
                    "motion-thresh": "1",
                    "spatial-metric": "2",
                    "spatial-thresh": "1"
                }
            },
            {
                "ID": 4,
                "Settings": {
                    "mode": "7"
                }
            },
            {
                "ID": 6,
                "Settings": {
                    "mode": 2,
                    "rate": "27000000/1080000"
                }
            },
            {
                "ID": 11,
                "Settings": {
                    "crop-bottom": 0,
                    "crop-left": 0,
                    "crop-right": 0,
                    "crop-top": 0,
                    "height": 360,
                    "width": 640
                }
            }
        ]
    },
    "Metadata": {
        "Name": "jjjjj"
    },
    "PAR": {
        "Den": 1,
        "Num": 1
    },
    "SequenceID": 0,
    "Source": {
        "Angle": 0,
        "Path": "/home/pino/Schreibtisch/jjjjj",
        "Range": {
            "End": 1,
            "Start": 1,
            "Type": "chapter"
        },
        "Title": 1
    },
    "Subtitle": {
        "Search": {
            "Burn": true,
            "Default": false,
            "Enable": false,
            "Forced": false
        },
        "SubtitleList": []
    },
    "Video": {
        "ColorMatrixCode": 0,
        "Encoder": "x264",
        "Level": "3.1",
        "Options": "",
        "Preset": "fast",
        "Profile": "main",
        "QSV": {
            "AsyncDepth": 4,
            "Decode": false
        },
        "Quality": 20.0,
        "Tune": "",
        "Turbo": false,
        "TwoPass": false
    }
}
[17:54:12] CPU: Pentium(R) Dual-Core CPU       T4300  @ 2.10GHz
[17:54:12]  - logical processor count: 2
[17:54:12] hb_scan: path=/home/pino/Schreibtisch/jjjjj, title_index=1
udfread ERROR: ECMA 167 Volume Recognition failed
disc.c:323: failed opening UDF image /home/pino/Schreibtisch/jjjjj
disc.c:424: error opening file BDMV/index.bdmv
disc.c:424: error opening file BDMV/BACKUP/index.bdmv
[17:54:12] bd: not a bd - trying as a stream/file instead
libdvdnav: Using dvdnav version 5.0.3
libdvdread: Encrypted DVD support unavailable.
libdvdread:DVDOpenFileUDF:UDFFindFile /VIDEO_TS/VIDEO_TS.IFO failed
libdvdread:DVDOpenFileUDF:UDFFindFile /VIDEO_TS/VIDEO_TS.BUP failed
libdvdread: Can't open file VIDEO_TS.IFO.
libdvdnav: vm: failed to read VIDEO_TS.IFO
[17:54:12] dvd: not a dvd - trying as a stream/file instead
Input #0, matroska,webm, from '/home/pino/Schreibtisch/jjjjj':
  Metadata:
    ENCODER         : Google
  Duration: 00:03:11.99, start: 0.000000, bitrate: N/A
    Stream #0:0: Video: vp8
      yuv420p, 640x360, PAR 1:1 DAR 16:9
      25 fps, 1k tbn (default)
    Metadata:
      DURATION        : 00:03:11.960000000
    Stream #0:1: Audio: vorbis
      44100 Hz, stereo, fltp (default)
    Metadata:
      DURATION        : 00:03:11.998000000
[17:54:12] scan: decoding previews for title 1
shm_open() failed: Permission denied
[17:54:12] scan: audio 0x1: vorbis, rate=44100Hz, bitrate=1 Unknown (Vorbis) (2.0 ch)
[17:54:12] scan: 10 previews, 640x360, 25,000 fps, autocrop = 0/0/0/0, aspect 16:9, PAR 1:1
[17:54:12] libhb: scan thread found 1 valid title(s)
[17:54:12] starting job
[17:54:12] decomb filter thread started for segment 1
[17:54:12] job configuration:
[17:54:12]  * source
[17:54:12]    + /home/pino/Schreibtisch/jjjjj
[17:54:12]    + title 1, chapter(s) 1 to 1
[17:54:12]    + container: matroska,webm
[17:54:12]  * destination
[17:54:12]    + /home/pino/Schreibtisch/prova1.avi
[17:54:12]    + container: MPEG-4 (libavformat)
[17:54:12]      + align initial A/V stream timestamps
[17:54:12]  * video track
[17:54:12]    + decoder: vp8
[17:54:12]    + filters
[17:54:12]      + Comb Detect (mode=3:spatial-metric=2:motion-thresh=1:spatial-thresh=1:filter-mode=2:block-thresh=40:block-width=16:block-height=16)
[17:54:12]      + Decomb (mode=39)
[17:54:12]      + Framerate Shaper (mode=2:rate=27000000/1080000)
[17:54:12]        + frame rate: 25,000 fps -> peak rate limited to 25,000 fps
[17:54:12]      + Crop and Scale (width=640:height=360:crop-top=0:crop-bottom=0:crop-left=0:crop-right=0)
[17:54:12]        + source: 640 * 360, crop (0/0/0/0): 640 * 360, scale: 640 * 360
[17:54:12]    + Output geometry
[17:54:12]      + storage dimensions: 640 x 360
[17:54:12]      + pixel aspect ratio: 1 : 1
[17:54:12]      + display dimensions: 640 x 360
[17:54:12]    + encoder: H.264 (libx264)
[17:54:12]      + preset:  fast
[17:54:12]      + profile: main
[17:54:12]      + level:   3.1
[17:54:12]      + quality: 20,00 (RF)
[17:54:12]  * audio track 1
[17:54:12]    + decoder: Unknown (Vorbis) (2.0 ch) (track 1, id 0x1)
[17:54:12]      + samplerate: 44100 Hz
[17:54:12]    + mixdown: Stereo
[17:54:12]    + encoder: AAC (libavcodec)
[17:54:12]      + bitrate: 160 kbps, samplerate: 44100 Hz
[17:54:12] decomb filter thread started for segment 0
[17:54:12] decomb check thread started for segment 0
[17:54:12] decomb check thread started for segment 1
[17:54:12] mask erode thread started for segment 0
[17:54:12] mask erode thread started for segment 1
[17:54:12] mask dilate thread started for segment 0
[17:54:12] mask dilate thread started for segment 1
[17:54:12] yadif thread started for segment 0
[17:54:12] yadif thread started for segment 1
[17:54:12] sync: expecting 4799 video frames
[17:54:12] mask filter thread started for segment 0
[17:54:12] mask filter thread started for segment 1
[17:54:12] encx264: encoding at constant RF 20,000000
[17:54:12] encx264: unparsed options: subme=6:weightp=1:level=3.1:vbv-maxrate=14000:ref=2:8x8dct=0:rc-lookahead=30:vbv-bufsize=14000
x264 [info]: using SAR=1/1
x264 [info]: using cpu capabilities: MMX2 SSE2Fast SSSE3 Cache64
x264 [info]: profile Main, level 3.1
[17:54:12] sync: first pts video is 0
[17:54:12] sync: Chapter 1 at frame 1 time 0
[17:54:13] sync: first pts audio 0x1 is 0
shm_open() failed: Permission denied
shm_open() failed: Permission denied
shm_open() failed: Permission denied
shm_open() failed: Permission denied
shm_open() failed: Permission denied
shm_open() failed: Permission denied
shm_open() failed: Permission denied
shm_open() failed: Permission denied
shm_open() failed: Permission denied
shm_open() failed: Permission denied
shm_open() failed: Permission denied
shm_open() failed: Permission denied
shm_open() failed: Permission denied
shm_open() failed: Permission denied
shm_open() failed: Permission denied
shm_open() failed: Permission denied
shm_open() failed: Permission denied
shm_open() failed: Permission denied
shm_open() failed: Permission denied
shm_open() failed: Permission denied
shm_open() failed: Permission denied
shm_open() failed: Permission denied
[17:56:13] reader: done. 1 scr changes
[17:56:16] work: average encoding speed for job is 39,413055 fps
[17:56:16] comb detect: heavy 8 | light 122 | uncombed 4669 | total 4799
[17:56:16] decomb: deinterlaced 8 | blended 122 | unfiltered 4669 | total 4799
[17:56:16] vfr: 4799 frames output, 0 dropped and 0 duped for CFR/PFR
[17:56:16] vfr: lost time: 0 (0 frames)
[17:56:16] vfr: gained time: 0 (0 frames) (0 not accounted for)
[17:56:16] vorbis-decoder done: 11475 frames, 0 decoder errors
[17:56:16] vp8-decoder done: 4799 frames, 0 decoder errors
[17:56:16] sync: got 4799 frames, 4799 expected
[17:56:16] sync: framerate min 25,000 fps, max 25,000 fps, avg 25,000 fps
x264 [info]: frame I:59    Avg QP:15,59  size: 31662
x264 [info]: frame P:1892  Avg QP:20,04  size:  6879
x264 [info]: frame B:2848  Avg QP:24,62  size:  1366
x264 [info]: consecutive B-frames: 10,9% 24,1% 17,3% 47,7%
x264 [info]: mb I  I16..4: 22,2%  0,0% 77,8%
x264 [info]: mb P  I16..4:  4,7%  0,0%  6,1%  P16..4: 28,6% 13,6%  8,0%  0,0%  0,0%    skip:39,0%
x264 [info]: mb B  I16..4:  0,7%  0,0%  0,7%  B16..8: 21,5%  6,5%  0,8%  direct: 2,7%  skip:67,1%  L0:46,6% L1:44,7% BI: 8,7%
x264 [info]: coded y,uvDC,uvAC intra: 52,0% 78,8% 56,8% inter: 9,6% 16,3% 7,0%
x264 [info]: i16 v,h,dc,p: 37% 25% 16% 23%
x264 [info]: i4 v,h,dc,ddl,ddr,vr,hd,vl,hu: 36% 16% 22%  4%  4%  6%  4%  5%  3%
x264 [info]: i8c dc,h,v,p: 44% 22% 28%  7%
x264 [info]: Weighted P-Frames: Y:2,7% UV:2,3%
x264 [info]: ref P L0: 78,6% 21,4%
x264 [info]: ref B L0: 85,2% 14,8%
x264 [info]: ref B L1: 93,7%  6,3%
x264 [info]: kb/s:782,33
[17:56:16] mux: track 0, 4799 frames, 18769716 bytes, 782,07 kbps, fifo 4096
[17:56:16] mux: track 1, 8269 frames, 3845404 bytes, 160,23 kbps, fifo 8192
[17:56:16] libhb: work result = 0
shm_open() failed: Permission denied
shm_open() failed: Permission denied


Woodstock
Veteran User
Posts: 3293
Joined: Tue Aug 27, 2013 6:39 am

Re: Setting for USB/DVD Player

Post by Woodstock » Wed Sep 04, 2019 6:35 pm

Handbrake does not generate AVI files.

musicvid
Veteran User
Posts: 3399
Joined: Sat Jun 27, 2009 1:19 am

Re: Setting for USB/DVD Player

Post by musicvid » Wed Sep 04, 2019 8:57 pm

The player specification tells you what file formats and parameters are supported.
Each model is different, so start there, then encode to those parameters.

Post Reply