Damage to picture when converting

HandBrake for Mac support
Forum rules
An Activity Log is required for support requests. Please read How-to get an activity log? for details on how and why this should be provided.
Post Reply
fragglo
New User
Posts: 1
Joined: Thu Aug 22, 2019 4:16 pm

Damage to picture when converting

Post by fragglo » Sun Sep 01, 2019 12:06 pm

Description of problem or question:

Since about a month or two back, I get these constant damage to the picture of whatever I'm converting. I've checked the unconverted .mkv/.avi files in VLC and they are undamaged there.

Is this recurring problem something to do with the settings in Handbrake that I'm just unaware of, or is it limitations in my hardware? (I have an iMac (21.5-inch, Late 2015) with a 1,6 Ghz Intel Core i5)


Steps to reproduce the problem (If Applicable):




HandBrake version (e.g., 1.0.0):

Version 1.2.2 (2019022300)

Operating system and version (e.g., Ubuntu 16.04 LTS, macOS 10.13 High Sierra, Windows 10 Creators Update):

macOS 10.14.6

HandBrake Activity Log ***required*** (see How-to get an activity log)

Code: Select all

[14:33:29] macgui: Handbrake Version: 1.2.2  (2019022300)
[14:33:30] hb_init: starting libhb thread
[14:33:30] hb_init: starting libhb thread
[14:34:18] macgui: trying to open a folder or file
[14:34:18] macgui: ScanCore scanning titles with a duration of 10 seconds or more
[14:34:18] CPU: Intel(R) Core(TM) i5-5250U CPU @ 1.60GHz
[14:34:18]  - Intel microarchitecture Broadwell
[14:34:18]  - logical processor count: 4
[14:34:18] hb_scan: path=/Users/petereliasson/Movies/ANGEL TERMINATORS_BLURAY_ENG_REMUX.mkv, title_index=0
udfread ERROR: ECMA 167 Volume Recognition failed
disc.c:323: failed opening UDF image /Users/petereliasson/Movies/ANGEL TERMINATORS_BLURAY_ENG_REMUX.mkv
disc.c:424: error opening file BDMV/index.bdmv
disc.c:424: error opening file BDMV/BACKUP/index.bdmv
[14:34:18] bd: not a bd - trying as a stream/file instead
libdvdnav: Using dvdnav version 6.0.0
libdvdread: Encrypted DVD support unavailable.
libdvdread:DVDOpenFileUDF:UDFFindFile /VIDEO_TS/VIDEO_TS.IFO failed
libdvdread:DVDOpenFileUDF:UDFFindFile /VIDEO_TS/VIDEO_TS.BUP failed
libdvdread: Can't open file VIDEO_TS.IFO.
libdvdnav: vm: failed to read VIDEO_TS.IFO
[14:34:18] dvd: not a dvd - trying as a stream/file instead
Input #0, matroska,webm, from '/Users/petereliasson/Movies/ANGEL TERMINATORS_BLURAY_ENG_REMUX.mkv':
  Metadata:
    title           : ANGEL TERMINATORS
    encoder         : libebml v1.3.6 + libmatroska v1.4.9
    creation_time   : 2019-03-24T17:52:42.000000Z
  Duration: 01:28:21.09, start: 0.000000, bitrate: 33190 kb/s
    Chapter #0:0: start 0.000000, end 273.560000
    Metadata:
      title           : Chapter 01
    Chapter #0:1: start 273.560000, end 1071.440000
    Metadata:
      title           : Chapter 02
    Chapter #0:2: start 1071.440000, end 1800.200000
    Metadata:
      title           : Chapter 03
    Chapter #0:3: start 1800.200000, end 2631.600000
    Metadata:
      title           : Chapter 04
    Chapter #0:4: start 2631.600000, end 3384.000000
    Metadata:
      title           : Chapter 05
    Chapter #0:5: start 3384.000000, end 4448.000000
    Metadata:
      title           : Chapter 06
    Chapter #0:6: start 4448.000000, end 5251.240000
    Metadata:
      title           : Chapter 07
    Chapter #0:7: start 5251.240000, end 5301.080000
    Metadata:
      title           : Chapter 08
    Stream #0:0(eng): Video: h264 (High), yuv420p(tv, bt709, top first), 1920x1080 [SAR 1:1 DAR 16:9], 25 fps, 25 tbr, 1k tbn, 50 tbc
    Metadata:
      BPS-eng         : 30005235
      DURATION-eng    : 01:28:21.080000000
      NUMBER_OF_FRAMES-eng: 132527
      NUMBER_OF_BYTES-eng: 19882519458
      _STATISTICS_WRITING_APP-eng: mkvmerge v30.1.0 ('Forever And More') 64-bit
      _STATISTICS_WRITING_DATE_UTC-eng: 2019-03-24 17:52:42
      _STATISTICS_TAGS-eng: BPS DURATION NUMBER_OF_FRAMES NUMBER_OF_BYTES
    Stream #0:1(chi): Audio: dts (DTS-HD MA), 48000 Hz, stereo, s32p (24 bit) (default)
    Metadata:
      title           : Stereo
      BPS-eng         : 1662509
      DURATION-eng    : 01:28:21.089000000
      NUMBER_OF_FRAMES-eng: 496977
      NUMBER_OF_BYTES-eng: 1101638632
      _STATISTICS_WRITING_APP-eng: mkvmerge v30.1.0 ('Forever And More') 64-bit
      _STATISTICS_WRITING_DATE_UTC-eng: 2019-03-24 17:52:42
      _STATISTICS_TAGS-eng: BPS DURATION NUMBER_OF_FRAMES NUMBER_OF_BYTES
    Stream #0:2(chi): Audio: dts (DTS), 48000 Hz, stereo, fltp, 1536 kb/s
    Metadata:
      title           : Stereo
      BPS-eng         : 1508999
      DURATION-eng    : 01:28:21.089000000
      NUMBER_OF_FRAMES-eng: 496977
      NUMBER_OF_BYTES-eng: 999917724
      _STATISTICS_WRITING_APP-eng: mkvmerge v30.1.0 ('Forever And More') 64-bit
      _STATISTICS_WRITING_DATE_UTC-eng: 2019-03-24 17:52:42
      _STATISTICS_TAGS-eng: BPS DURATION NUMBER_OF_FRAMES NUMBER_OF_BYTES
    Stream #0:3(fre): Subtitle: hdmv_pgs_subtitle
    Metadata:
      BPS-eng         : 24019
      DURATION-eng    : 01:26:21.540000000
      NUMBER_OF_FRAMES-eng: 1759
      NUMBER_OF_BYTES-eng: 15557310
      _STATISTICS_WRITING_APP-eng: mkvmerge v30.1.0 ('Forever And More') 64-bit
      _STATISTICS_WRITING_DATE_UTC-eng: 2019-03-24 17:52:42
      _STATISTICS_TAGS-eng: BPS DURATION NUMBER_OF_FRAMES NUMBER_OF_BYTES
    Stream #0:4(eng): Subtitle: subrip (default) (forced)
    Metadata:
      title           : English
      BPS-eng         : 39
      DURATION-eng    : 01:26:21.520000000
      NUMBER_OF_FRAMES-eng: 886
      NUMBER_OF_BYTES-eng: 25748
      _STATISTICS_WRITING_APP-eng: mkvmerge v30.1.0 ('Forever And More') 64-bit
      _STATISTICS_WRITING_DATE_UTC-eng: 2019-03-24 17:52:42
      _STATISTICS_TAGS-eng: BPS DURATION NUMBER_OF_FRAMES NUMBER_OF_BYTES
[14:34:20] scan: decoding previews for title 1
[14:34:20] scan: audio 0x1: dca, rate=48000Hz, bitrate=1 中文 (DTS-HD MA) (2.0 ch)
[14:34:20] scan: audio 0x2: dca, rate=48000Hz, bitrate=1536000 中文 (DTS) (2.0 ch)
[14:34:24] scan: 10 previews, 1920x1080, 25.000 fps, autocrop = 0/0/0/0, aspect 16:9, PAR 1:1
[14:34:24] libhb: scan thread found 1 valid title(s)
[14:34:24] macgui: ScanCore scan done
[14:36:08] macgui: QueueCore prevented sleep
[14:36:08] macgui: QueueCore scanning specifically for title: 1
[14:36:08] CPU: Intel(R) Core(TM) i5-5250U CPU @ 1.60GHz
[14:36:08]  - Intel microarchitecture Broadwell
[14:36:08]  - logical processor count: 4
[14:36:08] hb_scan: path=/Users/petereliasson/Movies/ANGEL TERMINATORS_BLURAY_ENG_REMUX.mkv, title_index=1
udfread ERROR: ECMA 167 Volume Recognition failed
disc.c:323: failed opening UDF image /Users/petereliasson/Movies/ANGEL TERMINATORS_BLURAY_ENG_REMUX.mkv
disc.c:424: error opening file BDMV/index.bdmv
disc.c:424: error opening file BDMV/BACKUP/index.bdmv
[14:36:08] bd: not a bd - trying as a stream/file instead
libdvdnav: Using dvdnav version 6.0.0
libdvdread: Encrypted DVD support unavailable.
libdvdread:DVDOpenFileUDF:UDFFindFile /VIDEO_TS/VIDEO_TS.IFO failed
libdvdread:DVDOpenFileUDF:UDFFindFile /VIDEO_TS/VIDEO_TS.BUP failed
libdvdread: Can't open file VIDEO_TS.IFO.
libdvdnav: vm: failed to read VIDEO_TS.IFO
[14:36:08] dvd: not a dvd - trying as a stream/file instead
Input #0, matroska,webm, from '/Users/petereliasson/Movies/ANGEL TERMINATORS_BLURAY_ENG_REMUX.mkv':
  Metadata:
    title           : ANGEL TERMINATORS
    encoder         : libebml v1.3.6 + libmatroska v1.4.9
    creation_time   : 2019-03-24T17:52:42.000000Z
  Duration: 01:28:21.09, start: 0.000000, bitrate: 33190 kb/s
    Chapter #0:0: start 0.000000, end 273.560000
    Metadata:
      title           : Chapter 01
    Chapter #0:1: start 273.560000, end 1071.440000
    Metadata:
      title           : Chapter 02
    Chapter #0:2: start 1071.440000, end 1800.200000
    Metadata:
      title           : Chapter 03
    Chapter #0:3: start 1800.200000, end 2631.600000
    Metadata:
      title           : Chapter 04
    Chapter #0:4: start 2631.600000, end 3384.000000
    Metadata:
      title           : Chapter 05
    Chapter #0:5: start 3384.000000, end 4448.000000
    Metadata:
      title           : Chapter 06
    Chapter #0:6: start 4448.000000, end 5251.240000
    Metadata:
      title           : Chapter 07
    Chapter #0:7: start 5251.240000, end 5301.080000
    Metadata:
      title           : Chapter 08
    Stream #0:0(eng): Video: h264 (High), yuv420p(tv, bt709, top first), 1920x1080 [SAR 1:1 DAR 16:9], 25 fps, 25 tbr, 1k tbn, 50 tbc
    Metadata:
      BPS-eng         : 30005235
      DURATION-eng    : 01:28:21.080000000
      NUMBER_OF_FRAMES-eng: 132527
      NUMBER_OF_BYTES-eng: 19882519458
      _STATISTICS_WRITING_APP-eng: mkvmerge v30.1.0 ('Forever And More') 64-bit
      _STATISTICS_WRITING_DATE_UTC-eng: 2019-03-24 17:52:42
      _STATISTICS_TAGS-eng: BPS DURATION NUMBER_OF_FRAMES NUMBER_OF_BYTES
    Stream #0:1(chi): Audio: dts (DTS-HD MA), 48000 Hz, stereo, s32p (24 bit) (default)
    Metadata:
      title           : Stereo
      BPS-eng         : 1662509
      DURATION-eng    : 01:28:21.089000000
      NUMBER_OF_FRAMES-eng: 496977
      NUMBER_OF_BYTES-eng: 1101638632
      _STATISTICS_WRITING_APP-eng: mkvmerge v30.1.0 ('Forever And More') 64-bit
      _STATISTICS_WRITING_DATE_UTC-eng: 2019-03-24 17:52:42
      _STATISTICS_TAGS-eng: BPS DURATION NUMBER_OF_FRAMES NUMBER_OF_BYTES
    Stream #0:2(chi): Audio: dts (DTS), 48000 Hz, stereo, fltp, 1536 kb/s
    Metadata:
      title           : Stereo
      BPS-eng         : 1508999
      DURATION-eng    : 01:28:21.089000000
      NUMBER_OF_FRAMES-eng: 496977
      NUMBER_OF_BYTES-eng: 999917724
      _STATISTICS_WRITING_APP-eng: mkvmerge v30.1.0 ('Forever And More') 64-bit
      _STATISTICS_WRITING_DATE_UTC-eng: 2019-03-24 17:52:42
      _STATISTICS_TAGS-eng: BPS DURATION NUMBER_OF_FRAMES NUMBER_OF_BYTES
    Stream #0:3(fre): Subtitle: hdmv_pgs_subtitle
    Metadata:
      BPS-eng         : 24019
      DURATION-eng    : 01:26:21.540000000
      NUMBER_OF_FRAMES-eng: 1759
      NUMBER_OF_BYTES-eng: 15557310
      _STATISTICS_WRITING_APP-eng: mkvmerge v30.1.0 ('Forever And More') 64-bit
      _STATISTICS_WRITING_DATE_UTC-eng: 2019-03-24 17:52:42
      _STATISTICS_TAGS-eng: BPS DURATION NUMBER_OF_FRAMES NUMBER_OF_BYTES
    Stream #0:4(eng): Subtitle: subrip (default) (forced)
    Metadata:
      title           : English
      BPS-eng         : 39
      DURATION-eng    : 01:26:21.520000000
      NUMBER_OF_FRAMES-eng: 886
      NUMBER_OF_BYTES-eng: 25748
      _STATISTICS_WRITING_APP-eng: mkvmerge v30.1.0 ('Forever And More') 64-bit
      _STATISTICS_WRITING_DATE_UTC-eng: 2019-03-24 17:52:42
      _STATISTICS_TAGS-eng: BPS DURATION NUMBER_OF_FRAMES NUMBER_OF_BYTES
[14:36:08] scan: decoding previews for title 1
[14:36:08] scan: audio 0x1: dca, rate=48000Hz, bitrate=1 中文 (DTS-HD MA) (2.0 ch)
[14:36:08] scan: audio 0x2: dca, rate=48000Hz, bitrate=1536000 中文 (DTS) (2.0 ch)
[14:36:18] scan: 10 previews, 1920x1080, 25.000 fps, autocrop = 0/0/0/0, aspect 16:9, PAR 1:1
[14:36:18] libhb: scan thread found 1 valid title(s)
[14:36:19] macgui: QueueCore scan done
[14:36:19] macgui: QueueCore started encoding ANGEL TERMINATORS_BLURAY_ENG_REMUX.m4v
[14:36:19] macgui: QueueCore with preset Fast 1080p30
[14:36:19] 1 job(s) to process
[14:36:19] starting job
[14:36:19] decomb filter thread started for segment 0
[14:36:19] decomb filter thread started for segment 1
[14:36:19] decomb filter thread started for segment 2
[14:36:19] decomb filter thread started for segment 3
[14:36:19] decomb check thread started for segment 0
[14:36:19] decomb check thread started for segment 1
[14:36:19] decomb check thread started for segment 2
[14:36:19] decomb check thread started for segment 3
[14:36:19] mask filter thread started for segment 0
[14:36:19] mask filter thread started for segment 1
[14:36:19] mask filter thread started for segment 2
[14:36:19] mask filter thread started for segment 3
[14:36:19] mask erode thread started for segment 0
[14:36:19] mask erode thread started for segment 1
[14:36:19] mask erode thread started for segment 2
[14:36:19] mask erode thread started for segment 3
[14:36:19] mask dilate thread started for segment 0
[14:36:19] mask dilate thread started for segment 1
[14:36:19] mask dilate thread started for segment 2
[14:36:19] mask dilate thread started for segment 3
[14:36:19] yadif thread started for segment 0
[14:36:19] yadif thread started for segment 1
[14:36:19] yadif thread started for segment 2
[14:36:19] yadif thread started for segment 3
[14:36:20] [ass] Shaper: FriBidi 0.19.7 (SIMPLE) HarfBuzz-ng 1.7.2 (COMPLEX)
[14:36:20] [ass] Using font provider coretext
[14:36:20] job configuration:
[14:36:20]  * source
[14:36:20]    + /Users/petereliasson/Movies/ANGEL TERMINATORS_BLURAY_ENG_REMUX.mkv
[14:36:20]    + title 1, chapter(s) 1 to 8
[14:36:20]    + container: matroska,webm
[14:36:20]    + data rate: 33190 kbps
[14:36:20]  * destination
[14:36:20]    + /Volumes/2TB Fraggeldrive/Hong Kong 2TB/ANGEL TERMINATORS_BLURAY_ENG_REMUX.m4v
[14:36:20]    + container: MPEG-4 (libavformat)
[14:36:20]      + align initial A/V stream timestamps
[14:36:20]      + chapter markers
[14:36:20]  * video track
[14:36:20]    + decoder: h264
[14:36:20]    + filters
[14:36:20]      + Comb Detect (mode=3:spatial-metric=2:motion-thresh=1:spatial-thresh=1:filter-mode=2:block-thresh=40:block-width=16:block-height=16)
[14:36:20]      + Decomb (mode=39)
[14:36:20]      + Framerate Shaper (mode=2:rate=27000000/900000)
[14:36:20]        + frame rate: 25.000 fps -> peak rate limited to 30.000 fps
[14:36:20]      + Subtitle renderer ()
[14:36:20]      + Crop and Scale (width=1920:height=1080:crop-top=0:crop-bottom=0:crop-left=0:crop-right=0)
[14:36:20]        + source: 1920 * 1080, crop (0/0/0/0): 1920 * 1080, scale: 1920 * 1080
[14:36:20]    + Output geometry
[14:36:20]      + storage dimensions: 1920 x 1080
[14:36:20]      + pixel aspect ratio: 1 : 1
[14:36:20]      + display dimensions: 1920 x 1080
[14:36:20]    + encoder: H.264 (libx264)
[14:36:20]      + preset:  fast
[14:36:20]      + profile: main
[14:36:20]      + level:   4.0
[14:36:20]      + quality: 22.00 (RF)
[14:36:20]      + color profile: 1-1-1
[14:36:20]  * subtitle track 1, English [UTF-8] (track 1, id 0x4, Text) -> Render/Burn-in
[14:36:20]  * audio track 1
[14:36:20]    + decoder: 中文 (DTS-HD MA) (2.0 ch) (track 1, id 0x1)
[14:36:20]      + samplerate: 48000 Hz
[14:36:20]    + mixdown: Stereo
[14:36:20]    + dither: triangular
[14:36:20]    + encoder: AAC (Apple AudioToolbox)
[14:36:20]      + bitrate: 160 kbps, samplerate: 48000 Hz
[14:36:20]  * audio track 2
[14:36:20]    + decoder: 中文 (DTS) (2.0 ch) (track 2, id 0x2)
[14:36:20]      + bitrate: 1536 kbps, samplerate: 48000 Hz
[14:36:20]    + mixdown: Stereo
[14:36:20]    + dither: triangular
[14:36:20]    + encoder: AAC (Apple AudioToolbox)
[14:36:20]      + bitrate: 160 kbps, samplerate: 48000 Hz
[14:36:20] sync: expecting 132527 video frames
[14:36:20] encx264: encoding at constant RF 22.000000
[14:36:20] encx264: unparsed options: level=4.0:ref=2:8x8dct=0:weightp=1:subme=6:vbv-bufsize=25000:vbv-maxrate=20000:rc-lookahead=30
x264 [info]: using SAR=1/1
x264 [info]: using cpu capabilities: MMX2 SSE2Fast SSSE3 SSE4.2 AVX FMA3 BMI2 AVX2
x264 [info]: profile Main, level 4.0, 4:2:0, 8-bit
[14:36:23] macgui: trying to open a folder or file
[14:36:23] macgui: ScanCore scanning titles with a duration of 10 seconds or more
[14:36:23] CPU: Intel(R) Core(TM) i5-5250U CPU @ 1.60GHz
[14:36:23]  - Intel microarchitecture Broadwell
[14:36:23]  - logical processor count: 4
[14:36:23] hb_scan: path=/Users/petereliasson/Movies/The.Yuppie.Fantasia.1989.REPACK.720p.BluRay.x264-WiKi.mkv, title_index=0
udfread ERROR: ECMA 167 Volume Recognition failed
disc.c:323: failed opening UDF image /Users/petereliasson/Movies/The.Yuppie.Fantasia.1989.REPACK.720p.BluRay.x264-WiKi.mkv
disc.c:424: error opening file BDMV/index.bdmv
disc.c:424: error opening file BDMV/BACKUP/index.bdmv
[14:36:23] bd: not a bd - trying as a stream/file instead
libdvdnav: Using dvdnav version 6.0.0
[14:36:23] sync: first pts video is 0
[14:36:23] sync: "Chapter 1" (1) at frame 1 time 0
[14:36:23] sync: first pts audio 0x1 is 0
[14:36:23] sync: first pts audio 0x2 is 0
libdvdread: Encrypted DVD support unavailable.
libdvdread:DVDOpenFileUDF:UDFFindFile /VIDEO_TS/VIDEO_TS.IFO failed
libdvdread:DVDOpenFileUDF:UDFFindFile /VIDEO_TS/VIDEO_TS.BUP failed
libdvdread: Can't open file VIDEO_TS.IFO.
libdvdnav: vm: failed to read VIDEO_TS.IFO
[14:36:23] dvd: not a dvd - trying as a stream/file instead
Input #0, matroska,webm, from '/Users/petereliasson/Movies/The.Yuppie.Fantasia.1989.REPACK.720p.BluRay.x264-WiKi.mkv':
  Metadata:
    encoder         : libebml v1.3.1 + libmatroska v1.4.2
    creation_time   : 2019-04-21T11:55:28.000000Z
  Duration: 01:37:07.97, start: 0.000000, bitrate: 9926 kb/s
    Chapter #0:0: start 0.000000, end 469.511000
    Metadata:
      title           : 00:00:00.000
    Chapter #0:1: start 469.511000, end 916.207000
    Metadata:
      title           : 00:07:49.511
    Chapter #0:2: start 916.207000, end 1416.081000
    Metadata:
      title           : 00:15:16.207
    Chapter #0:3: start 1416.081000, end 1895.811000
    Metadata:
      title           : 00:23:36.081
    Chapter #0:4: start 1895.811000, end 2322.612000
    Metadata:
      title           : 00:31:35.811
    Chapter #0:5: start 2322.612000, end 2767.807000
    Metadata:
      title           : 00:38:42.612
    Chapter #0:6: start 2767.807000, end 3300.756000
    Metadata:
      title           : 00:46:07.807
    Chapter #0:7: start 3300.756000, end 3950.989000
    Metadata:
      title           : 00:55:00.756
    Chapter #0:8: start 3950.989000, end 4466.420000
    Metadata:
      title           : 01:05:50.989
    Chapter #0:9: start 4466.420000, end 4857.102000
    Metadata:
      title           : 01:14:26.420
    Chapter #0:10: start 4857.102000, end 5412.616000
    Metadata:
      title           : 01:20:57.102
    Chapter #0:11: start 5412.616000, end 5827.968000
    Metadata:
      title           : 01:30:12.616
    Stream #0:0(eng): Video: h264 (High), yuv420p(progressive), 1280x692, SAR 1:1 DAR 320:173, 23.98 fps, 23.98 tbr, 1k tbn, 47.95 tbc (default)
    Metadata:
      BPS             : 8643879
      BPS-eng         : 8643879
      DURATION        : 01:37:07.947000000
      DURATION-eng    : 01:37:07.947000000
      NUMBER_OF_FRAMES: 139731
      NUMBER_OF_FRAMES-eng: 139731
      NUMBER_OF_BYTES : 6297008854
      NUMBER_OF_BYTES-eng: 6297008854
      _STATISTICS_WRITING_APP: mkvmerge v8.2.0 ('World of Adventure') 64bit
      _STATISTICS_WRITING_APP-eng: mkvmerge v8.2.0 ('World of Adventure') 64bit
      _STATISTICS_WRITING_DATE_UTC: 2019-04-21 11:55:28
      _STATISTICS_WRITING_DATE_UTC-eng: 2019-04-21 11:55:28
      _STATISTICS_TAGS: BPS DURATION NUMBER_OF_FRAMES NUMBER_OF_BYTES
      _STATISTICS_TAGS-eng: BPS DURATION NUMBER_OF_FRAMES NUMBER_OF_BYTES
    Stream #0:1(chi): Audio: ac3, 48000 Hz, 5.1(side), fltp, 640 kb/s (default)
    Metadata:
      title           : Cantonese
      BPS             : 640000
      BPS-eng         : 640000
      DURATION        : 01:37:07.968000000
      DURATION-eng    : 01:37:07.968000000
      NUMBER_OF_FRAMES: 182124
      NUMBER_OF_FRAMES-eng: 182124
      NUMBER_OF_BYTES : 466237440
      NUMBER_OF_BYTES-eng: 466237440
      _STATISTICS_WRITING_APP: mkvmerge v8.2.0 ('World of Adventure') 64bit
      _STATISTICS_WRITING_APP-eng: mkvmerge v8.2.0 ('World of Adventure') 64bit
      _STATISTICS_WRITING_DATE_UTC: 2019-04-21 11:55:28
      _STATISTICS_WRITING_DATE_UTC-eng: 2019-04-21 11:55:28
      _STATISTICS_TAGS: BPS DURATION NUMBER_OF_FRAMES NUMBER_OF_BYTES
      _STATISTICS_TAGS-eng: BPS DURATION NUMBER_OF_FRAMES NUMBER_OF_BYTES
    Stream #0:2(chi): Audio: ac3, 48000 Hz, 5.1(side), fltp, 640 kb/s
    Metadata:
      title           : Mandarin
      BPS             : 640000
      BPS-eng         : 640000
      DURATION        : 01:37:07.968000000
      DURATION-eng    : 01:37:07.968000000
      NUMBER_OF_FRAMES: 182124
      NUMBER_OF_FRAMES-eng: 182124
      NUMBER_OF_BYTES : 466237440
      NUMBER_OF_BYTES-eng: 466237440
      _STATISTICS_WRITING_APP: mkvmerge v8.2.0 ('World of Adventure') 64bit
      _STATISTICS_WRITING_APP-eng: mkvmerge v8.2.0 ('World of Adventure') 64bit
      _STATISTICS_WRITING_DATE_UTC: 2019-04-21 11:55:28
      _STATISTICS_WRITING_DATE_UTC-eng: 2019-04-21 11:55:28
      _STATISTICS_TAGS: BPS DURATION NUMBER_OF_FRAMES NUMBER_OF_BYTES
      _STATISTICS_TAGS-eng: BPS DURATION NUMBER_OF_FRAMES NUMBER_OF_BYTES
    Stream #0:3(chi): Subtitle: subrip
    Metadata:
      title           : CHS
      BPS             : 53
      BPS-eng         : 53
      DURATION        : 01:33:50.834000000
      DURATION-eng    : 01:33:50.834000000
      NUMBER_OF_FRAMES: 1431
      NUMBER_OF_FRAMES-eng: 1431
      NUMBER_OF_BYTES : 37388
      NUMBER_OF_BYTES-eng: 37388
      _STATISTICS_WRITING_APP: mkvmerge v8.2.0 ('World of Adventure') 64bit
      _STATISTICS_WRITING_APP-eng: mkvmerge v8.2.0 ('World of Adventure') 64bit
      _STATISTICS_WRITING_DATE_UTC: 2019-04-21 11:55:28
      _STATISTICS_WRITING_DATE_UTC-eng: 2019-04-21 11:55:28
      _STATISTICS_TAGS: BPS DURATION NUMBER_OF_FRAMES NUMBER_OF_BYTES
      _STATISTICS_TAGS-eng: BPS DURATION NUMBER_OF_FRAMES NUMBER_OF_BYTES
    Stream #0:4(chi): Subtitle: subrip
    Metadata:
      title           : CHT
      BPS             : 52
      BPS-eng         : 52
      DURATION        : 01:33:50.834000000
      DURATION-eng    : 01:33:50.834000000
      NUMBER_OF_FRAMES: 1431
      NUMBER_OF_FRAMES-eng: 1431
      NUMBER_OF_BYTES : 37273
      NUMBER_OF_BYTES-eng: 37273
      _STATISTICS_WRITING_APP: mkvmerge v8.2.0 ('World of Adventure') 64bit
      _STATISTICS_WRITING_APP-eng: mkvmerge v8.2.0 ('World of Adventure') 64bit
      _STATISTICS_WRITING_DATE_UTC: 2019-04-21 11:55:28
      _STATISTICS_WRITING_DATE_UTC-eng: 2019-04-21 11:55:28
      _STATISTICS_TAGS: BPS DURATION NUMBER_OF_FRAMES NUMBER_OF_BYTES
      _STATISTICS_TAGS-eng: BPS DURATION NUMBER_OF_FRAMES NUMBER_OF_BYTES
    Stream #0:5(eng): Subtitle: subrip
    Metadata:
      BPS             : 50
      BPS-eng         : 50
      DURATION        : 01:33:50.833000000
      DURATION-eng    : 01:33:50.833000000
      NUMBER_OF_FRAMES: 1396
      NUMBER_OF_FRAMES-eng: 1396
      NUMBER_OF_BYTES : 35500
      NUMBER_OF_BYTES-eng: 35500
      _STATISTICS_WRITING_APP: mkvmerge v8.2.0 ('World of Adventure') 64bit
      _STATISTICS_WRITING_APP-eng: mkvmerge v8.2.0 ('World of Adventure') 64bit
      _STATISTICS_WRITING_DATE_UTC: 2019-04-21 11:55:28
      _STATISTICS_WRITING_DATE_UTC-eng: 2019-04-21 11:55:28
      _STATISTICS_TAGS: BPS DURATION NUMBER_OF_FRAMES NUMBER_OF_BYTES
      _STATISTICS_TAGS-eng: BPS DURATION NUMBER_OF_FRAMES NUMBER_OF_BYTES
[14:36:24] scan: decoding previews for title 1
[14:36:24] scan: audio 0x1: ac3, rate=48000Hz, bitrate=640000 中文 (AC3) (5.1 ch)
[14:36:24] scan: audio 0x2: ac3, rate=48000Hz, bitrate=640000 中文 (AC3) (5.1 ch)
[14:36:28] scan: 10 previews, 1280x692, 23.976 fps, autocrop = 0/0/0/0, aspect 16:9, PAR 1:1
[14:36:28] libhb: scan thread found 1 valid title(s)
[14:36:28] macgui: ScanCore scan done
[14:38:20] sync: first pts subtitle 0x4 is 3153600
[14:38:23] [ass] fontselect: (sans-serif, 400, 0) -> /System/Library/Fonts/Helvetica.ttc, -1, Helvetica
[14:38:26] [ass] fontselect: (sans-serif, 400, 100) -> /System/Library/Fonts/Helvetica.ttc, -1, Helvetica
[14:40:11] macgui: QueueCore stopped preventing sleep
[14:50:44] macgui: QueueCore prevented sleep
[14:51:35] macgui: trying to open a folder or file
[14:51:35] macgui: ScanCore scanning titles with a duration of 10 seconds or more
[14:51:35] CPU: Intel(R) Core(TM) i5-5250U CPU @ 1.60GHz
[14:51:35]  - Intel microarchitecture Broadwell
[14:51:35]  - logical processor count: 4
[14:51:35] hb_scan: path=/Users/petereliasson/Movies/ANGEL TERMINATORS 2_Custom_REMUX/ANGEL TERMINATORS 2_Custom_REMUX.mkv, title_index=0
udfread ERROR: ECMA 167 Volume Recognition failed
disc.c:323: failed opening UDF image /Users/petereliasson/Movies/ANGEL TERMINATORS 2_Custom_REMUX/ANGEL TERMINATORS 2_Custom_REMUX.mkv
disc.c:424: error opening file BDMV/index.bdmv
disc.c:424: error opening file BDMV/BACKUP/index.bdmv
[14:51:35] bd: not a bd - trying as a stream/file instead
libdvdnav: Using dvdnav version 6.0.0
libdvdread: Encrypted DVD support unavailable.
libdvdread:DVDOpenFileUDF:UDFFindFile /VIDEO_TS/VIDEO_TS.IFO failed
libdvdread:DVDOpenFileUDF:UDFFindFile /VIDEO_TS/VIDEO_TS.BUP failed
libdvdread: Can't open file VIDEO_TS.IFO.
libdvdnav: vm: failed to read VIDEO_TS.IFO
[14:51:35] dvd: not a dvd - trying as a stream/file instead
Input #0, matroska,webm, from '/Users/petereliasson/Movies/ANGEL TERMINATORS 2_Custom_REMUX/ANGEL TERMINATORS 2_Custom_REMUX.mkv':
  Metadata:
    title           : ANGEL TERMINATORS 2
    encoder         : libebml v1.3.6 + libmatroska v1.4.9
    creation_time   : 2019-03-20T17:32:01.000000Z
  Duration: 01:29:50.40, start: 0.000000, bitrate: 32956 kb/s
    Chapter #0:0: start 0.000000, end 271.920000
    Metadata:
      title           : Chapter 01
    Chapter #0:1: start 271.920000, end 744.360000
    Metadata:
      title           : Chapter 02
    Chapter #0:2: start 744.360000, end 1436.120000
    Metadata:
      title           : Chapter 03
    Chapter #0:3: start 1436.120000, end 2062.480000
    Metadata:
      title           : Chapter 04
    Chapter #0:4: start 2062.480000, end 2642.000000
    Metadata:
      title           : Chapter 05
    Chapter #0:5: start 2642.000000, end 3275.720000
    Metadata:
      title           : Chapter 06
    Chapter #0:6: start 3275.720000, end 4112.080000
    Metadata:
      title           : Chapter 07
    Chapter #0:7: start 4112.080000, end 5307.360000
    Metadata:
      title           : Chapter 08
    Chapter #0:8: start 5307.360000, end 5390.368000
    Metadata:
      title           : Chapter 09
    Stream #0:0(eng): Video: h264 (High), yuv420p(tv, bt709, top first), 1920x1080 [SAR 1:1 DAR 16:9], 25 fps, 25 tbr, 1k tbn, 50 tbc
    Metadata:
      BPS-eng         : 30000477
      DURATION-eng    : 01:29:15.760000000
      NUMBER_OF_FRAMES-eng: 133894
      NUMBER_OF_BYTES-eng: 20084419925
      _STATISTICS_WRITING_APP-eng: mkvmerge v30.1.0 ('Forever And More') 64-bit
      _STATISTICS_WRITING_DATE_UTC-eng: 2019-03-20 17:32:01
      _STATISTICS_TAGS-eng: BPS DURATION NUMBER_OF_FRAMES NUMBER_OF_BYTES
    Stream #0:1(chi): Audio: dts (DTS-HD MA), 48000 Hz, stereo, s32p (24 bit) (default)
    Metadata:
      title           : Stereo
      BPS-eng         : 1620703
      DURATION-eng    : 01:29:50.400000000
      NUMBER_OF_FRAMES-eng: 505350
      NUMBER_OF_BYTES-eng: 1092030260
      _STATISTICS_WRITING_APP-eng: mkvmerge v30.1.0 ('Forever And More') 64-bit
      _STATISTICS_WRITING_DATE_UTC-eng: 2019-03-20 17:32:01
      _STATISTICS_TAGS-eng: BPS DURATION NUMBER_OF_FRAMES NUMBER_OF_BYTES
    Stream #0:2(chi): Audio: dts (DTS), 48000 Hz, stereo, fltp, 1536 kb/s
    Metadata:
      title           : Stereo
      BPS-eng         : 1509000
      DURATION-eng    : 01:29:50.400000000
      NUMBER_OF_FRAMES-eng: 505350
      NUMBER_OF_BYTES-eng: 1016764200
      _STATISTICS_WRITING_APP-eng: mkvmerge v30.1.0 ('Forever And More') 64-bit
      _STATISTICS_WRITING_DATE_UTC-eng: 2019-03-20 17:32:01
      _STATISTICS_TAGS-eng: BPS DURATION NUMBER_OF_FRAMES NUMBER_OF_BYTES
    Stream #0:3(fre): Subtitle: hdmv_pgs_subtitle
    Metadata:
      BPS-eng         : 34820
      DURATION-eng    : 01:28:01.260000000
      NUMBER_OF_FRAMES-eng: 2683
      NUMBER_OF_BYTES-eng: 22986882
      _STATISTICS_WRITING_APP-eng: mkvmerge v30.1.0 ('Forever And More') 64-bit
      _STATISTICS_WRITING_DATE_UTC-eng: 2019-03-20 17:32:01
      _STATISTICS_TAGS-eng: BPS DURATION NUMBER_OF_FRAMES NUMBER_OF_BYTES
    Stream #0:4(eng): Subtitle: subrip (default) (forced)
    Metadata:
      title           : English Custom
      BPS-eng         : 55
      DURATION-eng    : 01:28:01.240000000
      NUMBER_OF_FRAMES-eng: 1444
      NUMBER_OF_BYTES-eng: 36834
      _STATISTICS_WRITING_APP-eng: mkvmerge v30.1.0 ('Forever And More') 64-bit
      _STATISTICS_WRITING_DATE_UTC-eng: 2019-03-20 17:32:01
      _STATISTICS_TAGS-eng: BPS DURATION NUMBER_OF_FRAMES NUMBER_OF_BYTES
[14:51:35] scan: decoding previews for title 1
[14:51:36] scan: audio 0x1: dca, rate=48000Hz, bitrate=1 中文 (DTS-HD MA) (2.0 ch)
[14:51:36] scan: audio 0x2: dca, rate=48000Hz, bitrate=1536000 中文 (DTS) (2.0 ch)
[14:51:56] scan: 10 previews, 1920x1080, 25.000 fps, autocrop = 0/0/0/0, aspect 16:9, PAR 1:1
[14:51:56] libhb: scan thread found 1 valid title(s)
[14:51:56] macgui: ScanCore scan done
[15:00:48] sync: "Chapter 2" (2) at frame 6840 time 24620400
[15:37:23] sync: "Chapter 3" (3) at frame 26787 time 96429600
[16:10:20] sync: "Chapter 4" (4) at frame 45006 time 162018000
[16:50:00] sync: "Chapter 5" (5) at frame 65791 time 236844000
[17:24:24] sync: "Chapter 6" (6) at frame 84601 time 304560000
[18:11:14] sync: "Chapter 7" (7) at frame 111201 time 400320000
[18:44:42] sync: "Chapter 8" (8) at frame 131282 time 472611600
[18:46:31] reader: done. 1 scr changes
[18:46:37] work: average encoding speed for job is 9.216375 fps
[18:46:37] comb detect: heavy 214 | light 2925 | uncombed 129388 | total 132527
[18:46:37] decomb: deinterlaced 214 | blended 2925 | unfiltered 129388 | total 132527
[18:46:37] vfr: 132527 frames output, 0 dropped and 0 duped for CFR/PFR
[18:46:37] vfr: lost time: 0 (0 frames)
[18:46:37] vfr: gained time: 0 (0 frames) (0 not accounted for)
[18:46:40] dca-decoder done: 496977 frames, 0 decoder errors
[18:46:40] dca-decoder done: 496977 frames, 0 decoder errors
[18:46:40] h264-decoder done: 132527 frames, 0 decoder errors
[18:46:40] sync: got 132527 frames, 132527 expected
[18:46:40] sync: framerate min 25.000 fps, max 25.000 fps, avg 25.000 fps
x264 [info]: frame I:2522  Avg QP:20.21  size:125300
x264 [info]: frame P:51113 Avg QP:23.37  size: 42932
x264 [info]: frame B:78892 Avg QP:24.14  size: 25835
x264 [info]: consecutive B-frames: 20.0%  1.2%  2.3% 76.5%
x264 [info]: mb I  I16..4: 23.9%  0.0% 76.1%
x264 [info]: mb P  I16..4:  5.8%  0.0%  6.5%  P16..4: 51.9% 14.7% 11.9%  0.0%  0.0%    skip: 9.3%
x264 [info]: mb B  I16..4: 11.7%  0.0%  0.7%  B16..8: 33.9%  8.7%  0.2%  direct:25.4%  skip:19.3%  L0:48.8% L1:45.4% BI: 5.8%
x264 [info]: coded y,uvDC,uvAC intra: 63.9% 60.6% 6.9% inter: 27.7% 40.9% 0.1%
x264 [info]: i16 v,h,dc,p: 24% 17% 37% 22%
x264 [info]: i4 v,h,dc,ddl,ddr,vr,hd,vl,hu: 21% 15% 27%  7%  8%  7%  6%  5%  4%
x264 [info]: i8c dc,h,v,p: 60% 19% 19%  3%
x264 [info]: Weighted P-Frames: Y:2.5% UV:1.0%
x264 [info]: ref P L0: 61.9% 38.1%
x264 [info]: ref B L0: 75.8% 24.2%
x264 [info]: ref B L1: 90.6%  9.4%
x264 [info]: kb/s:6864.29
[18:46:41] mux: track 0, 132527 frames, 4548444060 bytes, 6864.13 kbps, fifo 1024
[18:46:41] mux: track 1, 248491 frames, 108980215 bytes, 164.46 kbps, fifo 2048
[18:46:41] mux: track 2, 248491 frames, 108981044 bytes, 164.46 kbps, fifo 2048
[18:46:42] libhb: work result = 0
[18:46:42] macgui: QueueCore work done
[18:46:42] macgui: QueueCore scanning specifically for title: 1
[18:46:42] CPU: Intel(R) Core(TM) i5-5250U CPU @ 1.60GHz
[18:46:42]  - Intel microarchitecture Broadwell
[18:46:42]  - logical processor count: 4
[18:46:42] hb_scan: path=/Users/petereliasson/Movies/The.Yuppie.Fantasia.1989.REPACK.720p.BluRay.x264-WiKi.mkv, title_index=1
udfread ERROR: ECMA 167 Volume Recognition failed
disc.c:323: failed opening UDF image /Users/petereliasson/Movies/The.Yuppie.Fantasia.1989.REPACK.720p.BluRay.x264-WiKi.mkv
disc.c:424: error opening file BDMV/index.bdmv
disc.c:424: error opening file BDMV/BACKUP/index.bdmv
[18:46:43] bd: not a bd - trying as a stream/file instead
libdvdnav: Using dvdnav version 6.0.0
libdvdread: Encrypted DVD support unavailable.
libdvdread:DVDOpenFileUDF:UDFFindFile /VIDEO_TS/VIDEO_TS.IFO failed
libdvdread:DVDOpenFileUDF:UDFFindFile /VIDEO_TS/VIDEO_TS.BUP failed
libdvdread: Can't open file VIDEO_TS.IFO.
libdvdnav: vm: failed to read VIDEO_TS.IFO
[18:46:43] dvd: not a dvd - trying as a stream/file instead
Input #0, matroska,webm, from '/Users/petereliasson/Movies/The.Yuppie.Fantasia.1989.REPACK.720p.BluRay.x264-WiKi.mkv':
  Metadata:
    encoder         : libebml v1.3.1 + libmatroska v1.4.2
    creation_time   : 2019-04-21T11:55:28.000000Z
  Duration: 01:37:07.97, start: 0.000000, bitrate: 9926 kb/s
    Chapter #0:0: start 0.000000, end 469.511000
    Metadata:
      title           : 00:00:00.000
    Chapter #0:1: start 469.511000, end 916.207000
    Metadata:
      title           : 00:07:49.511
    Chapter #0:2: start 916.207000, end 1416.081000
    Metadata:
      title           : 00:15:16.207
    Chapter #0:3: start 1416.081000, end 1895.811000
    Metadata:
      title           : 00:23:36.081
    Chapter #0:4: start 1895.811000, end 2322.612000
    Metadata:
      title           : 00:31:35.811
    Chapter #0:5: start 2322.612000, end 2767.807000
    Metadata:
      title           : 00:38:42.612
    Chapter #0:6: start 2767.807000, end 3300.756000
    Metadata:
      title           : 00:46:07.807
    Chapter #0:7: start 3300.756000, end 3950.989000
    Metadata:
      title           : 00:55:00.756
    Chapter #0:8: start 3950.989000, end 4466.420000
    Metadata:
      title           : 01:05:50.989
    Chapter #0:9: start 4466.420000, end 4857.102000
    Metadata:
      title           : 01:14:26.420
    Chapter #0:10: start 4857.102000, end 5412.616000
    Metadata:
      title           : 01:20:57.102
    Chapter #0:11: start 5412.616000, end 5827.968000
    Metadata:
      title           : 01:30:12.616
    Stream #0:0(eng): Video: h264 (High), yuv420p(progressive), 1280x692, SAR 1:1 DAR 320:173, 23.98 fps, 23.98 tbr, 1k tbn, 47.95 tbc (default)
    Metadata:
      BPS             : 8643879
      BPS-eng         : 8643879
      DURATION        : 01:37:07.947000000
      DURATION-eng    : 01:37:07.947000000
      NUMBER_OF_FRAMES: 139731
      NUMBER_OF_FRAMES-eng: 139731
      NUMBER_OF_BYTES : 6297008854
      NUMBER_OF_BYTES-eng: 6297008854
      _STATISTICS_WRITING_APP: mkvmerge v8.2.0 ('World of Adventure') 64bit
      _STATISTICS_WRITING_APP-eng: mkvmerge v8.2.0 ('World of Adventure') 64bit
      _STATISTICS_WRITING_DATE_UTC: 2019-04-21 11:55:28
      _STATISTICS_WRITING_DATE_UTC-eng: 2019-04-21 11:55:28
      _STATISTICS_TAGS: BPS DURATION NUMBER_OF_FRAMES NUMBER_OF_BYTES
      _STATISTICS_TAGS-eng: BPS DURATION NUMBER_OF_FRAMES NUMBER_OF_BYTES
    Stream #0:1(chi): Audio: ac3, 48000 Hz, 5.1(side), fltp, 640 kb/s (default)
    Metadata:
      title           : Cantonese
      BPS             : 640000
      BPS-eng         : 640000
      DURATION        : 01:37:07.968000000
      DURATION-eng    : 01:37:07.968000000
      NUMBER_OF_FRAMES: 182124
      NUMBER_OF_FRAMES-eng: 182124
      NUMBER_OF_BYTES : 466237440
      NUMBER_OF_BYTES-eng: 466237440
      _STATISTICS_WRITING_APP: mkvmerge v8.2.0 ('World of Adventure') 64bit
      _STATISTICS_WRITING_APP-eng: mkvmerge v8.2.0 ('World of Adventure') 64bit
      _STATISTICS_WRITING_DATE_UTC: 2019-04-21 11:55:28
      _STATISTICS_WRITING_DATE_UTC-eng: 2019-04-21 11:55:28
      _STATISTICS_TAGS: BPS DURATION NUMBER_OF_FRAMES NUMBER_OF_BYTES
      _STATISTICS_TAGS-eng: BPS DURATION NUMBER_OF_FRAMES NUMBER_OF_BYTES
    Stream #0:2(chi): Audio: ac3, 48000 Hz, 5.1(side), fltp, 640 kb/s
    Metadata:
      title           : Mandarin
      BPS             : 640000
      BPS-eng         : 640000
      DURATION        : 01:37:07.968000000
      DURATION-eng    : 01:37:07.968000000
      NUMBER_OF_FRAMES: 182124
      NUMBER_OF_FRAMES-eng: 182124
      NUMBER_OF_BYTES : 466237440
      NUMBER_OF_BYTES-eng: 466237440
      _STATISTICS_WRITING_APP: mkvmerge v8.2.0 ('World of Adventure') 64bit
      _STATISTICS_WRITING_APP-eng: mkvmerge v8.2.0 ('World of Adventure') 64bit
      _STATISTICS_WRITING_DATE_UTC: 2019-04-21 11:55:28
      _STATISTICS_WRITING_DATE_UTC-eng: 2019-04-21 11:55:28
      _STATISTICS_TAGS: BPS DURATION NUMBER_OF_FRAMES NUMBER_OF_BYTES
      _STATISTICS_TAGS-eng: BPS DURATION NUMBER_OF_FRAMES NUMBER_OF_BYTES
    Stream #0:3(chi): Subtitle: subrip
    Metadata:
      title           : CHS
      BPS             : 53
      BPS-eng         : 53
      DURATION        : 01:33:50.834000000
      DURATION-eng    : 01:33:50.834000000
      NUMBER_OF_FRAMES: 1431
      NUMBER_OF_FRAMES-eng: 1431
      NUMBER_OF_BYTES : 37388
      NUMBER_OF_BYTES-eng: 37388
      _STATISTICS_WRITING_APP: mkvmerge v8.2.0 ('World of Adventure') 64bit
      _STATISTICS_WRITING_APP-eng: mkvmerge v8.2.0 ('World of Adventure') 64bit
      _STATISTICS_WRITING_DATE_UTC: 2019-04-21 11:55:28
      _STATISTICS_WRITING_DATE_UTC-eng: 2019-04-21 11:55:28
      _STATISTICS_TAGS: BPS DURATION NUMBER_OF_FRAMES NUMBER_OF_BYTES
      _STATISTICS_TAGS-eng: BPS DURATION NUMBER_OF_FRAMES NUMBER_OF_BYTES
    Stream #0:4(chi): Subtitle: subrip
    Metadata:
      title           : CHT
      BPS             : 52
      BPS-eng         : 52
      DURATION        : 01:33:50.834000000
      DURATION-eng    : 01:33:50.834000000
      NUMBER_OF_FRAMES: 1431
      NUMBER_OF_FRAMES-eng: 1431
      NUMBER_OF_BYTES : 37273
      NUMBER_OF_BYTES-eng: 37273
      _STATISTICS_WRITING_APP: mkvmerge v8.2.0 ('World of Adventure') 64bit
      _STATISTICS_WRITING_APP-eng: mkvmerge v8.2.0 ('World of Adventure') 64bit
      _STATISTICS_WRITING_DATE_UTC: 2019-04-21 11:55:28
      _STATISTICS_WRITING_DATE_UTC-eng: 2019-04-21 11:55:28
      _STATISTICS_TAGS: BPS DURATION NUMBER_OF_FRAMES NUMBER_OF_BYTES
      _STATISTICS_TAGS-eng: BPS DURATION NUMBER_OF_FRAMES NUMBER_OF_BYTES
    Stream #0:5(eng): Subtitle: subrip
    Metadata:
      BPS             : 50
      BPS-eng         : 50
      DURATION        : 01:33:50.833000000
      DURATION-eng    : 01:33:50.833000000
      NUMBER_OF_FRAMES: 1396
      NUMBER_OF_FRAMES-eng: 1396
      NUMBER_OF_BYTES : 35500
      NUMBER_OF_BYTES-eng: 35500
      _STATISTICS_WRITING_APP: mkvmerge v8.2.0 ('World of Adventure') 64bit
      _STATISTICS_WRITING_APP-eng: mkvmerge v8.2.0 ('World of Adventure') 64bit
      _STATISTICS_WRITING_DATE_UTC: 2019-04-21 11:55:28
      _STATISTICS_WRITING_DATE_UTC-eng: 2019-04-21 11:55:28
      _STATISTICS_TAGS: BPS DURATION NUMBER_OF_FRAMES NUMBER_OF_BYTES
      _STATISTICS_TAGS-eng: BPS DURATION NUMBER_OF_FRAMES NUMBER_OF_BYTES
[18:46:43] scan: decoding previews for title 1
[18:46:43] scan: audio 0x1: ac3, rate=48000Hz, bitrate=640000 中文 (AC3) (5.1 ch)
[18:46:43] scan: audio 0x2: ac3, rate=48000Hz, bitrate=640000 中文 (AC3) (5.1 ch)
[18:46:46] scan: 10 previews, 1280x692, 23.976 fps, autocrop = 0/0/0/0, aspect 16:9, PAR 1:1
[18:46:46] libhb: scan thread found 1 valid title(s)
[18:46:46] macgui: QueueCore scan done
[18:46:46] 1 job(s) to process
[18:46:46] starting job
[18:46:46] macgui: QueueCore started encoding The.Yuppie.Fantasia.1989.REPACK.720p.BluRay.x264-WiKi.m4v
[18:46:46] macgui: QueueCore with preset Fast 1080p30
[18:46:46] decomb filter thread started for segment 1
[18:46:46] decomb filter thread started for segment 0
[18:46:46] decomb filter thread started for segment 2
[18:46:46] decomb check thread started for segment 1
[18:46:46] decomb filter thread started for segment 3
[18:46:46] decomb check thread started for segment 0
[18:46:46] decomb check thread started for segment 2
[18:46:46] decomb check thread started for segment 3
[18:46:46] mask filter thread started for segment 0
[18:46:46] mask filter thread started for segment 1
[18:46:46] mask filter thread started for segment 2
[18:46:46] mask filter thread started for segment 3
[18:46:46] mask erode thread started for segment 0
[18:46:46] mask erode thread started for segment 1
[18:46:46] mask erode thread started for segment 2
[18:46:46] mask dilate thread started for segment 0
[18:46:46] mask erode thread started for segment 3
[18:46:46] mask dilate thread started for segment 1
[18:46:46] mask dilate thread started for segment 2
[18:46:46] mask dilate thread started for segment 3
[18:46:46] yadif thread started for segment 0
[18:46:46] yadif thread started for segment 1
[18:46:46] yadif thread started for segment 2
[18:46:46] yadif thread started for segment 3
[18:46:46] [ass] Shaper: FriBidi 0.19.7 (SIMPLE) HarfBuzz-ng 1.7.2 (COMPLEX)
[18:46:46] [ass] Using font provider coretext
[18:46:46] job configuration:
[18:46:46]  * source
[18:46:46]    + /Users/petereliasson/Movies/The.Yuppie.Fantasia.1989.REPACK.720p.BluRay.x264-WiKi.mkv
[18:46:46]    + title 1, chapter(s) 1 to 12
[18:46:46]    + container: matroska,webm
[18:46:46]    + data rate: 9926 kbps
[18:46:46]  * destination
[18:46:46]    + /Volumes/2TB Fraggeldrive/Hong Kong 2TB/The.Yuppie.Fantasia.1989.REPACK.720p.BluRay.x264-WiKi.m4v
[18:46:46]    + container: MPEG-4 (libavformat)
[18:46:46]      + align initial A/V stream timestamps
[18:46:46]      + chapter markers
[18:46:46]  * video track
[18:46:46]    + decoder: h264
[18:46:46]    + filters
[18:46:46]      + Comb Detect (mode=3:spatial-metric=2:motion-thresh=1:spatial-thresh=1:filter-mode=2:block-thresh=40:block-width=16:block-height=16)
[18:46:46]      + Decomb (mode=39)
[18:46:46]      + Framerate Shaper (mode=2:rate=27000000/900000)
[18:46:46]        + frame rate: 23.976 fps -> peak rate limited to 30.000 fps
[18:46:46]      + Subtitle renderer ()
[18:46:46]      + Crop and Scale (width=1280:height=692:crop-top=0:crop-bottom=0:crop-left=0:crop-right=0)
[18:46:46]        + source: 1280 * 692, crop (0/0/0/0): 1280 * 692, scale: 1280 * 692
[18:46:46]    + Output geometry
[18:46:46]      + storage dimensions: 1280 x 692
[18:46:46]      + pixel aspect ratio: 1 : 1
[18:46:46]      + display dimensions: 1280 x 692
[18:46:46]    + encoder: H.264 (libx264)
[18:46:46]      + preset:  fast
[18:46:46]      + profile: main
[18:46:46]      + level:   4.0
[18:46:46]      + quality: 22.00 (RF)
[18:46:46]      + color profile: 1-1-1
[18:46:46]  * subtitle track 1, English [UTF-8] (track 2, id 0x5, Text) -> Render/Burn-in
[18:46:46]  * audio track 1
[18:46:46]    + decoder: 中文 (AC3) (5.1 ch) (track 1, id 0x1)
[18:46:46]      + bitrate: 640 kbps, samplerate: 48000 Hz
[18:46:46]    + mixdown: Stereo
[18:46:46]    + dither: triangular
[18:46:46]    + encoder: AAC (Apple AudioToolbox)
[18:46:46]      + bitrate: 160 kbps, samplerate: 48000 Hz
[18:46:46]  * audio track 2
[18:46:46]    + decoder: 中文 (AC3) (5.1 ch) (track 2, id 0x2)
[18:46:46]      + bitrate: 640 kbps, samplerate: 48000 Hz
[18:46:46]    + mixdown: 5.1 Channels
[18:46:46]    + dither: triangular
[18:46:46]    + encoder: AAC (Apple AudioToolbox)
[18:46:46]      + bitrate: 160 kbps, samplerate: 48000 Hz
[18:46:46] sync: expecting 139731 video frames
[18:46:46] encx264: min-keyint: 24, keyint: 240
[18:46:46] encx264: encoding at constant RF 22.000000
[18:46:46] encx264: unparsed options: level=4.0:ref=2:8x8dct=0:weightp=1:subme=6:vbv-bufsize=25000:vbv-maxrate=20000:rc-lookahead=30
x264 [info]: using SAR=1/1
x264 [info]: using cpu capabilities: MMX2 SSE2Fast SSSE3 SSE4.2 AVX FMA3 BMI2 AVX2
x264 [info]: profile Main, level 4.0, 4:2:0, 8-bit
[18:46:46] sync: first pts video is 0
[18:46:46] sync: "00:00:00.000" (1) at frame 1 time 0
[18:46:46] sync: first pts audio 0x1 is 0
[18:46:46] sync: first pts audio 0x2 is 0
[18:48:28] sync: first pts subtitle 0x5 is 11186100
[18:48:30] [ass] fontselect: (sans-serif, 400, 0) -> /System/Library/Fonts/Helvetica.ttc, -1, Helvetica
[18:54:37] macgui: QueueCore stopped preventing sleep


User avatar
Rodeo
HandBrake Team
Posts: 12160
Joined: Tue Mar 03, 2009 8:55 pm

Re: Damage to picture when converting

Post by Rodeo » Sun Sep 01, 2019 2:11 pm

Can you be more specific about what you mean by "damage"? A screenshot perhaps?

Post Reply