Set new default preset?

HandBrake for Mac support
Forum rules
An Activity Log is required for support requests. Please read How-to get an activity log? for details on how and why this should be provided.
Post Reply
gbdoc
Posts: 2
Joined: Wed Feb 13, 2019 1:00 pm

Set new default preset?

Post by gbdoc » Wed Feb 13, 2019 1:16 pm

I'd like to know if/how to set a new default preset (perhaps in Preferences). What always comes up now is Fast 1080p30. Very Fast 480p30 makes smaller files, is faster, and is enough for my use and that of my group, and I'd like to be able to set that up as the default preset. (My people are very non-tech-savvy, so I'd like to have them set it and forget it.




Steps to reproduce the problem (If Applicable):
n/a



HandBrake version 1.2.0




Operating system and version macOS 10.14.3 Mojave




HandBrake Activity Log ***required*** (see How-to get an activity log)
n/a
[[13:31:21] macgui: Handbrake Version: 1.2.0 (2018122200)
[13:31:21] hb_init: starting libhb thread
[13:31:21] hb_init: starting libhb thread
[13:31:49] macgui: trying to open a folder or file
[13:31:49] macgui: ScanCore scanning titles with a duration of 10 seconds or more
[13:31:49] CPU: Intel(R) Core(TM) i7-4650U CPU @ 1.70GHz
[13:31:49] - Intel microarchitecture Haswell
[13:31:49] - logical processor count: 4
[13:31:49] hb_scan: path=/Users/gbdoc/Desktop/TFP sup films/Turner/lajos1.mp4, title_index=0
udfread ERROR: ECMA 167 Volume Recognition failed
disc.c:323: failed opening UDF image /Users/gbdoc/Desktop/TFP sup films/Turner/lajos1.mp4
disc.c:424: error opening file BDMV/index.bdmv
disc.c:424: error opening file BDMV/BACKUP/index.bdmv
[13:31:49] bd: not a bd - trying as a stream/file instead
libdvdnav: Using dvdnav version 6.0.0
libdvdread: Encrypted DVD support unavailable.
libdvdread:DVDOpenFileUDF:UDFFindFile /VIDEO_TS/VIDEO_TS.IFO failed
libdvdread:DVDOpenFileUDF:UDFFindFile /VIDEO_TS/VIDEO_TS.BUP failed
libdvdread: Can't open file VIDEO_TS.IFO.
libdvdnav: vm: failed to read VIDEO_TS.IFO
[13:31:49] dvd: not a dvd - trying as a stream/file instead
Input #0, mov,mp4,m4a,3gp,3g2,mj2, from '/Users/gbdoc/Desktop/TFP sup films/Turner/lajos1.mp4':
Metadata:
major_brand : mp42
minor_version : 512
compatible_brands: isomiso2avc1mp41
creation_time : 2019-02-12T20:22:35.000000Z
encoder : HandBrake 1.0.7 2017040900
Duration: 00:22:00.96, start: 0.000000, bitrate: 813 kb/s
Stream #0:0(und): Video: h264 (Main) (avc1 / 0x31637661), yuv420p(tv, bt709), 1280x720 [SAR 1:1 DAR 16:9], 647 kb/s, 25 fps, 25 tbr, 90k tbn, 180k tbc (default)
Metadata:
creation_time : 2019-02-12T20:22:35.000000Z
handler_name : VideoHandler
Stream #0:1(eng): Audio: aac (LC) (mp4a / 0x6134706D), 48000 Hz, stereo, fltp, 160 kb/s (default)
Metadata:
creation_time : 2019-02-12T20:22:35.000000Z
handler_name : Stereo
[13:31:49] scan: decoding previews for title 1
[13:31:50] scan: audio 0x1: aac, rate=48000Hz, bitrate=160294 English (AAC LC) (2.0 ch)
[13:31:50] scan: 10 previews, 1280x720, 25.000 fps, autocrop = 0/0/0/0, aspect 16:9, PAR 1:1
[13:31:50] libhb: scan thread found 1 valid title(s)
[13:31:50] macgui: ScanCore scan done
[13:33:56] macgui: trying to open a folder or file
[13:33:56] macgui: ScanCore scanning titles with a duration of 10 seconds or more
[13:33:56] CPU: Intel(R) Core(TM) i7-4650U CPU @ 1.70GHz
[13:33:56] - Intel microarchitecture Haswell
[13:33:56] - logical processor count: 4
[13:33:56] hb_scan: path=/Users/gbdoc/Desktop/TFP sup films/Turner/Lajos2.m4v, title_index=0
udfread ERROR: ECMA 167 Volume Recognition failed
disc.c:323: failed opening UDF image /Users/gbdoc/Desktop/TFP sup films/Turner/Lajos2.m4v
disc.c:424: error opening file BDMV/index.bdmv
disc.c:424: error opening file BDMV/BACKUP/index.bdmv
[13:33:56] bd: not a bd - trying as a stream/file instead
libdvdnav: Using dvdnav version 6.0.0
libdvdread: Encrypted DVD support unavailable.
libdvdread:DVDOpenFileUDF:UDFFindFile /VIDEO_TS/VIDEO_TS.IFO failed
libdvdread:DVDOpenFileUDF:UDFFindFile /VIDEO_TS/VIDEO_TS.BUP failed
libdvdread: Can't open file VIDEO_TS.IFO.
libdvdnav: vm: failed to read VIDEO_TS.IFO
[13:33:56] dvd: not a dvd - trying as a stream/file instead
Input #0, mov,mp4,m4a,3gp,3g2,mj2, from '/Users/gbdoc/Desktop/TFP sup films/Turner/Lajos2.m4v':
Metadata:
major_brand : mp42
minor_version : 512
compatible_brands: isomiso2avc1mp41
creation_time : 2019-02-12T20:33:40.000000Z
encoder : HandBrake 1.0.7 2017040900
Duration: 00:22:00.96, start: 0.000000, bitrate: 816 kb/s
Stream #0:0(und): Video: h264 (Main) (avc1 / 0x31637661), yuv420p(tv, bt709), 1280x720 [SAR 1:1 DAR 16:9], 650 kb/s, 25 fps, 25 tbr, 90k tbn, 180k tbc (default)
Metadata:
creation_time : 2019-02-12T20:33:40.000000Z
handler_name : VideoHandler
Stream #0:1(eng): Audio: aac (LC) (mp4a / 0x6134706D), 48000 Hz, stereo, fltp, 160 kb/s (default)
Metadata:
creation_time : 2019-02-12T20:33:40.000000Z
handler_name : Stereo
[13:33:56] scan: decoding previews for title 1
[13:33:56] scan: audio 0x1: aac, rate=48000Hz, bitrate=160265 English (AAC LC) (2.0 ch)
[13:33:56] scan: 10 previews, 1280x720, 25.000 fps, autocrop = 0/0/0/0, aspect 16:9, PAR 1:1
[13:33:56] libhb: scan thread found 1 valid title(s)
[13:33:57] macgui: ScanCore scan done
[13:34:23] macgui: trying to open a folder or file
[13:34:23] macgui: ScanCore scanning titles with a duration of 10 seconds or more
[13:34:23] CPU: Intel(R) Core(TM) i7-4650U CPU @ 1.70GHz
[13:34:23] - Intel microarchitecture Haswell
[13:34:23] - logical processor count: 4
[13:34:23] hb_scan: path=/Users/gbdoc/Desktop/TFP sup films/Turner/Lajos3.m4v, title_index=0
udfread ERROR: ECMA 167 Volume Recognition failed
disc.c:323: failed opening UDF image /Users/gbdoc/Desktop/TFP sup films/Turner/Lajos3.m4v
disc.c:424: error opening file BDMV/index.bdmv
disc.c:424: error opening file BDMV/BACKUP/index.bdmv
[13:34:23] bd: not a bd - trying as a stream/file instead
libdvdnav: Using dvdnav version 6.0.0
libdvdread: Encrypted DVD support unavailable.
libdvdread:DVDOpenFileUDF:UDFFindFile /VIDEO_TS/VIDEO_TS.IFO failed
libdvdread:DVDOpenFileUDF:UDFFindFile /VIDEO_TS/VIDEO_TS.BUP failed
libdvdread: Can't open file VIDEO_TS.IFO.
libdvdnav: vm: failed to read VIDEO_TS.IFO
[13:34:23] dvd: not a dvd - trying as a stream/file instead
Input #0, mov,mp4,m4a,3gp,3g2,mj2, from '/Users/gbdoc/Desktop/TFP sup films/Turner/Lajos3.m4v':
Metadata:
major_brand : mp42
minor_version : 512
compatible_brands: isomiso2avc1mp41
creation_time : 2019-02-12T20:45:31.000000Z
encoder : HandBrake 1.0.7 2017040900
Duration: 00:07:58.61, start: 0.000000, bitrate: 888 kb/s
Stream #0:0(und): Video: h264 (Main) (avc1 / 0x31637661), yuv420p(tv, bt709), 1280x720 [SAR 1:1 DAR 16:9], 722 kb/s, 25 fps, 25 tbr, 90k tbn, 180k tbc (default)
Metadata:
creation_time : 2019-02-12T20:45:31.000000Z
handler_name : VideoHandler
Stream #0:1(eng): Audio: aac (LC) (mp4a / 0x6134706D), 48000 Hz, stereo, fltp, 160 kb/s (default)
Metadata:
creation_time : 2019-02-12T20:45:31.000000Z
handler_name : Stereo
[13:34:23] scan: decoding previews for title 1
[13:34:23] scan: audio 0x1: aac, rate=48000Hz, bitrate=160267 English (AAC LC) (2.0 ch)
[13:34:23] scan: 10 previews, 1280x720, 25.000 fps, autocrop = 0/0/0/0, aspect 16:9, PAR 1:1
[13:34:23] libhb: scan thread found 1 valid title(s)
[13:34:24] macgui: ScanCore scan done
[13:34:39] macgui: QueueCore prevented sleep
[13:34:39] macgui: QueueCore scanning specifically for title: 1
[13:34:39] CPU: Intel(R) Core(TM) i7-4650U CPU @ 1.70GHz
[13:34:39] - Intel microarchitecture Haswell
[13:34:39] - logical processor count: 4
[13:34:39] hb_scan: path=/Users/gbdoc/Desktop/TFP sup films/Turner/lajos1.mp4, title_index=1
udfread ERROR: ECMA 167 Volume Recognition failed
disc.c:323: failed opening UDF image /Users/gbdoc/Desktop/TFP sup films/Turner/lajos1.mp4
disc.c:424: error opening file BDMV/index.bdmv
disc.c:424: error opening file BDMV/BACKUP/index.bdmv
[13:34:39] bd: not a bd - trying as a stream/file instead
libdvdnav: Using dvdnav version 6.0.0
libdvdread: Encrypted DVD support unavailable.
libdvdread:DVDOpenFileUDF:UDFFindFile /VIDEO_TS/VIDEO_TS.IFO failed
libdvdread:DVDOpenFileUDF:UDFFindFile /VIDEO_TS/VIDEO_TS.BUP failed
libdvdread: Can't open file VIDEO_TS.IFO.
libdvdnav: vm: failed to read VIDEO_TS.IFO
[13:34:39] dvd: not a dvd - trying as a stream/file instead
Input #0, mov,mp4,m4a,3gp,3g2,mj2, from '/Users/gbdoc/Desktop/TFP sup films/Turner/lajos1.mp4':
Metadata:
major_brand : mp42
minor_version : 512
compatible_brands: isomiso2avc1mp41
creation_time : 2019-02-12T20:22:35.000000Z
encoder : HandBrake 1.0.7 2017040900
Duration: 00:22:00.96, start: 0.000000, bitrate: 813 kb/s
Stream #0:0(und): Video: h264 (Main) (avc1 / 0x31637661), yuv420p(tv, bt709), 1280x720 [SAR 1:1 DAR 16:9], 647 kb/s, 25 fps, 25 tbr, 90k tbn, 180k tbc (default)
Metadata:
creation_time : 2019-02-12T20:22:35.000000Z
handler_name : VideoHandler
Stream #0:1(eng): Audio: aac (LC) (mp4a / 0x6134706D), 48000 Hz, stereo, fltp, 160 kb/s (default)
Metadata:
creation_time : 2019-02-12T20:22:35.000000Z
handler_name : Stereo
[13:34:39] scan: decoding previews for title 1
[13:34:39] scan: audio 0x1: aac, rate=48000Hz, bitrate=160294 English (AAC LC) (2.0 ch)
[13:34:39] scan: 10 previews, 1280x720, 25.000 fps, autocrop = 0/0/0/0, aspect 16:9, PAR 1:1
[13:34:39] libhb: scan thread found 1 valid title(s)
[13:34:40] macgui: QueueCore scan done
[13:34:40] 1 job(s) to process
[13:34:40] starting job
[13:34:40] decomb filter thread started for segment 0
[13:34:40] decomb filter thread started for segment 1
[13:34:40] decomb filter thread started for segment 2
[13:34:40] decomb filter thread started for segment 3
[13:34:40] decomb check thread started for segment 0
[13:34:40] decomb check thread started for segment 1
[13:34:40] decomb check thread started for segment 2
[13:34:40] decomb check thread started for segment 3
[13:34:40] yadif thread started for segment 0
[13:34:40] yadif thread started for segment 1
[13:34:40] yadif thread started for segment 2
[13:34:40] yadif thread started for segment 3
[13:34:40] work: only 1 chapter, disabling chapter markers
[13:34:40] job configuration:
[13:34:40] * source
[13:34:40] + /Users/gbdoc/Desktop/TFP sup films/Turner/lajos1.mp4
[13:34:40] + title 1, chapter(s) 1 to 1
[13:34:40] + container: mov,mp4,m4a,3gp,3g2,mj2
[13:34:40] + data rate: 813 kbps
[13:34:40] macgui: QueueCore started encoding lajos1 1.mp4
[13:34:40] * destination
[13:34:40] + /Users/gbdoc/Desktop/TFP sup films/Turner/lajos1 1.mp4
[13:34:40] + container: MPEG-4 (libavformat)
[13:34:40] + align initial A/V stream timestamps
[13:34:40] macgui: QueueCore with preset Very Fast 480p30
[13:34:40] * video track
[13:34:40] + decoder: h264
[13:34:40] + bitrate 647 kbps
[13:34:40] + filters
[13:34:40] + Comb Detect (mode=0:spatial-metric=2:motion-thresh=2:spatial-thresh=3:filter-mode=1:block-thresh=80:block-width=16:block-height=16)
[13:34:40] + Decomb (mode=39)
[13:34:40] + Framerate Shaper (mode=2:rate=27000000/900000)
[13:34:40] + frame rate: 25.000 fps -> peak rate limited to 30.000 fps
[13:34:40] + Crop and Scale (width=720:height=480:crop-top=0:crop-bottom=0:crop-left=0:crop-right=0)
[13:34:40] + source: 1280 * 720, crop (0/0/0/0): 1280 * 720, scale: 720 * 480
[13:34:40] + Output geometry
[13:34:40] + storage dimensions: 720 x 480
[13:34:40] + pixel aspect ratio: 32 : 27
[13:34:40] + display dimensions: 853 x 480
[13:34:40] + encoder: H.264 (libx264)
[13:34:40] + preset: veryfast
[13:34:40] + profile: main
[13:34:40] + level: 3.1
[13:34:40] + quality: 22.00 (RF)
[13:34:40] + color profile: 1-1-1
[13:34:40] * audio track 1
[13:34:40] + decoder: English (AAC LC) (2.0 ch) (track 1, id 0x1)
[13:34:40] + bitrate: 160 kbps, samplerate: 48000 Hz
[13:34:40] + mixdown: Stereo
[13:34:40] + dither: triangular
[13:34:40] + encoder: AAC (Apple AudioToolbox)
[13:34:40] + bitrate: 160 kbps, samplerate: 48000 Hz
[13:34:40] sync: expecting 33024 video frames
[13:34:40] encx264: encoding at constant RF 22.000000
[13:34:40] encx264: unparsed options: level=3.1:ref=1:8x8dct=0:weightp=1:subme=2:mixed-refs=0:trellis=0:vbv-bufsize=14000:vbv-maxrate=14000:rc-lookahead=10
x264 [info]: using SAR=32/27
x264 [info]: using cpu capabilities: MMX2 SSE2Fast SSSE3 SSE4.2 AVX FMA3 BMI2 AVX2
x264 [info]: profile Main, level 3.1, 4:2:0, 8-bit
[13:34:40] sync: first pts video is 0
[13:34:40] sync: "Chapter 1" (1) at frame 1 time 0
[13:34:40] sync: first pts audio 0x1 is 0
[13:38:53] reader: done. 1 scr changes
[13:38:53] work: average encoding speed for job is 130.226715 fps
[13:38:53] comb detect: heavy 1 | light 84 | uncombed 32939 | total 33024
[13:38:53] decomb: deinterlaced 1 | blended 84 | unfiltered 32939 | total 33024
[13:38:53] vfr: 33024 frames output, 0 dropped and 0 duped for CFR/PFR
[13:38:53] vfr: lost time: 0 (0 frames)
[13:38:53] vfr: gained time: 0 (0 frames) (0 not accounted for)
[13:38:54] aac-decoder done: 61920 frames, 0 decoder errors
[13:38:54] h264-decoder done: 33024 frames, 0 decoder errors
[13:38:54] sync: got 33024 frames, 33024 expected
[13:38:54] sync: framerate min 16.304 fps, max 25.000 fps, avg 25.000 fps
x264 [info]: frame I:133 Avg QP:18.94 size: 52942
x264 [info]: frame P:14486 Avg QP:21.12 size: 1785
x264 [info]: frame B:18405 Avg QP:22.38 size: 131
x264 [info]: consecutive B-frames: 0.9% 74.4% 0.2% 24.5%
x264 [info]: mb I I16..4: 9.3% 0.0% 90.7%
x264 [info]: mb P I16..4: 0.8% 0.0% 0.1% P16..4: 20.6% 4.1% 2.3% 0.0% 0.0% skip:72.1%
x264 [info]: mb B I16..4: 0.0% 0.0% 0.0% B16..8: 0.9% 0.3% 0.1% direct: 1.2% skip:97.5% L0:37.3% L1:39.4% BI:23.4%
x264 [info]: coded y,uvDC,uvAC intra: 51.5% 76.2% 43.2% inter: 2.7% 4.5% 0.0%
x264 [info]: i16 v,h,dc,p: 53% 18% 24% 5%
x264 [info]: i4 v,h,dc,ddl,ddr,vr,hd,vl,hu: 33% 22% 11% 6% 5% 7% 5% 7% 6%
x264 [info]: i8c dc,h,v,p: 43% 15% 34% 8%
x264 [info]: Weighted P-Frames: Y:7.1% UV:1.7%
x264 [info]: kb/s:213.85
[13:38:54] mux: track 0, 33024 frames, 35305253 bytes, 213.81 kbps, fifo 8192
[13:38:54] mux: track 1, 61923 frames, 29365192 bytes, 177.84 kbps, fifo 16384
[13:38:54] libhb: work result = 0
[13:38:54] macgui: QueueCore work done
[13:38:54] macgui: QueueCore scanning specifically for title: 1
[13:38:54] CPU: Intel(R) Core(TM) i7-4650U CPU @ 1.70GHz
[13:38:54] - Intel microarchitecture Haswell
[13:38:54] - logical processor count: 4
[13:38:54] hb_scan: path=/Users/gbdoc/Desktop/TFP sup films/Turner/Lajos2.m4v, title_index=1
udfread ERROR: ECMA 167 Volume Recognition failed
disc.c:323: failed opening UDF image /Users/gbdoc/Desktop/TFP sup films/Turner/Lajos2.m4v
disc.c:424: error opening file BDMV/index.bdmv
disc.c:424: error opening file BDMV/BACKUP/index.bdmv
[13:38:54] bd: not a bd - trying as a stream/file instead
libdvdnav: Using dvdnav version 6.0.0
libdvdread: Encrypted DVD support unavailable.
libdvdread:DVDOpenFileUDF:UDFFindFile /VIDEO_TS/VIDEO_TS.IFO failed
libdvdread:DVDOpenFileUDF:UDFFindFile /VIDEO_TS/VIDEO_TS.BUP failed
libdvdread: Can't open file VIDEO_TS.IFO.
libdvdnav: vm: failed to read VIDEO_TS.IFO
[13:38:54] dvd: not a dvd - trying as a stream/file instead
Input #0, mov,mp4,m4a,3gp,3g2,mj2, from '/Users/gbdoc/Desktop/TFP sup films/Turner/Lajos2.m4v':
Metadata:
major_brand : mp42
minor_version : 512
compatible_brands: isomiso2avc1mp41
creation_time : 2019-02-12T20:33:40.000000Z
encoder : HandBrake 1.0.7 2017040900
Duration: 00:22:00.96, start: 0.000000, bitrate: 816 kb/s
Stream #0:0(und): Video: h264 (Main) (avc1 / 0x31637661), yuv420p(tv, bt709), 1280x720 [SAR 1:1 DAR 16:9], 650 kb/s, 25 fps, 25 tbr, 90k tbn, 180k tbc (default)
Metadata:
creation_time : 2019-02-12T20:33:40.000000Z
handler_name : VideoHandler
Stream #0:1(eng): Audio: aac (LC) (mp4a / 0x6134706D), 48000 Hz, stereo, fltp, 160 kb/s (default)
Metadata:
creation_time : 2019-02-12T20:33:40.000000Z
handler_name : Stereo
[13:38:54] scan: decoding previews for title 1
[13:38:54] scan: audio 0x1: aac, rate=48000Hz, bitrate=160265 English (AAC LC) (2.0 ch)
[13:38:54] scan: 10 previews, 1280x720, 25.000 fps, autocrop = 0/0/0/0, aspect 16:9, PAR 1:1
[13:38:54] libhb: scan thread found 1 valid title(s)
[13:38:54] macgui: QueueCore scan done
[13:38:54] 1 job(s) to process
[13:38:54] starting job
[13:38:54] decomb filter thread started for segment 0
[13:38:54] decomb filter thread started for segment 2
[13:38:54] decomb filter thread started for segment 3
[13:38:54] decomb filter thread started for segment 1
[13:38:54] decomb check thread started for segment 0
[13:38:54] decomb check thread started for segment 1
[13:38:54] decomb check thread started for segment 2
[13:38:54] decomb check thread started for segment 3
[13:38:54] yadif thread started for segment 0
[13:38:54] yadif thread started for segment 1
[13:38:54] yadif thread started for segment 3
[13:38:54] yadif thread started for segment 2
[13:38:54] work: only 1 chapter, disabling chapter markers
[13:38:54] job configuration:
[13:38:54] * source
[13:38:54] + /Users/gbdoc/Desktop/TFP sup films/Turner/Lajos2.m4v
[13:38:54] + title 1, chapter(s) 1 to 1
[13:38:54] + container: mov,mp4,m4a,3gp,3g2,mj2
[13:38:54] + data rate: 816 kbps
[13:38:54] * destination
[13:38:54] + /Users/gbdoc/Desktop/TFP sup films/Turner/Lajos2 1.mp4
[13:38:54] + container: MPEG-4 (libavformat)
[13:38:54] + align initial A/V stream timestamps
[13:38:54] * video track
[13:38:54] + decoder: h264
[13:38:54] + bitrate 650 kbps
[13:38:54] + filters
[13:38:54] + Comb Detect (mode=0:spatial-metric=2:motion-thresh=2:spatial-thresh=3:filter-mode=1:block-thresh=80:block-width=16:block-height=16)
[13:38:54] + Decomb (mode=39)
[13:38:54] + Framerate Shaper (mode=2:rate=27000000/900000)
[13:38:54] + frame rate: 25.000 fps -> peak rate limited to 30.000 fps
[13:38:54] + Crop and Scale (width=720:height=480:crop-top=0:crop-bottom=0:crop-left=0:crop-right=0)
[13:38:54] + source: 1280 * 720, crop (0/0/0/0): 1280 * 720, scale: 720 * 480
[13:38:54] + Output geometry
[13:38:54] + storage dimensions: 720 x 480
[13:38:54] + pixel aspect ratio: 32 : 27
[13:38:54] + display dimensions: 853 x 480
[13:38:54] + encoder: H.264 (libx264)
[13:38:54] + preset: veryfast
[13:38:54] + profile: main
[13:38:54] + level: 3.1
[13:38:54] + quality: 22.00 (RF)
[13:38:54] + color profile: 1-1-1
[13:38:54] * audio track 1
[13:38:54] + decoder: English (AAC LC) (2.0 ch) (track 1, id 0x1)
[13:38:54] + bitrate: 160 kbps, samplerate: 48000 Hz
[13:38:54] + mixdown: Stereo
[13:38:54] + dither: triangular
[13:38:54] + encoder: AAC (Apple AudioToolbox)
[13:38:54] + bitrate: 160 kbps, samplerate: 48000 Hz
[13:38:54] macgui: QueueCore started encoding Lajos2 1.mp4
[13:38:54] macgui: QueueCore with preset Very Fast 480p30
[13:38:55] sync: expecting 33024 video frames
[13:38:55] encx264: encoding at constant RF 22.000000
[13:38:55] encx264: unparsed options: level=3.1:ref=1:8x8dct=0:weightp=1:subme=2:mixed-refs=0:trellis=0:vbv-bufsize=14000:vbv-maxrate=14000:rc-lookahead=10
x264 [info]: using SAR=32/27
x264 [info]: using cpu capabilities: MMX2 SSE2Fast SSSE3 SSE4.2 AVX FMA3 BMI2 AVX2
x264 [info]: profile Main, level 3.1, 4:2:0, 8-bit
[13:38:55] sync: first pts video is 0
[13:38:55] sync: "Chapter 1" (1) at frame 1 time 0
[13:38:55] sync: first pts audio 0x1 is 0
[13:43:08] reader: done. 1 scr changes
[13:43:08] work: average encoding speed for job is 130.271805 fps
[13:43:08] comb detect: heavy 2 | light 57 | uncombed 32965 | total 33024
[13:43:08] decomb: deinterlaced 2 | blended 57 | unfiltered 32965 | total 33024
[13:43:08] vfr: 33024 frames output, 0 dropped and 0 duped for CFR/PFR
[13:43:08] vfr: lost time: 0 (0 frames)
[13:43:08] vfr: gained time: 0 (0 frames) (0 not accounted for)
[13:43:08] aac-decoder done: 61920 frames, 0 decoder errors
[13:43:08] h264-decoder done: 33024 frames, 0 decoder errors
[13:43:08] sync: got 33024 frames, 33024 expected
[13:43:08] sync: framerate min 16.304 fps, max 25.000 fps, avg 25.000 fps
x264 [info]: frame I:133 Avg QP:18.89 size: 52903
x264 [info]: frame P:14399 Avg QP:21.10 size: 1775
x264 [info]: frame B:18492 Avg QP:22.19 size: 129
x264 [info]: consecutive B-frames: 0.8% 73.5% 0.2% 25.5%
x264 [info]: mb I I16..4: 9.6% 0.0% 90.4%
x264 [info]: mb P I16..4: 0.9% 0.0% 0.1% P16..4: 21.0% 4.1% 2.2% 0.0% 0.0% skip:71.7%
x264 [info]: mb B I16..4: 0.0% 0.0% 0.0% B16..8: 0.9% 0.3% 0.1% direct: 1.2% skip:97.5% L0:39.0% L1:38.4% BI:22.6%
x264 [info]: coded y,uvDC,uvAC intra: 50.0% 75.5% 42.5% inter: 2.7% 4.6% 0.0%
x264 [info]: i16 v,h,dc,p: 50% 19% 25% 6%
x264 [info]: i4 v,h,dc,ddl,ddr,vr,hd,vl,hu: 32% 22% 11% 6% 5% 7% 5% 7% 6%
x264 [info]: i8c dc,h,v,p: 43% 15% 34% 7%
x264 [info]: Weighted P-Frames: Y:7.9% UV:1.8%
x264 [info]: kb/s:211.86
[13:43:08] mux: track 0, 33024 frames, 34976698 bytes, 211.82 kbps, fifo 8192
[13:43:08] mux: track 1, 61923 frames, 29360183 bytes, 177.81 kbps, fifo 16384
[13:43:09] libhb: work result = 0
[13:43:09] macgui: QueueCore work done
[13:43:09] macgui: QueueCore scanning specifically for title: 1
[13:43:09] CPU: Intel(R) Core(TM) i7-4650U CPU @ 1.70GHz
[13:43:09] - Intel microarchitecture Haswell
[13:43:09] - logical processor count: 4
[13:43:09] hb_scan: path=/Users/gbdoc/Desktop/TFP sup films/Turner/Lajos3.m4v, title_index=1
udfread ERROR: ECMA 167 Volume Recognition failed
disc.c:323: failed opening UDF image /Users/gbdoc/Desktop/TFP sup films/Turner/Lajos3.m4v
disc.c:424: error opening file BDMV/index.bdmv
disc.c:424: error opening file BDMV/BACKUP/index.bdmv
[13:43:09] bd: not a bd - trying as a stream/file instead
libdvdnav: Using dvdnav version 6.0.0
libdvdread: Encrypted DVD support unavailable.
libdvdread:DVDOpenFileUDF:UDFFindFile /VIDEO_TS/VIDEO_TS.IFO failed
libdvdread:DVDOpenFileUDF:UDFFindFile /VIDEO_TS/VIDEO_TS.BUP failed
libdvdread: Can't open file VIDEO_TS.IFO.
libdvdnav: vm: failed to read VIDEO_TS.IFO
[13:43:09] dvd: not a dvd - trying as a stream/file instead
Input #0, mov,mp4,m4a,3gp,3g2,mj2, from '/Users/gbdoc/Desktop/TFP sup films/Turner/Lajos3.m4v':
Metadata:
major_brand : mp42
minor_version : 512
compatible_brands: isomiso2avc1mp41
creation_time : 2019-02-12T20:45:31.000000Z
encoder : HandBrake 1.0.7 2017040900
Duration: 00:07:58.61, start: 0.000000, bitrate: 888 kb/s
Stream #0:0(und): Video: h264 (Main) (avc1 / 0x31637661), yuv420p(tv, bt709), 1280x720 [SAR 1:1 DAR 16:9], 722 kb/s, 25 fps, 25 tbr, 90k tbn, 180k tbc (default)
Metadata:
creation_time : 2019-02-12T20:45:31.000000Z
handler_name : VideoHandler
Stream #0:1(eng): Audio: aac (LC) (mp4a / 0x6134706D), 48000 Hz, stereo, fltp, 160 kb/s (default)
Metadata:
creation_time : 2019-02-12T20:45:31.000000Z
handler_name : Stereo
[13:43:09] scan: decoding previews for title 1
[13:43:09] scan: audio 0x1: aac, rate=48000Hz, bitrate=160267 English (AAC LC) (2.0 ch)
[13:43:09] scan: 10 previews, 1280x720, 25.000 fps, autocrop = 0/0/0/0, aspect 16:9, PAR 1:1
[13:43:09] libhb: scan thread found 1 valid title(s)
[13:43:09] macgui: QueueCore scan done
[13:43:09] 1 job(s) to process
[13:43:09] starting job
[13:43:09] macgui: QueueCore started encoding Lajos3 1.mp4
[13:43:09] macgui: QueueCore with preset Very Fast 480p30
[13:43:09] decomb filter thread started for segment 0
[13:43:09] decomb filter thread started for segment 1
[13:43:09] decomb filter thread started for segment 2
[13:43:09] decomb filter thread started for segment 3
[13:43:09] decomb check thread started for segment 0
[13:43:09] decomb check thread started for segment 1
[13:43:09] decomb check thread started for segment 2
[13:43:09] decomb check thread started for segment 3
[13:43:09] yadif thread started for segment 1
[13:43:09] yadif thread started for segment 0
[13:43:09] yadif thread started for segment 2
[13:43:09] yadif thread started for segment 3
[13:43:09] work: only 1 chapter, disabling chapter markers
[13:43:09] job configuration:
[13:43:09] * source
[13:43:09] + /Users/gbdoc/Desktop/TFP sup films/Turner/Lajos3.m4v
[13:43:09] + title 1, chapter(s) 1 to 1
[13:43:09] + container: mov,mp4,m4a,3gp,3g2,mj2
[13:43:09] + data rate: 888 kbps
[13:43:09] * destination
[13:43:09] + /Users/gbdoc/Desktop/TFP sup films/Turner/Lajos3 1.mp4
[13:43:09] + container: MPEG-4 (libavformat)
[13:43:09] + align initial A/V stream timestamps
[13:43:09] * video track
[13:43:09] + decoder: h264
[13:43:09] + bitrate 722 kbps
[13:43:09] + filters
[13:43:09] + Comb Detect (mode=0:spatial-metric=2:motion-thresh=2:spatial-thresh=3:filter-mode=1:block-thresh=80:block-width=16:block-height=16)
[13:43:09] + Decomb (mode=39)
[13:43:09] + Framerate Shaper (mode=2:rate=27000000/900000)
[13:43:09] + frame rate: 25.000 fps -> peak rate limited to 30.000 fps
[13:43:09] + Crop and Scale (width=720:height=480:crop-top=0:crop-bottom=0:crop-left=0:crop-right=0)
[13:43:09] + source: 1280 * 720, crop (0/0/0/0): 1280 * 720, scale: 720 * 480
[13:43:09] + Output geometry
[13:43:09] + storage dimensions: 720 x 480
[13:43:09] + pixel aspect ratio: 32 : 27
[13:43:09] + display dimensions: 853 x 480
[13:43:09] + encoder: H.264 (libx264)
[13:43:09] + preset: veryfast
[13:43:09] + profile: main
[13:43:09] + level: 3.1
[13:43:09] + quality: 22.00 (RF)
[13:43:09] + color profile: 1-1-1
[13:43:09] * audio track 1
[13:43:09] + decoder: English (AAC LC) (2.0 ch) (track 1, id 0x1)
[13:43:09] + bitrate: 160 kbps, samplerate: 48000 Hz
[13:43:09] + mixdown: Stereo
[13:43:09] + dither: triangular
[13:43:09] + encoder: AAC (Apple AudioToolbox)
[13:43:09] + bitrate: 160 kbps, samplerate: 48000 Hz
[13:43:09] sync: expecting 11965 video frames
[13:43:09] encx264: encoding at constant RF 22.000000
[13:43:09] encx264: unparsed options: level=3.1:ref=1:8x8dct=0:weightp=1:subme=2:mixed-refs=0:trellis=0:vbv-bufsize=14000:vbv-maxrate=14000:rc-lookahead=10
x264 [info]: using SAR=32/27
x264 [info]: using cpu capabilities: MMX2 SSE2Fast SSSE3 SSE4.2 AVX FMA3 BMI2 AVX2
x264 [info]: profile Main, level 3.1, 4:2:0, 8-bit
[13:43:09] sync: first pts video is 0
[13:43:09] sync: "Chapter 1" (1) at frame 1 time 0
[13:43:09] sync: first pts audio 0x1 is 0
[13:44:43] reader: done. 1 scr changes
[13:44:43] work: average encoding speed for job is 127.339378 fps
[13:44:44] comb detect: heavy 1 | light 43 | uncombed 11920 | total 11964
[13:44:44] decomb: deinterlaced 1 | blended 43 | unfiltered 11920 | total 11964
[13:44:44] vfr: 11964 frames output, 0 dropped and 0 duped for CFR/PFR
[13:44:44] vfr: lost time: 0 (0 frames)
[13:44:44] vfr: gained time: 0 (0 frames) (0 not accounted for)
[13:44:44] aac-decoder done: 22435 frames, 0 decoder errors
[13:44:44] h264-decoder done: 11964 frames, 0 decoder errors
[13:44:44] sync: got 11964 frames, 11965 expected
[13:44:44] sync: framerate min 16.304 fps, max 25.000 fps, avg 24.999 fps
x264 [info]: frame I:48 Avg QP:19.05 size: 52900
x264 [info]: frame P:4999 Avg QP:21.42 size: 2136
x264 [info]: frame B:6917 Avg QP:21.99 size: 153
x264 [info]: consecutive B-frames: 0.8% 66.3% 0.3% 32.6%
x264 [info]: mb I I16..4: 10.3% 0.0% 89.7%
x264 [info]: mb P I16..4: 1.4% 0.0% 0.2% P16..4: 25.3% 5.0% 2.4% 0.0% 0.0% skip:65.5%
x264 [info]: mb B I16..4: 0.1% 0.0% 0.0% B16..8: 1.5% 0.4% 0.1% direct: 1.2% skip:96.8% L0:46.1% L1:37.6% BI:16.2%
x264 [info]: coded y,uvDC,uvAC intra: 42.6% 70.3% 34.6% inter: 3.4% 4.6% 0.1%
x264 [info]: i16 v,h,dc,p: 48% 20% 26% 6%
x264 [info]: i4 v,h,dc,ddl,ddr,vr,hd,vl,hu: 32% 21% 12% 5% 5% 7% 5% 7% 5%
x264 [info]: i8c dc,h,v,p: 45% 15% 34% 6%
x264 [info]: Weighted P-Frames: Y:17.7% UV:3.6%
x264 [info]: kb/s:238.61
[13:44:44] mux: track 0, 11964 frames, 14272189 bytes, 238.53 kbps, fifo 8192
[13:44:44] mux: track 1, 22438 frames, 10677258 bytes, 178.45 kbps, fifo 16384
[13:44:44] libhb: work result = 0
[13:44:44] macgui: QueueCore work done
[13:44:44] macgui: Queue Done, there are no more pending encodes
[13:44:44] macgui: QueueCore stopped preventing sleep
]
Please replace this text with the contents of your log file between the two code tags - OR - provide a pastebin URL in place of these 3 lines.
[/[13:31:21] macgui: Handbrake Version: 1.2.0 (2018122200)
[13:31:21] hb_init: starting libhb thread
[13:31:21] hb_init: starting libhb thread
[13:31:49] macgui: trying to open a folder or file
[13:31:49] macgui: ScanCore scanning titles with a duration of 10 seconds or more
[13:31:49] CPU: Intel(R) Core(TM) i7-4650U CPU @ 1.70GHz
[13:31:49] - Intel microarchitecture Haswell
[13:31:49] - logical processor count: 4
[13:31:49] hb_scan: path=/Users/gbdoc/Desktop/TFP sup films/Turner/lajos1.mp4, title_index=0
udfread ERROR: ECMA 167 Volume Recognition failed
disc.c:323: failed opening UDF image /Users/gbdoc/Desktop/TFP sup films/Turner/lajos1.mp4
disc.c:424: error opening file BDMV/index.bdmv
disc.c:424: error opening file BDMV/BACKUP/index.bdmv
[13:31:49] bd: not a bd - trying as a stream/file instead
libdvdnav: Using dvdnav version 6.0.0
libdvdread: Encrypted DVD support unavailable.
libdvdread:DVDOpenFileUDF:UDFFindFile /VIDEO_TS/VIDEO_TS.IFO failed
libdvdread:DVDOpenFileUDF:UDFFindFile /VIDEO_TS/VIDEO_TS.BUP failed
libdvdread: Can't open file VIDEO_TS.IFO.
libdvdnav: vm: failed to read VIDEO_TS.IFO
[13:31:49] dvd: not a dvd - trying as a stream/file instead
Input #0, mov,mp4,m4a,3gp,3g2,mj2, from '/Users/gbdoc/Desktop/TFP sup films/Turner/lajos1.mp4':
Metadata:
major_brand : mp42
minor_version : 512
compatible_brands: isomiso2avc1mp41
creation_time : 2019-02-12T20:22:35.000000Z
encoder : HandBrake 1.0.7 2017040900
Duration: 00:22:00.96, start: 0.000000, bitrate: 813 kb/s
Stream #0:0(und): Video: h264 (Main) (avc1 / 0x31637661), yuv420p(tv, bt709), 1280x720 [SAR 1:1 DAR 16:9], 647 kb/s, 25 fps, 25 tbr, 90k tbn, 180k tbc (default)
Metadata:
creation_time : 2019-02-12T20:22:35.000000Z
handler_name : VideoHandler
Stream #0:1(eng): Audio: aac (LC) (mp4a / 0x6134706D), 48000 Hz, stereo, fltp, 160 kb/s (default)
Metadata:
creation_time : 2019-02-12T20:22:35.000000Z
handler_name : Stereo
[13:31:49] scan: decoding previews for title 1
[13:31:50] scan: audio 0x1: aac, rate=48000Hz, bitrate=160294 English (AAC LC) (2.0 ch)
[13:31:50] scan: 10 previews, 1280x720, 25.000 fps, autocrop = 0/0/0/0, aspect 16:9, PAR 1:1
[13:31:50] libhb: scan thread found 1 valid title(s)
[13:31:50] macgui: ScanCore scan done
[13:33:56] macgui: trying to open a folder or file
[13:33:56] macgui: ScanCore scanning titles with a duration of 10 seconds or more
[13:33:56] CPU: Intel(R) Core(TM) i7-4650U CPU @ 1.70GHz
[13:33:56] - Intel microarchitecture Haswell
[13:33:56] - logical processor count: 4
[13:33:56] hb_scan: path=/Users/gbdoc/Desktop/TFP sup films/Turner/Lajos2.m4v, title_index=0
udfread ERROR: ECMA 167 Volume Recognition failed
disc.c:323: failed opening UDF image /Users/gbdoc/Desktop/TFP sup films/Turner/Lajos2.m4v
disc.c:424: error opening file BDMV/index.bdmv
disc.c:424: error opening file BDMV/BACKUP/index.bdmv
[13:33:56] bd: not a bd - trying as a stream/file instead
libdvdnav: Using dvdnav version 6.0.0
libdvdread: Encrypted DVD support unavailable.
libdvdread:DVDOpenFileUDF:UDFFindFile /VIDEO_TS/VIDEO_TS.IFO failed
libdvdread:DVDOpenFileUDF:UDFFindFile /VIDEO_TS/VIDEO_TS.BUP failed
libdvdread: Can't open file VIDEO_TS.IFO.
libdvdnav: vm: failed to read VIDEO_TS.IFO
[13:33:56] dvd: not a dvd - trying as a stream/file instead
Input #0, mov,mp4,m4a,3gp,3g2,mj2, from '/Users/gbdoc/Desktop/TFP sup films/Turner/Lajos2.m4v':
Metadata:
major_brand : mp42
minor_version : 512
compatible_brands: isomiso2avc1mp41
creation_time : 2019-02-12T20:33:40.000000Z
encoder : HandBrake 1.0.7 2017040900
Duration: 00:22:00.96, start: 0.000000, bitrate: 816 kb/s
Stream #0:0(und): Video: h264 (Main) (avc1 / 0x31637661), yuv420p(tv, bt709), 1280x720 [SAR 1:1 DAR 16:9], 650 kb/s, 25 fps, 25 tbr, 90k tbn, 180k tbc (default)
Metadata:
creation_time : 2019-02-12T20:33:40.000000Z
handler_name : VideoHandler
Stream #0:1(eng): Audio: aac (LC) (mp4a / 0x6134706D), 48000 Hz, stereo, fltp, 160 kb/s (default)
Metadata:
creation_time : 2019-02-12T20:33:40.000000Z
handler_name : Stereo
[13:33:56] scan: decoding previews for title 1
[13:33:56] scan: audio 0x1: aac, rate=48000Hz, bitrate=160265 English (AAC LC) (2.0 ch)
[13:33:56] scan: 10 previews, 1280x720, 25.000 fps, autocrop = 0/0/0/0, aspect 16:9, PAR 1:1
[13:33:56] libhb: scan thread found 1 valid title(s)
[13:33:57] macgui: ScanCore scan done
[13:34:23] macgui: trying to open a folder or file
[13:34:23] macgui: ScanCore scanning titles with a duration of 10 seconds or more
[13:34:23] CPU: Intel(R) Core(TM) i7-4650U CPU @ 1.70GHz
[13:34:23] - Intel microarchitecture Haswell
[13:34:23] - logical processor count: 4
[13:34:23] hb_scan: path=/Users/gbdoc/Desktop/TFP sup films/Turner/Lajos3.m4v, title_index=0
udfread ERROR: ECMA 167 Volume Recognition failed
disc.c:323: failed opening UDF image /Users/gbdoc/Desktop/TFP sup films/Turner/Lajos3.m4v
disc.c:424: error opening file BDMV/index.bdmv
disc.c:424: error opening file BDMV/BACKUP/index.bdmv
[13:34:23] bd: not a bd - trying as a stream/file instead
libdvdnav: Using dvdnav version 6.0.0
libdvdread: Encrypted DVD support unavailable.
libdvdread:DVDOpenFileUDF:UDFFindFile /VIDEO_TS/VIDEO_TS.IFO failed
libdvdread:DVDOpenFileUDF:UDFFindFile /VIDEO_TS/VIDEO_TS.BUP failed
libdvdread: Can't open file VIDEO_TS.IFO.
libdvdnav: vm: failed to read VIDEO_TS.IFO
[13:34:23] dvd: not a dvd - trying as a stream/file instead
Input #0, mov,mp4,m4a,3gp,3g2,mj2, from '/Users/gbdoc/Desktop/TFP sup films/Turner/Lajos3.m4v':
Metadata:
major_brand : mp42
minor_version : 512
compatible_brands: isomiso2avc1mp41
creation_time : 2019-02-12T20:45:31.000000Z
encoder : HandBrake 1.0.7 2017040900
Duration: 00:07:58.61, start: 0.000000, bitrate: 888 kb/s
Stream #0:0(und): Video: h264 (Main) (avc1 / 0x31637661), yuv420p(tv, bt709), 1280x720 [SAR 1:1 DAR 16:9], 722 kb/s, 25 fps, 25 tbr, 90k tbn, 180k tbc (default)
Metadata:
creation_time : 2019-02-12T20:45:31.000000Z
handler_name : VideoHandler
Stream #0:1(eng): Audio: aac (LC) (mp4a / 0x6134706D), 48000 Hz, stereo, fltp, 160 kb/s (default)
Metadata:
creation_time : 2019-02-12T20:45:31.000000Z
handler_name : Stereo
[13:34:23] scan: decoding previews for title 1
[13:34:23] scan: audio 0x1: aac, rate=48000Hz, bitrate=160267 English (AAC LC) (2.0 ch)
[13:34:23] scan: 10 previews, 1280x720, 25.000 fps, autocrop = 0/0/0/0, aspect 16:9, PAR 1:1
[13:34:23] libhb: scan thread found 1 valid title(s)
[13:34:24] macgui: ScanCore scan done
[13:34:39] macgui: QueueCore prevented sleep
[13:34:39] macgui: QueueCore scanning specifically for title: 1
[13:34:39] CPU: Intel(R) Core(TM) i7-4650U CPU @ 1.70GHz
[13:34:39] - Intel microarchitecture Haswell
[13:34:39] - logical processor count: 4
[13:34:39] hb_scan: path=/Users/gbdoc/Desktop/TFP sup films/Turner/lajos1.mp4, title_index=1
udfread ERROR: ECMA 167 Volume Recognition failed
disc.c:323: failed opening UDF image /Users/gbdoc/Desktop/TFP sup films/Turner/lajos1.mp4
disc.c:424: error opening file BDMV/index.bdmv
disc.c:424: error opening file BDMV/BACKUP/index.bdmv
[13:34:39] bd: not a bd - trying as a stream/file instead
libdvdnav: Using dvdnav version 6.0.0
libdvdread: Encrypted DVD support unavailable.
libdvdread:DVDOpenFileUDF:UDFFindFile /VIDEO_TS/VIDEO_TS.IFO failed
libdvdread:DVDOpenFileUDF:UDFFindFile /VIDEO_TS/VIDEO_TS.BUP failed
libdvdread: Can't open file VIDEO_TS.IFO.
libdvdnav: vm: failed to read VIDEO_TS.IFO
[13:34:39] dvd: not a dvd - trying as a stream/file instead
Input #0, mov,mp4,m4a,3gp,3g2,mj2, from '/Users/gbdoc/Desktop/TFP sup films/Turner/lajos1.mp4':
Metadata:
major_brand : mp42
minor_version : 512
compatible_brands: isomiso2avc1mp41
creation_time : 2019-02-12T20:22:35.000000Z
encoder : HandBrake 1.0.7 2017040900
Duration: 00:22:00.96, start: 0.000000, bitrate: 813 kb/s
Stream #0:0(und): Video: h264 (Main) (avc1 / 0x31637661), yuv420p(tv, bt709), 1280x720 [SAR 1:1 DAR 16:9], 647 kb/s, 25 fps, 25 tbr, 90k tbn, 180k tbc (default)
Metadata:
creation_time : 2019-02-12T20:22:35.000000Z
handler_name : VideoHandler
Stream #0:1(eng): Audio: aac (LC) (mp4a / 0x6134706D), 48000 Hz, stereo, fltp, 160 kb/s (default)
Metadata:
creation_time : 2019-02-12T20:22:35.000000Z
handler_name : Stereo
[13:34:39] scan: decoding previews for title 1
[13:34:39] scan: audio 0x1: aac, rate=48000Hz, bitrate=160294 English (AAC LC) (2.0 ch)
[13:34:39] scan: 10 previews, 1280x720, 25.000 fps, autocrop = 0/0/0/0, aspect 16:9, PAR 1:1
[13:34:39] libhb: scan thread found 1 valid title(s)
[13:34:40] macgui: QueueCore scan done
[13:34:40] 1 job(s) to process
[13:34:40] starting job
[13:34:40] decomb filter thread started for segment 0
[13:34:40] decomb filter thread started for segment 1
[13:34:40] decomb filter thread started for segment 2
[13:34:40] decomb filter thread started for segment 3
[13:34:40] decomb check thread started for segment 0
[13:34:40] decomb check thread started for segment 1
[13:34:40] decomb check thread started for segment 2
[13:34:40] decomb check thread started for segment 3
[13:34:40] yadif thread started for segment 0
[13:34:40] yadif thread started for segment 1
[13:34:40] yadif thread started for segment 2
[13:34:40] yadif thread started for segment 3
[13:34:40] work: only 1 chapter, disabling chapter markers
[13:34:40] job configuration:
[13:34:40] * source
[13:34:40] + /Users/gbdoc/Desktop/TFP sup films/Turner/lajos1.mp4
[13:34:40] + title 1, chapter(s) 1 to 1
[13:34:40] + container: mov,mp4,m4a,3gp,3g2,mj2
[13:34:40] + data rate: 813 kbps
[13:34:40] macgui: QueueCore started encoding lajos1 1.mp4
[13:34:40] * destination
[13:34:40] + /Users/gbdoc/Desktop/TFP sup films/Turner/lajos1 1.mp4
[13:34:40] + container: MPEG-4 (libavformat)
[13:34:40] + align initial A/V stream timestamps
[13:34:40] macgui: QueueCore with preset Very Fast 480p30
[13:34:40] * video track
[13:34:40] + decoder: h264
[13:34:40] + bitrate 647 kbps
[13:34:40] + filters
[13:34:40] + Comb Detect (mode=0:spatial-metric=2:motion-thresh=2:spatial-thresh=3:filter-mode=1:block-thresh=80:block-width=16:block-height=16)
[13:34:40] + Decomb (mode=39)
[13:34:40] + Framerate Shaper (mode=2:rate=27000000/900000)
[13:34:40] + frame rate: 25.000 fps -> peak rate limited to 30.000 fps
[13:34:40] + Crop and Scale (width=720:height=480:crop-top=0:crop-bottom=0:crop-left=0:crop-right=0)
[13:34:40] + source: 1280 * 720, crop (0/0/0/0): 1280 * 720, scale: 720 * 480
[13:34:40] + Output geometry
[13:34:40] + storage dimensions: 720 x 480
[13:34:40] + pixel aspect ratio: 32 : 27
[13:34:40] + display dimensions: 853 x 480
[13:34:40] + encoder: H.264 (libx264)
[13:34:40] + preset: veryfast
[13:34:40] + profile: main
[13:34:40] + level: 3.1
[13:34:40] + quality: 22.00 (RF)
[13:34:40] + color profile: 1-1-1
[13:34:40] * audio track 1
[13:34:40] + decoder: English (AAC LC) (2.0 ch) (track 1, id 0x1)
[13:34:40] + bitrate: 160 kbps, samplerate: 48000 Hz
[13:34:40] + mixdown: Stereo
[13:34:40] + dither: triangular
[13:34:40] + encoder: AAC (Apple AudioToolbox)
[13:34:40] + bitrate: 160 kbps, samplerate: 48000 Hz
[13:34:40] sync: expecting 33024 video frames
[13:34:40] encx264: encoding at constant RF 22.000000
[13:34:40] encx264: unparsed options: level=3.1:ref=1:8x8dct=0:weightp=1:subme=2:mixed-refs=0:trellis=0:vbv-bufsize=14000:vbv-maxrate=14000:rc-lookahead=10
x264 [info]: using SAR=32/27
x264 [info]: using cpu capabilities: MMX2 SSE2Fast SSSE3 SSE4.2 AVX FMA3 BMI2 AVX2
x264 [info]: profile Main, level 3.1, 4:2:0, 8-bit
[13:34:40] sync: first pts video is 0
[13:34:40] sync: "Chapter 1" (1) at frame 1 time 0
[13:34:40] sync: first pts audio 0x1 is 0
[13:38:53] reader: done. 1 scr changes
[13:38:53] work: average encoding speed for job is 130.226715 fps
[13:38:53] comb detect: heavy 1 | light 84 | uncombed 32939 | total 33024
[13:38:53] decomb: deinterlaced 1 | blended 84 | unfiltered 32939 | total 33024
[13:38:53] vfr: 33024 frames output, 0 dropped and 0 duped for CFR/PFR
[13:38:53] vfr: lost time: 0 (0 frames)
[13:38:53] vfr: gained time: 0 (0 frames) (0 not accounted for)
[13:38:54] aac-decoder done: 61920 frames, 0 decoder errors
[13:38:54] h264-decoder done: 33024 frames, 0 decoder errors
[13:38:54] sync: got 33024 frames, 33024 expected
[13:38:54] sync: framerate min 16.304 fps, max 25.000 fps, avg 25.000 fps
x264 [info]: frame I:133 Avg QP:18.94 size: 52942
x264 [info]: frame P:14486 Avg QP:21.12 size: 1785
x264 [info]: frame B:18405 Avg QP:22.38 size: 131
x264 [info]: consecutive B-frames: 0.9% 74.4% 0.2% 24.5%
x264 [info]: mb I I16..4: 9.3% 0.0% 90.7%
x264 [info]: mb P I16..4: 0.8% 0.0% 0.1% P16..4: 20.6% 4.1% 2.3% 0.0% 0.0% skip:72.1%
x264 [info]: mb B I16..4: 0.0% 0.0% 0.0% B16..8: 0.9% 0.3% 0.1% direct: 1.2% skip:97.5% L0:37.3% L1:39.4% BI:23.4%
x264 [info]: coded y,uvDC,uvAC intra: 51.5% 76.2% 43.2% inter: 2.7% 4.5% 0.0%
x264 [info]: i16 v,h,dc,p: 53% 18% 24% 5%
x264 [info]: i4 v,h,dc,ddl,ddr,vr,hd,vl,hu: 33% 22% 11% 6% 5% 7% 5% 7% 6%
x264 [info]: i8c dc,h,v,p: 43% 15% 34% 8%
x264 [info]: Weighted P-Frames: Y:7.1% UV:1.7%
x264 [info]: kb/s:213.85
[13:38:54] mux: track 0, 33024 frames, 35305253 bytes, 213.81 kbps, fifo 8192
[13:38:54] mux: track 1, 61923 frames, 29365192 bytes, 177.84 kbps, fifo 16384
[13:38:54] libhb: work result = 0
[13:38:54] macgui: QueueCore work done
[13:38:54] macgui: QueueCore scanning specifically for title: 1
[13:38:54] CPU: Intel(R) Core(TM) i7-4650U CPU @ 1.70GHz
[13:38:54] - Intel microarchitecture Haswell
[13:38:54] - logical processor count: 4
[13:38:54] hb_scan: path=/Users/gbdoc/Desktop/TFP sup films/Turner/Lajos2.m4v, title_index=1
udfread ERROR: ECMA 167 Volume Recognition failed
disc.c:323: failed opening UDF image /Users/gbdoc/Desktop/TFP sup films/Turner/Lajos2.m4v
disc.c:424: error opening file BDMV/index.bdmv
disc.c:424: error opening file BDMV/BACKUP/index.bdmv
[13:38:54] bd: not a bd - trying as a stream/file instead
libdvdnav: Using dvdnav version 6.0.0
libdvdread: Encrypted DVD support unavailable.
libdvdread:DVDOpenFileUDF:UDFFindFile /VIDEO_TS/VIDEO_TS.IFO failed
libdvdread:DVDOpenFileUDF:UDFFindFile /VIDEO_TS/VIDEO_TS.BUP failed
libdvdread: Can't open file VIDEO_TS.IFO.
libdvdnav: vm: failed to read VIDEO_TS.IFO
[13:38:54] dvd: not a dvd - trying as a stream/file instead
Input #0, mov,mp4,m4a,3gp,3g2,mj2, from '/Users/gbdoc/Desktop/TFP sup films/Turner/Lajos2.m4v':
Metadata:
major_brand : mp42
minor_version : 512
compatible_brands: isomiso2avc1mp41
creation_time : 2019-02-12T20:33:40.000000Z
encoder : HandBrake 1.0.7 2017040900
Duration: 00:22:00.96, start: 0.000000, bitrate: 816 kb/s
Stream #0:0(und): Video: h264 (Main) (avc1 / 0x31637661), yuv420p(tv, bt709), 1280x720 [SAR 1:1 DAR 16:9], 650 kb/s, 25 fps, 25 tbr, 90k tbn, 180k tbc (default)
Metadata:
creation_time : 2019-02-12T20:33:40.000000Z
handler_name : VideoHandler
Stream #0:1(eng): Audio: aac (LC) (mp4a / 0x6134706D), 48000 Hz, stereo, fltp, 160 kb/s (default)
Metadata:
creation_time : 2019-02-12T20:33:40.000000Z
handler_name : Stereo
[13:38:54] scan: decoding previews for title 1
[13:38:54] scan: audio 0x1: aac, rate=48000Hz, bitrate=160265 English (AAC LC) (2.0 ch)
[13:38:54] scan: 10 previews, 1280x720, 25.000 fps, autocrop = 0/0/0/0, aspect 16:9, PAR 1:1
[13:38:54] libhb: scan thread found 1 valid title(s)
[13:38:54] macgui: QueueCore scan done
[13:38:54] 1 job(s) to process
[13:38:54] starting job
[13:38:54] decomb filter thread started for segment 0
[13:38:54] decomb filter thread started for segment 2
[13:38:54] decomb filter thread started for segment 3
[13:38:54] decomb filter thread started for segment 1
[13:38:54] decomb check thread started for segment 0
[13:38:54] decomb check thread started for segment 1
[13:38:54] decomb check thread started for segment 2
[13:38:54] decomb check thread started for segment 3
[13:38:54] yadif thread started for segment 0
[13:38:54] yadif thread started for segment 1
[13:38:54] yadif thread started for segment 3
[13:38:54] yadif thread started for segment 2
[13:38:54] work: only 1 chapter, disabling chapter markers
[13:38:54] job configuration:
[13:38:54] * source
[13:38:54] + /Users/gbdoc/Desktop/TFP sup films/Turner/Lajos2.m4v
[13:38:54] + title 1, chapter(s) 1 to 1
[13:38:54] + container: mov,mp4,m4a,3gp,3g2,mj2
[13:38:54] + data rate: 816 kbps
[13:38:54] * destination
[13:38:54] + /Users/gbdoc/Desktop/TFP sup films/Turner/Lajos2 1.mp4
[13:38:54] + container: MPEG-4 (libavformat)
[13:38:54] + align initial A/V stream timestamps
[13:38:54] * video track
[13:38:54] + decoder: h264
[13:38:54] + bitrate 650 kbps
[13:38:54] + filters
[13:38:54] + Comb Detect (mode=0:spatial-metric=2:motion-thresh=2:spatial-thresh=3:filter-mode=1:block-thresh=80:block-width=16:block-height=16)
[13:38:54] + Decomb (mode=39)
[13:38:54] + Framerate Shaper (mode=2:rate=27000000/900000)
[13:38:54] + frame rate: 25.000 fps -> peak rate limited to 30.000 fps
[13:38:54] + Crop and Scale (width=720:height=480:crop-top=0:crop-bottom=0:crop-left=0:crop-right=0)
[13:38:54] + source: 1280 * 720, crop (0/0/0/0): 1280 * 720, scale: 720 * 480
[13:38:54] + Output geometry
[13:38:54] + storage dimensions: 720 x 480
[13:38:54] + pixel aspect ratio: 32 : 27
[13:38:54] + display dimensions: 853 x 480
[13:38:54] + encoder: H.264 (libx264)
[13:38:54] + preset: veryfast
[13:38:54] + profile: main
[13:38:54] + level: 3.1
[13:38:54] + quality: 22.00 (RF)
[13:38:54] + color profile: 1-1-1
[13:38:54] * audio track 1
[13:38:54] + decoder: English (AAC LC) (2.0 ch) (track 1, id 0x1)
[13:38:54] + bitrate: 160 kbps, samplerate: 48000 Hz
[13:38:54] + mixdown: Stereo
[13:38:54] + dither: triangular
[13:38:54] + encoder: AAC (Apple AudioToolbox)
[13:38:54] + bitrate: 160 kbps, samplerate: 48000 Hz
[13:38:54] macgui: QueueCore started encoding Lajos2 1.mp4
[13:38:54] macgui: QueueCore with preset Very Fast 480p30
[13:38:55] sync: expecting 33024 video frames
[13:38:55] encx264: encoding at constant RF 22.000000
[13:38:55] encx264: unparsed options: level=3.1:ref=1:8x8dct=0:weightp=1:subme=2:mixed-refs=0:trellis=0:vbv-bufsize=14000:vbv-maxrate=14000:rc-lookahead=10
x264 [info]: using SAR=32/27
x264 [info]: using cpu capabilities: MMX2 SSE2Fast SSSE3 SSE4.2 AVX FMA3 BMI2 AVX2
x264 [info]: profile Main, level 3.1, 4:2:0, 8-bit
[13:38:55] sync: first pts video is 0
[13:38:55] sync: "Chapter 1" (1) at frame 1 time 0
[13:38:55] sync: first pts audio 0x1 is 0
[13:43:08] reader: done. 1 scr changes
[13:43:08] work: average encoding speed for job is 130.271805 fps
[13:43:08] comb detect: heavy 2 | light 57 | uncombed 32965 | total 33024
[13:43:08] decomb: deinterlaced 2 | blended 57 | unfiltered 32965 | total 33024
[13:43:08] vfr: 33024 frames output, 0 dropped and 0 duped for CFR/PFR
[13:43:08] vfr: lost time: 0 (0 frames)
[13:43:08] vfr: gained time: 0 (0 frames) (0 not accounted for)
[13:43:08] aac-decoder done: 61920 frames, 0 decoder errors
[13:43:08] h264-decoder done: 33024 frames, 0 decoder errors
[13:43:08] sync: got 33024 frames, 33024 expected
[13:43:08] sync: framerate min 16.304 fps, max 25.000 fps, avg 25.000 fps
x264 [info]: frame I:133 Avg QP:18.89 size: 52903
x264 [info]: frame P:14399 Avg QP:21.10 size: 1775
x264 [info]: frame B:18492 Avg QP:22.19 size: 129
x264 [info]: consecutive B-frames: 0.8% 73.5% 0.2% 25.5%
x264 [info]: mb I I16..4: 9.6% 0.0% 90.4%
x264 [info]: mb P I16..4: 0.9% 0.0% 0.1% P16..4: 21.0% 4.1% 2.2% 0.0% 0.0% skip:71.7%
x264 [info]: mb B I16..4: 0.0% 0.0% 0.0% B16..8: 0.9% 0.3% 0.1% direct: 1.2% skip:97.5% L0:39.0% L1:38.4% BI:22.6%
x264 [info]: coded y,uvDC,uvAC intra: 50.0% 75.5% 42.5% inter: 2.7% 4.6% 0.0%
x264 [info]: i16 v,h,dc,p: 50% 19% 25% 6%
x264 [info]: i4 v,h,dc,ddl,ddr,vr,hd,vl,hu: 32% 22% 11% 6% 5% 7% 5% 7% 6%
x264 [info]: i8c dc,h,v,p: 43% 15% 34% 7%
x264 [info]: Weighted P-Frames: Y:7.9% UV:1.8%
x264 [info]: kb/s:211.86
[13:43:08] mux: track 0, 33024 frames, 34976698 bytes, 211.82 kbps, fifo 8192
[13:43:08] mux: track 1, 61923 frames, 29360183 bytes, 177.81 kbps, fifo 16384
[13:43:09] libhb: work result = 0
[13:43:09] macgui: QueueCore work done
[13:43:09] macgui: QueueCore scanning specifically for title: 1
[13:43:09] CPU: Intel(R) Core(TM) i7-4650U CPU @ 1.70GHz
[13:43:09] - Intel microarchitecture Haswell
[13:43:09] - logical processor count: 4
[13:43:09] hb_scan: path=/Users/gbdoc/Desktop/TFP sup films/Turner/Lajos3.m4v, title_index=1
udfread ERROR: ECMA 167 Volume Recognition failed
disc.c:323: failed opening UDF image /Users/gbdoc/Desktop/TFP sup films/Turner/Lajos3.m4v
disc.c:424: error opening file BDMV/index.bdmv
disc.c:424: error opening file BDMV/BACKUP/index.bdmv
[13:43:09] bd: not a bd - trying as a stream/file instead
libdvdnav: Using dvdnav version 6.0.0
libdvdread: Encrypted DVD support unavailable.
libdvdread:DVDOpenFileUDF:UDFFindFile /VIDEO_TS/VIDEO_TS.IFO failed
libdvdread:DVDOpenFileUDF:UDFFindFile /VIDEO_TS/VIDEO_TS.BUP failed
libdvdread: Can't open file VIDEO_TS.IFO.
libdvdnav: vm: failed to read VIDEO_TS.IFO
[13:43:09] dvd: not a dvd - trying as a stream/file instead
Input #0, mov,mp4,m4a,3gp,3g2,mj2, from '/Users/gbdoc/Desktop/TFP sup films/Turner/Lajos3.m4v':
Metadata:
major_brand : mp42
minor_version : 512
compatible_brands: isomiso2avc1mp41
creation_time : 2019-02-12T20:45:31.000000Z
encoder : HandBrake 1.0.7 2017040900
Duration: 00:07:58.61, start: 0.000000, bitrate: 888 kb/s
Stream #0:0(und): Video: h264 (Main) (avc1 / 0x31637661), yuv420p(tv, bt709), 1280x720 [SAR 1:1 DAR 16:9], 722 kb/s, 25 fps, 25 tbr, 90k tbn, 180k tbc (default)
Metadata:
creation_time : 2019-02-12T20:45:31.000000Z
handler_name : VideoHandler
Stream #0:1(eng): Audio: aac (LC) (mp4a / 0x6134706D), 48000 Hz, stereo, fltp, 160 kb/s (default)
Metadata:
creation_time : 2019-02-12T20:45:31.000000Z
handler_name : Stereo
[13:43:09] scan: decoding previews for title 1
[13:43:09] scan: audio 0x1: aac, rate=48000Hz, bitrate=160267 English (AAC LC) (2.0 ch)
[13:43:09] scan: 10 previews, 1280x720, 25.000 fps, autocrop = 0/0/0/0, aspect 16:9, PAR 1:1
[13:43:09] libhb: scan thread found 1 valid title(s)
[13:43:09] macgui: QueueCore scan done
[13:43:09] 1 job(s) to process
[13:43:09] starting job
[13:43:09] macgui: QueueCore started encoding Lajos3 1.mp4
[13:43:09] macgui: QueueCore with preset Very Fast 480p30
[13:43:09] decomb filter thread started for segment 0
[13:43:09] decomb filter thread started for segment 1
[13:43:09] decomb filter thread started for segment 2
[13:43:09] decomb filter thread started for segment 3
[13:43:09] decomb check thread started for segment 0
[13:43:09] decomb check thread started for segment 1
[13:43:09] decomb check thread started for segment 2
[13:43:09] decomb check thread started for segment 3
[13:43:09] yadif thread started for segment 1
[13:43:09] yadif thread started for segment 0
[13:43:09] yadif thread started for segment 2
[13:43:09] yadif thread started for segment 3
[13:43:09] work: only 1 chapter, disabling chapter markers
[13:43:09] job configuration:
[13:43:09] * source
[13:43:09] + /Users/gbdoc/Desktop/TFP sup films/Turner/Lajos3.m4v
[13:43:09] + title 1, chapter(s) 1 to 1
[13:43:09] + container: mov,mp4,m4a,3gp,3g2,mj2
[13:43:09] + data rate: 888 kbps
[13:43:09] * destination
[13:43:09] + /Users/gbdoc/Desktop/TFP sup films/Turner/Lajos3 1.mp4
[13:43:09] + container: MPEG-4 (libavformat)
[13:43:09] + align initial A/V stream timestamps
[13:43:09] * video track
[13:43:09] + decoder: h264
[13:43:09] + bitrate 722 kbps
[13:43:09] + filters
[13:43:09] + Comb Detect (mode=0:spatial-metric=2:motion-thresh=2:spatial-thresh=3:filter-mode=1:block-thresh=80:block-width=16:block-height=16)
[13:43:09] + Decomb (mode=39)
[13:43:09] + Framerate Shaper (mode=2:rate=27000000/900000)
[13:43:09] + frame rate: 25.000 fps -> peak rate limited to 30.000 fps
[13:43:09] + Crop and Scale (width=720:height=480:crop-top=0:crop-bottom=0:crop-left=0:crop-right=0)
[13:43:09] + source: 1280 * 720, crop (0/0/0/0): 1280 * 720, scale: 720 * 480
[13:43:09] + Output geometry
[13:43:09] + storage dimensions: 720 x 480
[13:43:09] + pixel aspect ratio: 32 : 27
[13:43:09] + display dimensions: 853 x 480
[13:43:09] + encoder: H.264 (libx264)
[13:43:09] + preset: veryfast
[13:43:09] + profile: main
[13:43:09] + level: 3.1
[13:43:09] + quality: 22.00 (RF)
[13:43:09] + color profile: 1-1-1
[13:43:09] * audio track 1
[13:43:09] + decoder: English (AAC LC) (2.0 ch) (track 1, id 0x1)
[13:43:09] + bitrate: 160 kbps, samplerate: 48000 Hz
[13:43:09] + mixdown: Stereo
[13:43:09] + dither: triangular
[13:43:09] + encoder: AAC (Apple AudioToolbox)
[13:43:09] + bitrate: 160 kbps, samplerate: 48000 Hz
[13:43:09] sync: expecting 11965 video frames
[13:43:09] encx264: encoding at constant RF 22.000000
[13:43:09] encx264: unparsed options: level=3.1:ref=1:8x8dct=0:weightp=1:subme=2:mixed-refs=0:trellis=0:vbv-bufsize=14000:vbv-maxrate=14000:rc-lookahead=10
x264 [info]: using SAR=32/27
x264 [info]: using cpu capabilities: MMX2 SSE2Fast SSSE3 SSE4.2 AVX FMA3 BMI2 AVX2
x264 [info]: profile Main, level 3.1, 4:2:0, 8-bit
[13:43:09] sync: first pts video is 0
[13:43:09] sync: "Chapter 1" (1) at frame 1 time 0
[13:43:09] sync: first pts audio 0x1 is 0
[13:44:43] reader: done. 1 scr changes
[13:44:43] work: average encoding speed for job is 127.339378 fps
[13:44:44] comb detect: heavy 1 | light 43 | uncombed 11920 | total 11964
[13:44:44] decomb: deinterlaced 1 | blended 43 | unfiltered 11920 | total 11964
[13:44:44] vfr: 11964 frames output, 0 dropped and 0 duped for CFR/PFR
[13:44:44] vfr: lost time: 0 (0 frames)
[13:44:44] vfr: gained time: 0 (0 frames) (0 not accounted for)
[13:44:44] aac-decoder done: 22435 frames, 0 decoder errors
[13:44:44] h264-decoder done: 11964 frames, 0 decoder errors
[13:44:44] sync: got 11964 frames, 11965 expected
[13:44:44] sync: framerate min 16.304 fps, max 25.000 fps, avg 24.999 fps
x264 [info]: frame I:48 Avg QP:19.05 size: 52900
x264 [info]: frame P:4999 Avg QP:21.42 size: 2136
x264 [info]: frame B:6917 Avg QP:21.99 size: 153
x264 [info]: consecutive B-frames: 0.8% 66.3% 0.3% 32.6%
x264 [info]: mb I I16..4: 10.3% 0.0% 89.7%
x264 [info]: mb P I16..4: 1.4% 0.0% 0.2% P16..4: 25.3% 5.0% 2.4% 0.0% 0.0% skip:65.5%
x264 [info]: mb B I16..4: 0.1% 0.0% 0.0% B16..8: 1.5% 0.4% 0.1% direct: 1.2% skip:96.8% L0:46.1% L1:37.6% BI:16.2%
x264 [info]: coded y,uvDC,uvAC intra: 42.6% 70.3% 34.6% inter: 3.4% 4.6% 0.1%
x264 [info]: i16 v,h,dc,p: 48% 20% 26% 6%
x264 [info]: i4 v,h,dc,ddl,ddr,vr,hd,vl,hu: 32% 21% 12% 5% 5% 7% 5% 7% 5%
x264 [info]: i8c dc,h,v,p: 45% 15% 34% 6%
x264 [info]: Weighted P-Frames: Y:17.7% UV:3.6%
x264 [info]: kb/s:238.61
[13:44:44] mux: track 0, 11964 frames, 14272189 bytes, 238.53 kbps, fifo 8192
[13:44:44] mux: track 1, 22438 frames, 10677258 bytes, 178.45 kbps, fifo 16384
[13:44:44] libhb: work result = 0
[13:44:44] macgui: QueueCore work done
[13:44:44] macgui: Queue Done, there are no more pending encodes
[13:44:44] macgui: QueueCore stopped preventing sleep
]
n/a

gbdoc
Posts: 2
Joined: Wed Feb 13, 2019 1:00 pm

Re: Set new default preset?

Post by gbdoc » Mon Feb 18, 2019 12:36 pm

Forget this post, this question. I just found out how to do this. A bit more thorough reading of the docs was needed. I aplologize. :oops:

Post Reply