iPad Pro 11' 2019

Discuss encoding for devices and presets.
Forum rules
An Activity Log is required for support requests. Please read How-to get an activity log? for details on how and why this should be provided.
Post Reply
pgjscottie
Posts: 9
Joined: Wed Nov 26, 2014 11:13 am

iPad Pro 11' 2019

Post by pgjscottie » Sat Jan 26, 2019 11:30 am

[im/Users/peterscott/Desktop/Deadpool 2.pngg][im/Users/peterscott/Desktop/Kingsman THe Secret Service.pngg][/img][/img][/img][/img]Description of problem or question:

Using either of the presets Apple 1080p 60 surround or the 1080p 30 surround from an MKV file 4K for which i will attach the mediainfo screenshot non of the files produced will play back on the iPad they will play from iTunes after import but once on the iPad nothing have tried removing the 5.1 soundtrack so leaving only the AAC 160kbp


Steps to reproduce the problem (If Applicable):

[im/Users/peterscott/Desktop/Kingsman THe Secret Service.pngg][/im/Users/peterscott/Desktop/Deadpool 2.pngg]


HandBrake version (e.g., 1.0.0):

Handbrake 1.2.0


Operating system and version (e.g., Ubuntu 16.04 LTS, macOS 10.13 High Sierra, Windows 10 Creators Update):

Mac vers 10.14.2 And Windows 10 Pro


HandBrake Activity Log ***required*** (see How-to get an activity log)

[co/Users/peterscott/Library/Application Support/HandBrake/EncodeLogs/KINGSMAN THE SECRET SERVICE 2019-01-24 16-02-52.txtde]
Please replace this text with the contents of your log file between the two code tags - OR - provide a pastebin URL in place of these 3 lines.
[/co/Users/peterscott/Library/Application Support/HandBrake/EncodeLogs/Deadpool 2 2019-01-25 12-58-08.txtde]

rollin_eng
Veteran User
Posts: 3141
Joined: Wed May 04, 2011 11:06 pm

Re: iPad Pro 11' 2019

Post by rollin_eng » Sat Jan 26, 2019 11:40 am

Could you please post your HB logs, instructions can be found here:

https://handbrake.fr/docs/en/latest/hel ... y-log.html

pgjscottie
Posts: 9
Joined: Wed Nov 26, 2014 11:13 am

Re: iPad Pro 11' 2019

Post by pgjscottie » Mon Jan 28, 2019 12:15 pm

HandBrake Activity Log for Session: 2019-01-24T07:49:30Z
Handbrake Version: 1.2.0 (2018122200)
Deadpool 2.m4v
Preset: Apple 1080p60 Surround (Modified)
[07:49:30] macgui: QueueCore prevented sleep
[07:49:30] macgui: QueueCore scanning specifically for title: 1
[07:49:30] CPU: Intel(R) Core(TM) i7-7700K CPU @ 4.20GHz
[07:49:30] - Intel microarchitecture Kaby Lake
[07:49:30] - logical processor count: 8
[07:49:30] hb_scan: path=/Users/peterscott/Desktop/Deadpool 2.mkv, title_index=1
udfread ERROR: ECMA 167 Volume Recognition failed
disc.c:323: failed opening UDF image /Users/peterscott/Desktop/Deadpool 2.mkv
disc.c:424: error opening file BDMV/index.bdmv
disc.c:424: error opening file BDMV/BACKUP/index.bdmv
[07:49:30] bd: not a bd - trying as a stream/file instead
libdvdnav: Using dvdnav version 6.0.0
libdvdread: Encrypted DVD support unavailable.
libdvdread:DVDOpenFileUDF:UDFFindFile /VIDEO_TS/VIDEO_TS.IFO failed
libdvdread:DVDOpenFileUDF:UDFFindFile /VIDEO_TS/VIDEO_TS.BUP failed
libdvdread: Can't open file VIDEO_TS.IFO.
libdvdnav: vm: failed to read VIDEO_TS.IFO
[07:49:30] dvd: not a dvd - trying as a stream/file instead
Input #0, matroska,webm, from '/Users/peterscott/Desktop/Deadpool 2.mkv':
Metadata:
title : Deadpool 2
encoder : libmakemkv v1.12.3 (1.3.5/1.4.7) darwin(x64-release)
creation_time : 2018-09-17T16:38:21.000000Z
Duration: 02:13:59.57, start: 0.000000, bitrate: 53230 kb/s
Chapter #0:0: start 0.000000, end 151.317833
Metadata:
title : Chapter 01
Chapter #0:1: start 151.317833, end 475.516708
Metadata:
title : Chapter 02
Chapter #0:2: start 475.516708, end 646.020375
Metadata:
title : Chapter 03
Chapter #0:3: start 646.020375, end 861.193667
Metadata:
title : Chapter 04
Chapter #0:4: start 861.193667, end 1062.936875
Metadata:
title : Chapter 05
Chapter #0:5: start 1062.936875, end 1150.691208
Metadata:
title : Chapter 06
Chapter #0:6: start 1150.691208, end 1453.994208
Metadata:
title : Chapter 07
Chapter #0:7: start 1453.994208, end 1631.630000
Metadata:
title : Chapter 08
Chapter #0:8: start 1631.630000, end 2237.276708
Metadata:
title : Chapter 09
Chapter #0:9: start 2237.276708, end 2531.820958
Metadata:
title : Chapter 10
Chapter #0:10: start 2531.820958, end 2680.302625
Metadata:
title : Chapter 11
Chapter #0:11: start 2680.302625, end 2970.759458
Metadata:
title : Chapter 12
Chapter #0:12: start 2970.759458, end 3140.470667
Metadata:
title : Chapter 13
Chapter #0:13: start 3140.470667, end 3407.529125
Metadata:
title : Chapter 14
Chapter #0:14: start 3407.529125, end 3660.073083
Metadata:
title : Chapter 15
Chapter #0:15: start 3660.073083, end 3887.049833
Metadata:
title : Chapter 16
Chapter #0:16: start 3887.049833, end 4042.997292
Metadata:
title : Chapter 17
Chapter #0:17: start 4042.997292, end 4185.097583
Metadata:
title : Chapter 18
Chapter #0:18: start 4185.097583, end 4305.426125
Metadata:
title : Chapter 19
Chapter #0:19: start 4305.426125, end 4521.016500
Metadata:
title : Chapter 20
Chapter #0:20: start 4521.016500, end 4759.004250
Metadata:
title : Chapter 21
Chapter #0:21: start 4759.004250, end 4859.980125
Metadata:
title : Chapter 22
Chapter #0:22: start 4859.980125, end 5089.542792
Metadata:
title : Chapter 23
Chapter #0:23: start 5089.542792, end 5350.470125
Metadata:
title : Chapter 24
Chapter #0:24: start 5350.470125, end 5550.127917
Metadata:
title : Chapter 25
Chapter #0:25: start 5550.127917, end 5771.140375
Metadata:
title : Chapter 26
Chapter #0:26: start 5771.140375, end 5898.767875
Metadata:
title : Chapter 27
Chapter #0:27: start 5898.767875, end 6125.953167
Metadata:
title : Chapter 28
Chapter #0:28: start 6125.953167, end 6258.710792
Metadata:
title : Chapter 29
Chapter #0:29: start 6258.710792, end 6363.440417
Metadata:
title : Chapter 30
Chapter #0:30: start 6363.440417, end 6486.480000
Metadata:
title : Chapter 31
Chapter #0:31: start 6486.480000, end 6691.976958
Metadata:
title : Chapter 32
Chapter #0:32: start 6691.976958, end 6905.398500
Metadata:
title : Chapter 33
Chapter #0:33: start 6905.398500, end 7095.963875
Metadata:
title : Chapter 34
Chapter #0:34: start 7095.963875, end 7324.317000
Metadata:
title : Chapter 35
Chapter #0:35: start 7324.317000, end 8039.573333
Metadata:
title : Chapter 36
Stream #0:0(eng): Video: hevc (Main 10), yuv420p10le(tv, bt2020nc/bt2020/smpte2084), 3840x2160 [SAR 1:1 DAR 16:9], 23.98 fps, 23.98 tbr, 1k tbn, 23.98 tbc
Metadata:
BPS-eng : 48756433
DURATION-eng : 02:13:59.573208333
NUMBER_OF_FRAMES-eng: 192757
NUMBER_OF_BYTES-eng: 48997613520
SOURCE_ID-eng : 001011
_STATISTICS_WRITING_APP-eng: MakeMKV v1.12.3 darwin(x64-release)
_STATISTICS_WRITING_DATE_UTC-eng: 2018-09-17 16:38:21
_STATISTICS_TAGS-eng: BPS DURATION NUMBER_OF_FRAMES NUMBER_OF_BYTES SOURCE_ID
Stream #0:1(eng): Audio: truehd, 48000 Hz, 7.1, s32 (24 bit) (default)
Metadata:
title : Surround 7.1
BPS-eng : 4461330
DURATION-eng : 02:13:59.574166666
NUMBER_OF_FRAMES-eng: 9647489
NUMBER_OF_BYTES-eng: 4483399598
SOURCE_ID-eng : 001100
_STATISTICS_WRITING_APP-eng: MakeMKV v1.12.3 darwin(x64-release)
_STATISTICS_WRITING_DATE_UTC-eng: 2018-09-17 16:38:21
_STATISTICS_TAGS-eng: BPS DURATION NUMBER_OF_FRAMES NUMBER_OF_BYTES SOURCE_ID
Stream #0:2(eng): Subtitle: hdmv_pgs_subtitle
Metadata:
BPS-eng : 122
DURATION-eng : 00:52:55.860187500
NUMBER_OF_FRAMES-eng: 8
NUMBER_OF_BYTES-eng: 48720
SOURCE_ID-eng : 0012B5
_STATISTICS_WRITING_APP-eng: MakeMKV v1.12.3 darwin(x64-release)
_STATISTICS_WRITING_DATE_UTC-eng: 2018-09-17 16:38:21
_STATISTICS_TAGS-eng: BPS DURATION NUMBER_OF_FRAMES NUMBER_OF_BYTES SOURCE_ID
[07:49:30] scan: decoding previews for title 1
[07:49:30] scan: audio 0x1: truehd, rate=48000Hz, bitrate=1 English (TrueHD) (7.1 ch)
[07:49:34] scan: 10 previews, 3840x2160, 23.976 fps, autocrop = 276/276/0/0, aspect 16:9, PAR 1:1
[07:49:34] libhb: scan thread found 1 valid title(s)
[07:49:34] macgui: QueueCore scan done
[07:49:34] 1 job(s) to process
[07:49:34] starting job
[07:49:34] macgui: QueueCore started encoding Deadpool 2.m4v
[07:49:34] macgui: QueueCore with preset Apple 1080p60 Surround (Modified)
[07:49:34] decomb filter thread started for segment 0
[07:49:34] decomb filter thread started for segment 1
[07:49:34] decomb filter thread started for segment 2
[07:49:34] decomb filter thread started for segment 3
[07:49:34] decomb filter thread started for segment 4
[07:49:34] decomb filter thread started for segment 5
[07:49:34] decomb filter thread started for segment 6
[07:49:34] decomb filter thread started for segment 7
[07:49:34] decomb check thread started for segment 0
[07:49:34] decomb check thread started for segment 1
[07:49:34] decomb check thread started for segment 2
[07:49:34] decomb check thread started for segment 3
[07:49:34] decomb check thread started for segment 4
[07:49:34] decomb check thread started for segment 5
[07:49:34] decomb check thread started for segment 6
[07:49:34] decomb check thread started for segment 7
[07:49:34] mask filter thread started for segment 0
[07:49:34] mask filter thread started for segment 1
[07:49:34] mask filter thread started for segment 2
[07:49:34] mask filter thread started for segment 3
[07:49:34] mask filter thread started for segment 4
[07:49:34] mask filter thread started for segment 5
[07:49:34] mask filter thread started for segment 6
[07:49:34] mask filter thread started for segment 7
[07:49:34] mask erode thread started for segment 0
[07:49:34] mask erode thread started for segment 1
[07:49:34] mask erode thread started for segment 2
[07:49:34] mask erode thread started for segment 3
[07:49:34] mask erode thread started for segment 4
[07:49:34] mask erode thread started for segment 5
[07:49:34] mask erode thread started for segment 6
[07:49:34] mask erode thread started for segment 7
[07:49:34] mask dilate thread started for segment 0
[07:49:34] mask dilate thread started for segment 1
[07:49:34] mask dilate thread started for segment 2
[07:49:34] mask dilate thread started for segment 3
[07:49:34] mask dilate thread started for segment 4
[07:49:34] mask dilate thread started for segment 5
[07:49:34] mask dilate thread started for segment 6
[07:49:34] mask dilate thread started for segment 7
[07:49:34] yadif thread started for segment 0
[07:49:34] yadif thread started for segment 1
[07:49:34] yadif thread started for segment 2
[07:49:34] yadif thread started for segment 3
[07:49:34] yadif thread started for segment 4
[07:49:34] yadif thread started for segment 5
[07:49:34] yadif thread started for segment 6
[07:49:34] yadif thread started for segment 7
[07:49:34] job configuration:
[07:49:34] * source
[07:49:34] + /Users/peterscott/Desktop/Deadpool 2.mkv
[07:49:34] + title 1, chapter(s) 1 to 36
[07:49:34] + container: matroska,webm
[07:49:34] + data rate: 53230 kbps
[07:49:34] * destination
[07:49:34] + /Users/peterscott/Desktop/Deadpool 2.m4v
[07:49:34] + container: MPEG-4 (libavformat)
[07:49:34] + chapter markers
[07:49:34] * video track
[07:49:34] + decoder: hevc
[07:49:34] + filters
[07:49:34] + Comb Detect (mode=3:spatial-metric=2:motion-thresh=1:spatial-thresh=1:filter-mode=2:block-thresh=40:block-width=16:block-height=16)
[07:49:34] + Decomb (mode=39)
[07:49:34] + Framerate Shaper (mode=2:rate=27000000/450000)
[07:49:34] + frame rate: 23.976 fps -> peak rate limited to 60.000 fps
[07:49:34] + Crop and Scale (width=1920:height=1080:crop-top=276:crop-bottom=276:crop-left=0:crop-right=0)
[07:49:34] + source: 3840 * 2160, crop (276/276/0/0): 3840 * 1608, scale: 1920 * 1080
[07:49:34] + Output geometry
[07:49:34] + storage dimensions: 1920 x 1080
[07:49:34] + pixel aspect ratio: 90 : 67
[07:49:34] + display dimensions: 2579 x 1080
[07:49:34] * Foreign Audio Search: Render/Burn-in, Forced Only
[07:49:34] + subtitle, English [PGS] (track 0, id 0x2, Picture)
[07:49:34] sync: expecting 192756 video frames
[07:50:20] reader: done. 1 scr changes
[07:50:20] work: average encoding speed for job is 0.000000 fps
[07:50:20] comb detect: heavy 0 | light 0 | uncombed 0 | total 0
[07:50:20] decomb: deinterlaced 0 | blended 0 | unfiltered 0 | total 0
[07:50:20] vfr: 0 frames output, 0 dropped and 0 duped for CFR/PFR
[07:50:20] vfr: lost time: 0 (0 frames)
[07:50:20] vfr: gained time: 0 (0 frames) (0 not accounted for)
[07:50:20] hevc-decoder done: 0 frames, 0 decoder errors
[07:50:20] sync: got 0 frames, 192756 expected
[07:50:20] Subtitle track 0 (id 0x2) 'English [PGS]': 4 hits (4 forced)
[07:50:20] Found a subtitle candidate with id 0x2 (contains forced subs)
[07:50:20] starting job
[07:50:20] decomb filter thread started for segment 1
[07:50:20] decomb filter thread started for segment 3
[07:50:20] decomb filter thread started for segment 0
[07:50:20] decomb filter thread started for segment 7
[07:50:20] decomb filter thread started for segment 4
[07:50:20] decomb filter thread started for segment 5
[07:50:20] decomb filter thread started for segment 6
[07:50:20] decomb filter thread started for segment 2
[07:50:20] decomb check thread started for segment 2
[07:50:20] decomb check thread started for segment 1
[07:50:20] decomb check thread started for segment 3
[07:50:20] decomb check thread started for segment 0
[07:50:20] decomb check thread started for segment 4
[07:50:20] decomb check thread started for segment 5
[07:50:20] decomb check thread started for segment 6
[07:50:20] decomb check thread started for segment 7
[07:50:20] mask filter thread started for segment 0
[07:50:20] mask filter thread started for segment 1
[07:50:20] mask filter thread started for segment 2
[07:50:20] mask filter thread started for segment 3
[07:50:20] mask filter thread started for segment 4
[07:50:20] mask filter thread started for segment 5
[07:50:20] mask filter thread started for segment 6
[07:50:20] mask filter thread started for segment 7
[07:50:20] mask erode thread started for segment 0
[07:50:20] mask erode thread started for segment 1
[07:50:20] mask erode thread started for segment 2
[07:50:20] mask erode thread started for segment 3
[07:50:20] mask erode thread started for segment 4
[07:50:20] mask erode thread started for segment 5
[07:50:20] mask erode thread started for segment 6
[07:50:20] mask erode thread started for segment 7
[07:50:20] mask dilate thread started for segment 1
[07:50:20] mask dilate thread started for segment 2
[07:50:20] mask dilate thread started for segment 0
[07:50:20] mask dilate thread started for segment 3
[07:50:20] mask dilate thread started for segment 4
[07:50:20] mask dilate thread started for segment 5
[07:50:20] mask dilate thread started for segment 7
[07:50:20] mask dilate thread started for segment 6
[07:50:20] yadif thread started for segment 0
[07:50:20] yadif thread started for segment 1
[07:50:20] yadif thread started for segment 2
[07:50:20] yadif thread started for segment 3
[07:50:20] yadif thread started for segment 4
[07:50:20] yadif thread started for segment 5
[07:50:20] yadif thread started for segment 6
[07:50:20] yadif thread started for segment 7
[07:50:20] job configuration:
[07:50:20] * source
[07:50:20] + /Users/peterscott/Desktop/Deadpool 2.mkv
[07:50:20] + title 1, chapter(s) 1 to 36
[07:50:20] + container: matroska,webm
[07:50:20] + data rate: 53230 kbps
[07:50:20] * destination
[07:50:20] + /Users/peterscott/Desktop/Deadpool 2.m4v
[07:50:20] + container: MPEG-4 (libavformat)
[07:50:20] + chapter markers
[07:50:20] * video track
[07:50:20] + decoder: hevc
[07:50:20] + filters
[07:50:20] + Comb Detect (mode=3:spatial-metric=2:motion-thresh=1:spatial-thresh=1:filter-mode=2:block-thresh=40:block-width=16:block-height=16)
[07:50:20] + Decomb (mode=39)
[07:50:20] + Framerate Shaper (mode=2:rate=27000000/450000)
[07:50:20] + frame rate: 23.976 fps -> peak rate limited to 60.000 fps
[07:50:20] + Subtitle renderer ()
[07:50:20] + Crop and Scale (width=1920:height=1080:crop-top=276:crop-bottom=276:crop-left=0:crop-right=0)
[07:50:20] + source: 3840 * 2160, crop (276/276/0/0): 3840 * 1608, scale: 1920 * 1080
[07:50:20] + Output geometry
[07:50:20] + storage dimensions: 1920 x 1080
[07:50:20] + pixel aspect ratio: 90 : 67
[07:50:20] + display dimensions: 2579 x 1080
[07:50:20] + encoder: H.264 (libx264)
[07:50:20] + preset: medium
[07:50:20] + profile: high
[07:50:20] + level: 4.2
[07:50:20] + quality: 18.00 (RF)
[07:50:20] + color profile: 9-16-9
[07:50:20] * subtitle track 1, English [PGS] (track 0, id 0x2, Picture) -> Render/Burn-in, Forced Only
[07:50:20] * audio track 1
[07:50:20] + decoder: English (TrueHD) (7.1 ch) (track 1, id 0x1)
[07:50:20] + samplerate: 48000 Hz
[07:50:20] + mixdown: Stereo
[07:50:20] + dither: triangular
[07:50:20] + encoder: AAC (Apple AudioToolbox)
[07:50:20] + bitrate: 160 kbps, samplerate: 48000 Hz
[07:50:20] * audio track 2
[07:50:20] + decoder: English (TrueHD) (7.1 ch) (track 1, id 0x1)
[07:50:20] + samplerate: 48000 Hz
[07:50:20] + mixdown: 5.1 Channels
[07:50:20] + dither: triangular
[07:50:20] + encoder: AC3 (libavcodec)
[07:50:20] + bitrate: 640 kbps, samplerate: 48000 Hz
[07:50:21] sync: expecting 192756 video frames
[07:50:21] encx264: min-keyint: 24, keyint: 240
[07:50:21] encx264: encoding at constant RF 18.000000
[07:50:21] encx264: unparsed options: level=4.2:vbv-bufsize=78125:vbv-maxrate=62500
x264 [info]: using SAR=90/67
x264 [info]: using cpu capabilities: MMX2 SSE2Fast SSSE3 SSE4.2 AVX FMA3 BMI2 AVX2
x264 [info]: profile High, level 4.2, 4:2:0, 8-bit
[07:50:21] sync: first pts audio 0x1 is 0
[07:50:21] sync: first pts audio 0x1 is 0
[07:50:21] sync: first pts video is 0
[07:50:21] sync: "Chapter 1" (1) at frame 1 time 0
[07:53:44] sync: "Chapter 2" (2) at frame 3629 time 13618605
[07:54:22] sync: first pts subtitle 0x2 is 16415190
[08:01:41] sync: "Chapter 3" (3) at frame 11402 time 42796503
[08:05:25] sync: "Chapter 4" (4) at frame 15494 time 58156848
[08:10:21] sync: "Chapter 5" (5) at frame 20649 time 77507430
[08:15:35] sync: "Chapter 6" (6) at frame 25486 time 95664318
[08:17:44] sync: "Chapter 7" (7) at frame 27591 time 103565962
[08:24:33] sync: "Chapter 8" (8) at frame 34867 time 130878247
[08:28:47] sync: "Chapter 9" (9) at frame 39121 time 146846700
[08:42:07] sync: "Chapter 10" (10) at frame 53642 time 201354903
[08:48:34] sync: "Chapter 11" (11) at frame 60704 time 227863886
[08:51:39] sync: "Chapter 12" (12) at frame 64264 time 241227236
[08:58:43] sync: "Chapter 13" (13) at frame 71230 time 267375858
[09:02:49] sync: "Chapter 14" (14) at frame 75297 time 282642360
[09:09:57] sync: "Chapter 15" (15) at frame 81701 time 306681375
[09:16:14] sync: "Chapter 16" (16) at frame 87760 time 329425346
[09:21:30] sync: "Chapter 17" (17) at frame 93197 time 349834485
[09:24:36] sync: "Chapter 18" (18) at frame 96941 time 363888525
[09:27:55] sync: "Chapter 19" (19) at frame 100343 time 376658782
[09:30:51] sync: "Chapter 20" (20) at frame 103233 time 387507120
[09:35:49] sync: "Chapter 21" (21) at frame 108397 time 406891485
[09:42:05] sync: "Chapter 22" (22) at frame 114104 time 428314136
[09:44:43] sync: "Chapter 23" (23) at frame 116527 time 437409472
[09:49:54] sync: "Chapter 24" (24) at frame 122028 time 458058851
[09:55:29] sync: "Chapter 25" (25) at frame 128289 time 481561080
[10:00:03] sync: "Chapter 26" (26) at frame 133071 time 499511512
[10:04:52] sync: "Chapter 27" (27) at frame 138375 time 519421402
[10:07:40] sync: "Chapter 28" (28) at frame 141430 time 530889108
[10:12:46] sync: "Chapter 29" (29) at frame 146878 time 551339538
[10:15:58] sync: "Chapter 30" (30) at frame 150060 time 563283971
[10:18:39] sync: "Chapter 31" (31) at frame 152573 time 572717145
[10:21:23] sync: "Chapter 32" (32) at frame 155521 time 583783200
[10:25:50] sync: "Chapter 33" (33) at frame 160448 time 602277926
[10:30:17] sync: "Chapter 34" (34) at frame 165565 time 621485865
[10:35:25] sync: "Chapter 35" (35) at frame 170134 time 638636748
[10:40:32] sync: "Chapter 36" (36) at frame 175609 time 659188530
[10:53:05] reader: done. 1 scr changes
[10:53:07] work: average encoding speed for job is 17.573814 fps
[10:53:07] comb detect: heavy 9549 | light 6068 | uncombed 177140 | total 192757
[10:53:07] decomb: deinterlaced 9549 | blended 6068 | unfiltered 177140 | total 192757
[10:53:07] vfr: 192757 frames output, 0 dropped and 0 duped for CFR/PFR
[10:53:07] vfr: lost time: 0 (0 frames)
[10:53:07] vfr: gained time: 0 (0 frames) (0 not accounted for)
[10:53:07] truehd-decoder done: 9647489 frames, 0 decoder errors
[10:53:07] truehd-decoder done: 9647489 frames, 0 decoder errors
[10:53:07] hevc-decoder done: 192757 frames, 0 decoder errors
[10:53:07] sync: got 192757 frames, 192756 expected
[10:53:07] sync: framerate min 23.981 fps, max 23.981 fps, avg 23.976 fps
x264 [info]: frame I:3377 Avg QP:15.05 size:163364
x264 [info]: frame P:63856 Avg QP:17.63 size: 54184
x264 [info]: frame B:125524 Avg QP:18.98 size: 24807
x264 [info]: consecutive B-frames: 11.3% 4.8% 2.5% 81.4%
x264 [info]: mb I I16..4: 5.2% 84.9% 9.9%
x264 [info]: mb P I16..4: 1.9% 11.4% 1.4% P16..4: 43.2% 19.8% 10.0% 0.0% 0.0% skip:12.3%
x264 [info]: mb B I16..4: 0.2% 1.5% 0.1% B16..8: 51.7% 7.8% 1.3% direct: 3.7% skip:33.7% L0:46.7% L1:49.1% BI: 4.3%
x264 [info]: 8x8 transform intra:79.8% inter:75.5%
x264 [info]: coded y,uvDC,uvAC intra: 78.5% 68.2% 36.1% inter: 31.6% 19.7% 1.8%
x264 [info]: i16 v,h,dc,p: 26% 12% 4% 58%
x264 [info]: i8 v,h,dc,ddl,ddr,vr,hd,vl,hu: 24% 12% 20% 6% 7% 9% 6% 9% 7%
x264 [info]: i4 v,h,dc,ddl,ddr,vr,hd,vl,hu: 33% 14% 13% 6% 9% 9% 6% 6% 3%
x264 [info]: i8c dc,h,v,p: 55% 16% 24% 5%
x264 [info]: Weighted P-Frames: Y:3.3% UV:1.4%
x264 [info]: ref P L0: 55.8% 10.6% 23.3% 10.1% 0.2%
x264 [info]: ref B L0: 82.6% 13.7% 3.7%
x264 [info]: ref B L1: 93.0% 7.0%
x264 [info]: kb/s:7090.37
[10:53:07] mux: track 0, 192757 frames, 7125322584 bytes, 7090.21 kbps, fifo 2048
[10:53:07] mux: track 1, 376858 frames, 163655197 bytes, 162.85 kbps, fifo 4096
[10:53:07] mux: track 2, 251236 frames, 643164160 bytes, 639.99 kbps, fifo 2048
[10:53:08] libhb: work result = 0

video.baba
Posts: 57
Joined: Sun May 24, 2015 11:12 am

Re: iPad Pro 11' 2019

Post by video.baba » Mon Jan 28, 2019 1:44 pm

pgjscottie wrote:
Sat Jan 26, 2019 11:30 am
[im/Users/peterscott/Desktop/Deadpool 2.pngg][im/Users/peterscott/Desktop/Kingsman THe Secret Service.pngg][/img][/img][/img][/img]
Steps to reproduce the problem (If Applicable):
[im/Users/peterscott/Desktop/Kingsman THe Secret Service.pngg][/im/Users/peterscott/Desktop/Deadpool 2.pngg]
HandBrake Activity Log ***required*** (see How-to get an activity log)
[co/Users/peterscott/Library/Application Support/HandBrake/EncodeLogs/KINGSMAN THE SECRET SERVICE 2019-01-24 16-02-52.txtde]
Please replace this text with the contents of your log file between the two code tags - OR - provide a pastebin URL in place of these 3 lines.
[/co/Users/peterscott/Library/Application Support/HandBrake/EncodeLogs/Deadpool 2 2019-01-25 12-58-08.txtde]
Wow... Did you have some kind of internal fight with your computer?

pgjscottie
Posts: 9
Joined: Wed Nov 26, 2014 11:13 am

Re: iPad Pro 11' 2019

Post by pgjscottie » Tue Jan 29, 2019 8:48 am

Tried again today Assassin's Creed 4K Handbrake Apple 1080 30 setting will not play on iPad

HandBrake Activity Log for Session: 2019-01-29T06:27:57Z
Handbrake Version: 1.2.0 (2018122200)
Assassin's Creed.m4v
Preset: Apple 1080p30 Surround
[06:27:57] macgui: QueueCore prevented sleep
[06:27:57] macgui: QueueCore scanning specifically for title: 1
[06:27:57] CPU: Intel(R) Core(TM) i7-7700K CPU @ 4.20GHz
[06:27:57] - Intel microarchitecture Kaby Lake
[06:27:57] - logical processor count: 8
[06:27:57] hb_scan: path=/Users/peterscott/Desktop/Assassin's Creed.mkv, title_index=1
udfread ERROR: ECMA 167 Volume Recognition failed
disc.c:323: failed opening UDF image /Users/peterscott/Desktop/Assassin's Creed.mkv
disc.c:424: error opening file BDMV/index.bdmv
disc.c:424: error opening file BDMV/BACKUP/index.bdmv
[06:27:57] bd: not a bd - trying as a stream/file instead
libdvdnav: Using dvdnav version 6.0.0
libdvdread: Encrypted DVD support unavailable.
libdvdread:DVDOpenFileUDF:UDFFindFile /VIDEO_TS/VIDEO_TS.IFO failed
libdvdread:DVDOpenFileUDF:UDFFindFile /VIDEO_TS/VIDEO_TS.BUP failed
libdvdread: Can't open file VIDEO_TS.IFO.
libdvdnav: vm: failed to read VIDEO_TS.IFO
[06:27:57] dvd: not a dvd - trying as a stream/file instead
Input #0, matroska,webm, from '/Users/peterscott/Desktop/Assassin's Creed.mkv':
Metadata:
title : Assassin’s Creed
encoder : libmakemkv v1.14.2 (1.3.5/1.4.7) darwin(x64-release)
creation_time : 2019-01-29T05:49:13.000000Z
Duration: 01:55:30.92, start: 0.000000, bitrate: 35594 kb/s
Chapter #0:0: start 0.000000, end 364.072042
Metadata:
title : Chapter 01
Chapter #0:1: start 364.072042, end 572.697125
Metadata:
title : Chapter 02
Chapter #0:2: start 572.697125, end 767.516750
Metadata:
title : Chapter 03
Chapter #0:3: start 767.516750, end 1007.715042
Metadata:
title : Chapter 04
Chapter #0:4: start 1007.715042, end 1267.432833
Metadata:
title : Chapter 05
Chapter #0:5: start 1267.432833, end 1616.156208
Metadata:
title : Chapter 06
Chapter #0:6: start 1616.156208, end 1914.746167
Metadata:
title : Chapter 07
Chapter #0:7: start 1914.746167, end 2286.284000
Metadata:
title : Chapter 08
Chapter #0:8: start 2286.284000, end 2503.167333
Metadata:
title : Chapter 09
Chapter #0:9: start 2503.167333, end 2793.040250
Metadata:
title : Chapter 10
Chapter #0:10: start 2793.040250, end 3010.007000
Metadata:
title : Chapter 11
Chapter #0:11: start 3010.007000, end 3184.389542
Metadata:
title : Chapter 12
Chapter #0:12: start 3184.389542, end 3377.624250
Metadata:
title : Chapter 13
Chapter #0:13: start 3377.624250, end 3566.479583
Metadata:
title : Chapter 14
Chapter #0:14: start 3566.479583, end 3752.582167
Metadata:
title : Chapter 15
Chapter #0:15: start 3752.582167, end 3996.742750
Metadata:
title : Chapter 16
Chapter #0:16: start 3996.742750, end 4388.675958
Metadata:
title : Chapter 17
Chapter #0:17: start 4388.675958, end 4725.846125
Metadata:
title : Chapter 18
Chapter #0:18: start 4725.846125, end 4980.850875
Metadata:
title : Chapter 19
Chapter #0:19: start 4980.850875, end 5417.703958
Metadata:
title : Chapter 20
Chapter #0:20: start 5417.703958, end 5658.152500
Metadata:
title : Chapter 21
Chapter #0:21: start 5658.152500, end 5864.900708
Metadata:
title : Chapter 22
Chapter #0:22: start 5864.900708, end 6050.919875
Metadata:
title : Chapter 23
Chapter #0:23: start 6050.919875, end 6930.924000
Metadata:
title : Chapter 24
Stream #0:0(eng): Video: hevc (Main 10), yuv420p10le(tv, bt2020nc/bt2020/smpte2084), 3840x2160 [SAR 1:1 DAR 16:9], 23.98 fps, 23.98 tbr, 1k tbn, 23.98 tbc
Metadata:
BPS-eng : 34950884
DURATION-eng : 01:55:30.924000000
NUMBER_OF_FRAMES-eng: 166177
NUMBER_OF_BYTES-eng: 30280240909
SOURCE_ID-eng : 001011
_STATISTICS_WRITING_APP-eng: MakeMKV v1.14.2 darwin(x64-release)
_STATISTICS_WRITING_DATE_UTC-eng: 2019-01-29 05:49:13
_STATISTICS_TAGS-eng: BPS DURATION NUMBER_OF_FRAMES NUMBER_OF_BYTES SOURCE_ID
Stream #0:1(eng): Audio: ac3, 48000 Hz, 5.1(side), fltp, 640 kb/s (default)
Metadata:
title : Surround 5.1
BPS-eng : 640000
DURATION-eng : 01:55:30.944000000
NUMBER_OF_FRAMES-eng: 216592
NUMBER_OF_BYTES-eng: 554475520
SOURCE_ID-eng : 001100
_STATISTICS_WRITING_APP-eng: MakeMKV v1.14.2 darwin(x64-release)
_STATISTICS_WRITING_DATE_UTC-eng: 2019-01-29 05:49:13
_STATISTICS_TAGS-eng: BPS DURATION NUMBER_OF_FRAMES NUMBER_OF_BYTES SOURCE_ID
Stream #0:2(eng): Subtitle: hdmv_pgs_subtitle
Metadata:
BPS-eng : 1426
DURATION-eng : 01:18:34.146937500
NUMBER_OF_FRAMES-eng: 192
NUMBER_OF_BYTES-eng: 840315
SOURCE_ID-eng : 0012AB
_STATISTICS_WRITING_APP-eng: MakeMKV v1.14.2 darwin(x64-release)
_STATISTICS_WRITING_DATE_UTC-eng: 2019-01-29 05:49:13
_STATISTICS_TAGS-eng: BPS DURATION NUMBER_OF_FRAMES NUMBER_OF_BYTES SOURCE_ID
[06:27:57] scan: decoding previews for title 1
[06:27:57] scan: audio 0x1: ac3, rate=48000Hz, bitrate=640000 English (AC3) (5.1 ch)
[06:28:00] scan: 10 previews, 3840x2160, 23.976 fps, autocrop = 276/276/0/0, aspect 16:9, PAR 1:1
[06:28:00] libhb: scan thread found 1 valid title(s)
[06:28:00] macgui: QueueCore scan done
[06:28:00] 1 job(s) to process
[06:28:00] starting job
[06:28:00] macgui: QueueCore started encoding Assassin's Creed.m4v
[06:28:00] macgui: QueueCore with preset Apple 1080p30 Surround
[06:28:00] decomb filter thread started for segment 0
[06:28:00] decomb filter thread started for segment 1
[06:28:00] decomb filter thread started for segment 2
[06:28:00] decomb filter thread started for segment 3
[06:28:00] decomb filter thread started for segment 4
[06:28:00] decomb filter thread started for segment 5
[06:28:00] decomb filter thread started for segment 6
[06:28:00] decomb filter thread started for segment 7
[06:28:00] decomb check thread started for segment 0
[06:28:00] decomb check thread started for segment 1
[06:28:00] decomb check thread started for segment 2
[06:28:00] decomb check thread started for segment 3
[06:28:00] decomb check thread started for segment 4
[06:28:00] decomb check thread started for segment 5
[06:28:00] decomb check thread started for segment 6
[06:28:00] decomb check thread started for segment 7
[06:28:00] mask filter thread started for segment 0
[06:28:00] mask filter thread started for segment 1
[06:28:00] mask filter thread started for segment 2
[06:28:00] mask filter thread started for segment 3
[06:28:00] mask filter thread started for segment 4
[06:28:00] mask filter thread started for segment 5
[06:28:00] mask filter thread started for segment 6
[06:28:00] mask filter thread started for segment 7
[06:28:00] mask erode thread started for segment 0
[06:28:00] mask erode thread started for segment 1
[06:28:00] mask erode thread started for segment 2
[06:28:00] mask erode thread started for segment 4
[06:28:00] mask erode thread started for segment 3
[06:28:00] mask erode thread started for segment 5
[06:28:00] mask erode thread started for segment 6
[06:28:00] mask dilate thread started for segment 0
[06:28:00] mask erode thread started for segment 7
[06:28:00] mask dilate thread started for segment 1
[06:28:00] mask dilate thread started for segment 2
[06:28:00] mask dilate thread started for segment 3
[06:28:00] mask dilate thread started for segment 4
[06:28:00] mask dilate thread started for segment 5
[06:28:00] mask dilate thread started for segment 6
[06:28:00] mask dilate thread started for segment 7
[06:28:00] yadif thread started for segment 0
[06:28:00] yadif thread started for segment 2
[06:28:00] yadif thread started for segment 1
[06:28:00] yadif thread started for segment 3
[06:28:00] yadif thread started for segment 4
[06:28:00] yadif thread started for segment 5
[06:28:00] yadif thread started for segment 6
[06:28:00] yadif thread started for segment 7
[06:28:00] job configuration:
[06:28:00] * source
[06:28:00] + /Users/peterscott/Desktop/Assassin's Creed.mkv
[06:28:00] + title 1, chapter(s) 1 to 24
[06:28:00] + container: matroska,webm
[06:28:00] + data rate: 35594 kbps
[06:28:00] * destination
[06:28:00] + /Users/peterscott/Desktop/Assassin's Creed.m4v
[06:28:00] + container: MPEG-4 (libavformat)
[06:28:00] + chapter markers
[06:28:00] * video track
[06:28:00] + decoder: hevc
[06:28:00] + filters
[06:28:00] + Comb Detect (mode=3:spatial-metric=2:motion-thresh=1:spatial-thresh=1:filter-mode=2:block-thresh=40:block-width=16:block-height=16)
[06:28:00] + Decomb (mode=39)
[06:28:00] + Framerate Shaper (mode=2:rate=27000000/900000)
[06:28:00] + frame rate: 23.976 fps -> peak rate limited to 30.000 fps
[06:28:00] + Crop and Scale (width=1920:height=1080:crop-top=276:crop-bottom=276:crop-left=0:crop-right=0)
[06:28:00] + source: 3840 * 2160, crop (276/276/0/0): 3840 * 1608, scale: 1920 * 1080
[06:28:00] + Output geometry
[06:28:00] + storage dimensions: 1920 x 1080
[06:28:00] + pixel aspect ratio: 90 : 67
[06:28:00] + display dimensions: 2579 x 1080
[06:28:00] * Foreign Audio Search: Render/Burn-in, Forced Only
[06:28:00] + subtitle, English [PGS] (track 0, id 0x2, Picture)
[06:28:00] sync: expecting 166176 video frames
[06:28:15] reader: done. 1 scr changes
[06:28:15] work: average encoding speed for job is 0.000000 fps
[06:28:15] comb detect: heavy 0 | light 0 | uncombed 0 | total 0
[06:28:15] decomb: deinterlaced 0 | blended 0 | unfiltered 0 | total 0
[06:28:15] vfr: 0 frames output, 0 dropped and 0 duped for CFR/PFR
[06:28:15] vfr: lost time: 0 (0 frames)
[06:28:15] vfr: gained time: 0 (0 frames) (0 not accounted for)
[06:28:15] hevc-decoder done: 0 frames, 0 decoder errors
[06:28:15] sync: got 0 frames, 166176 expected
[06:28:15] Subtitle track 0 (id 0x2) 'English [PGS]': 99 hits (99 forced)
[06:28:15] Found a subtitle candidate with id 0x2 (contains forced subs)
[06:28:15] starting job
[06:28:15] decomb filter thread started for segment 0
[06:28:15] decomb filter thread started for segment 2
[06:28:15] decomb filter thread started for segment 1
[06:28:15] decomb check thread started for segment 0
[06:28:15] decomb filter thread started for segment 4
[06:28:15] decomb filter thread started for segment 5
[06:28:15] decomb filter thread started for segment 6
[06:28:15] decomb check thread started for segment 2
[06:28:15] decomb filter thread started for segment 3
[06:28:15] decomb check thread started for segment 3
[06:28:15] decomb filter thread started for segment 7
[06:28:15] decomb check thread started for segment 1
[06:28:15] decomb check thread started for segment 4
[06:28:15] mask filter thread started for segment 0
[06:28:15] decomb check thread started for segment 6
[06:28:15] mask filter thread started for segment 1
[06:28:15] decomb check thread started for segment 5
[06:28:15] decomb check thread started for segment 7
[06:28:15] mask filter thread started for segment 2
[06:28:15] mask filter thread started for segment 3
[06:28:15] mask filter thread started for segment 4
[06:28:15] mask filter thread started for segment 5
[06:28:15] mask filter thread started for segment 6
[06:28:15] mask filter thread started for segment 7
[06:28:15] mask erode thread started for segment 0
[06:28:15] mask erode thread started for segment 1
[06:28:15] mask erode thread started for segment 2
[06:28:15] mask erode thread started for segment 3
[06:28:15] mask erode thread started for segment 4
[06:28:15] mask erode thread started for segment 5
[06:28:15] mask erode thread started for segment 6
[06:28:15] mask erode thread started for segment 7
[06:28:15] mask dilate thread started for segment 0
[06:28:15] mask dilate thread started for segment 1
[06:28:15] mask dilate thread started for segment 2
[06:28:15] mask dilate thread started for segment 3
[06:28:15] mask dilate thread started for segment 4
[06:28:15] mask dilate thread started for segment 5
[06:28:15] mask dilate thread started for segment 6
[06:28:15] mask dilate thread started for segment 7
[06:28:15] yadif thread started for segment 0
[06:28:15] yadif thread started for segment 1
[06:28:15] yadif thread started for segment 2
[06:28:15] yadif thread started for segment 3
[06:28:15] yadif thread started for segment 4
[06:28:15] yadif thread started for segment 5
[06:28:15] yadif thread started for segment 6
[06:28:15] yadif thread started for segment 7
[06:28:15] job configuration:
[06:28:15] * source
[06:28:15] + /Users/peterscott/Desktop/Assassin's Creed.mkv
[06:28:15] + title 1, chapter(s) 1 to 24
[06:28:15] + container: matroska,webm
[06:28:15] + data rate: 35594 kbps
[06:28:15] * destination
[06:28:15] + /Users/peterscott/Desktop/Assassin's Creed.m4v
[06:28:15] + container: MPEG-4 (libavformat)
[06:28:15] + chapter markers
[06:28:15] * video track
[06:28:15] + decoder: hevc
[06:28:15] + filters
[06:28:15] + Comb Detect (mode=3:spatial-metric=2:motion-thresh=1:spatial-thresh=1:filter-mode=2:block-thresh=40:block-width=16:block-height=16)
[06:28:15] + Decomb (mode=39)
[06:28:15] + Framerate Shaper (mode=2:rate=27000000/900000)
[06:28:15] + frame rate: 23.976 fps -> peak rate limited to 30.000 fps
[06:28:15] + Subtitle renderer ()
[06:28:15] + Crop and Scale (width=1920:height=1080:crop-top=276:crop-bottom=276:crop-left=0:crop-right=0)
[06:28:15] + source: 3840 * 2160, crop (276/276/0/0): 3840 * 1608, scale: 1920 * 1080
[06:28:15] + Output geometry
[06:28:15] + storage dimensions: 1920 x 1080
[06:28:15] + pixel aspect ratio: 90 : 67
[06:28:15] + display dimensions: 2579 x 1080
[06:28:15] + encoder: H.264 (libx264)
[06:28:15] + preset: medium
[06:28:15] + profile: high
[06:28:15] + level: 4.0
[06:28:15] + quality: 22.00 (RF)
[06:28:15] + color profile: 9-16-9
[06:28:15] * subtitle track 1, English [PGS] (track 0, id 0x2, Picture) -> Render/Burn-in, Forced Only
[06:28:15] * audio track 1
[06:28:15] + decoder: English (AC3) (5.1 ch) (track 1, id 0x1)
[06:28:15] + bitrate: 640 kbps, samplerate: 48000 Hz
[06:28:15] + mixdown: Stereo
[06:28:15] + dither: triangular
[06:28:15] + encoder: AAC (Apple AudioToolbox)
[06:28:15] + bitrate: 160 kbps, samplerate: 48000 Hz
[06:28:15] sync: expecting 166176 video frames
[06:28:15] encx264: min-keyint: 24, keyint: 240
[06:28:15] encx264: encoding at constant RF 22.000000
[06:28:15] encx264: unparsed options: level=4.0:vbv-bufsize=31250:vbv-maxrate=25000
x264 [info]: using SAR=90/67
x264 [info]: using cpu capabilities: MMX2 SSE2Fast SSSE3 SSE4.2 AVX FMA3 BMI2 AVX2
x264 [info]: profile High, level 4.0, 4:2:0, 8-bit
[06:28:16] sync: first pts video is 0
[06:28:16] sync: "Chapter 1" (1) at frame 1 time 0
[06:28:16] sync: first pts audio 0x1 is 0
[06:30:06] sync: first pts subtitle 0x2 is 10367820
[06:35:28] sync: "Chapter 2" (2) at frame 8731 time 32770237
[06:39:27] sync: "Chapter 3" (3) at frame 13737 time 51561510
[06:43:18] sync: "Chapter 4" (4) at frame 18403 time 69076507
[06:47:43] sync: "Chapter 5" (5) at frame 24167 time 90713122
[06:53:06] sync: "Chapter 6" (6) at frame 30389 time 114068955
[07:01:10] sync: "Chapter 7" (7) at frame 38755 time 145472827
[07:06:21] sync: "Chapter 8" (8) at frame 45914 time 172345923
[07:13:14] sync: "Chapter 9" (9) at frame 54817 time 205765560
[07:17:09] sync: "Chapter 10" (10) at frame 60022 time 225303828
[07:22:56] sync: "Chapter 11" (11) at frame 66972 time 251392391
[07:28:03] sync: "Chapter 12" (12) at frame 72169 time 270900630
[07:32:07] sync: "Chapter 13" (13) at frame 76350 time 286595058
[07:36:35] sync: "Chapter 14" (14) at frame 80988 time 304004951
[07:40:25] sync: "Chapter 15" (15) at frame 85511 time 320983162
[07:43:39] sync: "Chapter 16" (16) at frame 89978 time 337751163
[07:47:39] sync: "Chapter 17" (17) at frame 95827 time 359706847
[07:55:17] sync: "Chapter 18" (18) at frame 105225 time 394980862
[08:02:03] sync: "Chapter 19" (19) at frame 113314 time 425344946
[08:06:45] sync: "Chapter 20" (20) at frame 119423 time 448276605
[08:15:23] sync: "Chapter 21" (21) at frame 129897 time 487593382
[08:19:47] sync: "Chapter 22" (22) at frame 135662 time 509233751
[08:23:28] sync: "Chapter 23" (23) at frame 140619 time 527841090
[08:26:55] sync: "Chapter 24" (24) at frame 145079 time 544582815
[08:36:57] reader: done. 1 scr changes
[08:36:59] work: average encoding speed for job is 21.512396 fps
[08:37:00] comb detect: heavy 29698 | light 12287 | uncombed 124192 | total 166177
[08:37:00] decomb: deinterlaced 29698 | blended 12287 | unfiltered 124192 | total 166177
[08:37:00] vfr: 166177 frames output, 0 dropped and 0 duped for CFR/PFR
[08:37:00] vfr: lost time: 0 (0 frames)
[08:37:00] vfr: gained time: 0 (0 frames) (0 not accounted for)
[08:37:00] ac3-decoder done: 216592 frames, 0 decoder errors
[08:37:00] hevc-decoder done: 166177 frames, 0 decoder errors
[08:37:00] sync: got 166177 frames, 166176 expected
[08:37:00] sync: framerate min 23.981 fps, max 47.619 fps, avg 23.976 fps
x264 [info]: frame I:2535 Avg QP:17.60 size: 57211
x264 [info]: frame P:67659 Avg QP:20.33 size: 14815
x264 [info]: frame B:95983 Avg QP:21.96 size: 6882
x264 [info]: consecutive B-frames: 22.1% 1.6% 3.2% 73.1%
x264 [info]: mb I I16..4: 23.0% 64.9% 12.1%
x264 [info]: mb P I16..4: 3.8% 7.8% 0.3% P16..4: 33.8% 4.4% 4.7% 0.0% 0.0% skip:45.1%
x264 [info]: mb B I16..4: 0.3% 0.7% 0.0% B16..8: 33.9% 1.5% 0.2% direct: 1.4% skip:62.0% L0:45.2% L1:53.3% BI: 1.5%
x264 [info]: 8x8 transform intra:65.1% inter:92.4%
x264 [info]: coded y,uvDC,uvAC intra: 35.5% 33.1% 4.4% inter: 8.6% 11.7% 0.0%
x264 [info]: i16 v,h,dc,p: 36% 19% 7% 38%
x264 [info]: i8 v,h,dc,ddl,ddr,vr,hd,vl,hu: 27% 13% 31% 4% 5% 6% 4% 5% 4%
x264 [info]: i4 v,h,dc,ddl,ddr,vr,hd,vl,hu: 38% 16% 16% 5% 7% 7% 5% 4% 2%
x264 [info]: i8c dc,h,v,p: 71% 12% 16% 1%
x264 [info]: Weighted P-Frames: Y:6.1% UV:1.4%
x264 [info]: ref P L0: 59.1% 8.8% 21.2% 10.4% 0.5%
x264 [info]: ref B L0: 84.6% 12.7% 2.7%
x264 [info]: ref B L1: 93.1% 6.9%
x264 [info]: kb/s:2086.86
[08:37:00] mux: track 0, 166177 frames, 1807890978 bytes, 2086.73 kbps, fifo 8192
[08:37:00] mux: track 1, 324891 frames, 141978698 bytes, 163.88 kbps, fifo 16384
[08:37:00] libhb: work result = 0

rollin_eng
Veteran User
Posts: 3141
Joined: Wed May 04, 2011 11:06 pm

Re: iPad Pro 11' 2019

Post by rollin_eng » Tue Jan 29, 2019 10:40 am

If you turn off cropping does it work?

Try encoding just a chapter instead of the whole movie as it will be quicker.

pgjscottie
Posts: 9
Joined: Wed Nov 26, 2014 11:13 am

Re: iPad Pro 11' 2019

Post by pgjscottie » Fri Feb 01, 2019 9:03 am

Took cropping off still will not produce a file that the iPad pro can play there is also no mention in Apple's spec of a 60 frame rate compatibility at all

AirPlay Mirroring, photos, audio and video out to Apple TV (2nd generation or later)
Supports Dolby Vision and HDR10 content
Video mirroring and video out support: Up to 4K through USB‑C Digital AV Multiport Adapter and USB‑C VGA Multiport Adapter (adapters sold separately)
Video formats supported: H.264 video up to 4K, 30 frames per second, High Profile level 4.2 with AAC‑LC audio up to 160 Kbps, 48kHz, stereo audio or Dolby Audio up to 1008 Kbps, 48kHz, stereo or multi-channel audio, in .m4v, .mp4 and .mov file formats; MPEG‑4 video up to 2.5 Mbps, 640x480 pixels, 30 frames per second, Simple Profile with AAC‑LC audio up to 160 Kbps per channel, 48kHz, stereo audio or Dolby Audio up to 1008 Kbps, 48kHz, stereo or multi-channel audio, in .m4v, .mp4 and .mov file formats; Motion JPEG (M‑JPEG) up to 35 Mbps, 1280x720 pixels, 30 frames per second, audio in ulaw, PCM stereo audio in .avi file format

rollin_eng
Veteran User
Posts: 3141
Joined: Wed May 04, 2011 11:06 pm

Re: iPad Pro 11' 2019

Post by rollin_eng » Fri Feb 01, 2019 9:11 am

Could you post your log please.

pgjscottie
Posts: 9
Joined: Wed Nov 26, 2014 11:13 am

Re: iPad Pro 11' 2019

Post by pgjscottie » Sat Feb 02, 2019 2:23 pm

I have resolved the problem by not using any presets going to general and selecting HQ 1080p 30 surround then modifying it to AAC stereo checking the high profile of 4.2 but thank for all your interest
The main problem i have my library is all in DTS-HD Master 5/7.1 or TrueHD in MKV these won't work as thee dolby surround track isn't present so i have to do a special file with movies for the iPad

Post Reply