AVI to MKV hugely reduces file size, normal?

General questions or discussion about HandBrake, Video and/or audio transcoding, trends etc.
Locked
alienred
Posts: 5
Joined: Thu Oct 11, 2018 11:44 pm

AVI to MKV hugely reduces file size, normal?

Post by alienred » Thu Oct 11, 2018 11:59 pm

When I convert an AVI to MKV it hugely reduces the file size. A 1gb+ file can go down to just 300mb+. The picture qualty seems to be the same though but I am worried because of the huge difference in size. Is this normal? I am converting animation videos using using Very Fast 1080p30 setting. Handbrake version 1.0.7, windows 7 32bit. Not this computer so I cannot add log file.

video.baba
Posts: 24
Joined: Sun May 24, 2015 11:12 am

Re: AVI to MKV hugely reduces file size, normal?

Post by video.baba » Fri Oct 12, 2018 9:37 am

I'm on a computer that can not supply answers so when you post the 'required' log file I'll go back on to the computer that supplies answers ;-)

User avatar
Ritsuka
HandBrake Team
Posts: 1000
Joined: Fri Jan 12, 2007 11:29 am

Re: AVI to MKV hugely reduces file size, normal?

Post by Ritsuka » Fri Oct 12, 2018 9:51 am

It depends, if the input file wasn't too compressed or used a much less efficient video format, yes.

alienred
Posts: 5
Joined: Thu Oct 11, 2018 11:44 pm

Re: AVI to MKV hugely reduces file size, normal?

Post by alienred » Fri Oct 12, 2018 11:47 am

HandBrake 1.0.7 (2017040900) - 32bit
OS: Microsoft Windows NT 6.1.7601 Service Pack 1 - 64bit
CPU: Intel(R) Core(TM) i5 CPU M 460 @ 2.53GHz
Ram: 3958 MB,
GPU Information:
AMD Mobility Radeon HD 5000 Series - 15.200.1062.1004
Screen: 1366x768
Temp Dir: C:\Users\Admin\AppData\Local\Temp\
Install Dir: C:\Program Files (x86)\HandBrake
Data Dir: C:\Users\Admin\AppData\Roaming\HandBrake Team\HandBrake\1.0.7.0

-------------------------------------------


# Starting Encode ...

[02:47:53] hb_init: starting libhb thread
[02:47:53] 1 job(s) to process
[02:47:53] json job:
{
"Audio": {
"AudioList": [
{
"Bitrate": 160,
"DRC": 0.0,
"Encoder": 65536,
"Gain": 0.0,
"Mixdown": 6,
"NormalizeMixLevel": false,
"Samplerate": 0,
"Track": 0,
"DitherMethod": 0
}
],
"CopyMask": [
1073807360,
1073743872,
1074003968,
1073750016,
1090519040,
1074790400,
1074266112,
1107296256
],
"FallbackEncoder": 2048
},
"Destination": {
"ChapterList": [
{
"Name": "Chapter 1"
}
],
"ChapterMarkers": true,
"File": "D:\\2B Handbraked\\Ferdinand.2017.PROPER.1080p.BluRay.H264.AAC-RARBG.mp4",
"Mp4Options": {
"IpodAtom": false,
"Mp4Optimize": false
},
"Mux": 131072
},
"Filters": {
"FilterList": [
{
"ID": 4,
"Settings": {
"mode": "7"
}
},
{
"ID": 3,
"Settings": {
"block-height": "16",
"block-thresh": "80",
"block-width": "16",
"filter-mode": "1",
"mode": "0",
"motion-thresh": "2",
"spatial-metric": "2",
"spatial-thresh": "3"
}
},
{
"ID": 11,
"Settings": {
"crop-bottom": "2",
"crop-left": "0",
"crop-right": "0",
"crop-top": "2",
"height": "804",
"width": "1920"
}
},
{
"ID": 6,
"Settings": {
"mode": "2",
"rate": "27000000/900000"
}
}
]
},
"PAR": {
"Num": 1,
"Den": 1
},
"Metadata": {},
"SequenceID": 0,
"Source": {
"Angle": 1,
"Range": {
"Type": "chapter",
"Start": 1,
"End": 1
},
"Title": 1,
"Path": "D:\\2B Handbraked\\MP4\\Ferdinand.2017.PROPER.1080p.BluRay.H264.AAC-RARBG.mp4"
},
"Subtitle": {
"Search": {
"Burn": true,
"Default": false,
"Enable": true,
"Forced": true
},
"SubtitleList": []
},
"Video": {
"Encoder": 65536,
"Level": "4.0",
"TwoPass": false,
"Turbo": false,
"ColorMatrixCode": 0,
"Options": "",
"Preset": "veryfast",
"Profile": "main",
"Quality": 24.0,
"OpenCL": false,
"HWDecode": false,
"QSV": {
"Decode": false,
"AsyncDepth": 0
}
}
}
[02:47:53] CPU: Intel(R) Core(TM) i5 CPU M 460 @ 2.53GHz
[02:47:53] - logical processor count: 4
[02:47:53] Intel Quick Sync Video support: no
[02:47:53] hb_scan: path=D:\2B Handbraked\MP4\Ferdinand.2017.PROPER.1080p.BluRay.H264.AAC-RARBG.mp4, title_index=1
udfread ERROR: ECMA 167 Volume Recognition failed
src/libbluray/disc/disc.c:274: failed opening UDF image D:\2B Handbraked\MP4\Ferdinand.2017.PROPER.1080p.BluRay.H264.AAC-RARBG.mp4
src/libbluray/disc/disc.c:352: error opening file BDMV\index.bdmv
src/libbluray/disc/disc.c:352: error opening file BDMV\BACKUP\index.bdmv
[02:47:53] bd: not a bd - trying as a stream/file instead
libdvdnav: Using dvdnav version 5.0.1
libdvdread: Encrypted DVD support unavailable.
libdvdread:DVDOpenFileUDF:UDFFindFile /VIDEO_TS/VIDEO_TS.IFO failed
libdvdread:DVDOpenFileUDF:UDFFindFile /VIDEO_TS/VIDEO_TS.BUP failed
libdvdread: Can't open file VIDEO_TS.IFO.
libdvdnav: vm: failed to read VIDEO_TS.IFO
[02:47:53] dvd: not a dvd - trying as a stream/file instead
Input #0, mov,mp4,m4a,3gp,3g2,mj2, from 'D:\2B Handbraked\MP4\Ferdinand.2017.PROPER.1080p.BluRay.H264.AAC-RARBG.mp4':
Metadata:
major_brand : isom
minor_version : 512
compatible_brands: isomiso2avc1mp41
creation_time : 2018-02-27 12:00:33
title : Ferdinand.2017.PROPER.1080p.BluRay.H264.AAC-RARBG
encoder : Lavf57.83.100
comment : Ferdinand.2017.PROPER.1080p.BluRay.H264.AAC-RARBG
Duration: 01:48:05.62, start: 0.042667, bitrate: 2730 kb/s
Stream #0:0(und): Video: h264 (High) [avc1 / 0x31637661]
yuv420p, 1920x808 [PAR 1:1 DAR 240:101], 2499 kb/s, PAR 1:1 DAR 240:101
23.98 fps, 11988 tbn (default)
Metadata:
creation_time : 2018-02-27 12:00:33
handler_name : VideoHandler
Stream #0:1(eng): Audio: aac (LC) [mp4a / 0x6134706D]
48000 Hz, 5.1, fltp, 224 kb/s (default)
Metadata:
creation_time : 2018-02-27 12:00:33
handler_name : SoundHandler
[02:47:53] scan: decoding previews for title 1
[02:47:53] scan: audio 0x1: aac, rate=48000Hz, bitrate=224000 English (AAC) (5.1 ch)
[02:47:54] scan: 10 previews, 1920x808, 23.976 fps, autocrop = 2/2/0/0, aspect 2.38:1, PAR 1:1
[02:47:54] scan: supported video decoders: avcodec qsv
[02:47:54] libhb: scan thread found 1 valid title(s)
[02:47:54] Skipping subtitle scan. No suitable subtitle tracks.
[02:47:54] starting job
[02:47:54] decomb filter thread started for segment 0
[02:47:54] decomb filter thread started for segment 1
[02:47:54] decomb filter thread started for segment 2
[02:47:54] decomb filter thread started for segment 3
[02:47:54] decomb check thread started for segment 0
[02:47:54] decomb check thread started for segment 2
[02:47:54] decomb check thread started for segment 1
[02:47:54] decomb check thread started for segment 3
[02:47:54] yadif thread started for segment 0
[02:47:54] yadif thread started for segment 1
[02:47:54] yadif thread started for segment 2
[02:47:54] work: track 1, dithering not supported by codec
[02:47:54] yadif thread started for segment 3
[02:47:54] work: only 1 chapter, disabling chapter markers
[02:47:54] job configuration:
[02:47:54] * source
[02:47:54] + D:\2B Handbraked\MP4\Ferdinand.2017.PROPER.1080p.BluRay.H264.AAC-RARBG.mp4
[02:47:54] + title 1, chapter(s) 1 to 1
[02:47:54] + container: mov,mp4,m4a,3gp,3g2,mj2
[02:47:54] + data rate: 2730 kbps
[02:47:54] * destination
[02:47:54] + D:\2B Handbraked\Ferdinand.2017.PROPER.1080p.BluRay.H264.AAC-RARBG.mp4
[02:47:54] + container: MPEG-4 (libavformat)
[02:47:54] * video track
[02:47:54] + decoder: h264
[02:47:54] + bitrate 2499 kbps
[02:47:54] + filters
[02:47:54] + Comb Detect (mode=0:spatial-metric=2:motion-thresh=2:spatial-thresh=3:filter-mode=1:block-thresh=80:block-width=16:block-height=16)
[02:47:54] + Decomb (mode=39)
[02:47:54] + Framerate Shaper (mode=2:rate=27000000/900000)
[02:47:54] + frame rate: 23.976 fps -> peak rate limited to 30.000 fps
[02:47:54] + Crop and Scale (width=1920:height=804:crop-top=2:crop-bottom=2:crop-left=0:crop-right=0)
[02:47:54] + source: 1920 * 808, crop (2/2/0/0): 1920 * 804, scale: 1920 * 804
[02:47:54] + Output geometry
[02:47:54] + storage dimensions: 1920 x 804
[02:47:54] + pixel aspect ratio: 1 : 1
[02:47:54] + display dimensions: 1920 x 804
[02:47:54] + encoder: H.264 (libx264)
[02:47:54] + preset: veryfast
[02:47:54] + profile: main
[02:47:54] + level: 4.0
[02:47:54] + quality: 24.00 (RF)
[02:47:54] * audio track 1
[02:47:54] + decoder: English (AAC) (5.1 ch) (track 1, id 0x1)
[02:47:54] + bitrate: 224 kbps, samplerate: 48000 Hz
[02:47:54] + mixdown: Dolby Pro Logic II
[02:47:54] + encoder: AAC (libavcodec)
[02:47:54] + bitrate: 160 kbps, samplerate: 48000 Hz
[02:47:54] sync: expecting 155499 video frames
[02:47:54] encx264: min-keyint: 24, keyint: 240
[02:47:54] encx264: encoding at constant RF 24.000000
[02:47:54] encx264: unparsed options: level=4.0:mixed-refs=0:trellis=0:ref=1:8x8dct=0:subme=2:weightp=1:vbv-bufsize=25000:vbv-maxrate=20000:rc-lookahead=10
x264 [info]: using SAR=1/1
x264 [info]: using cpu capabilities: MMX2 SSE2Fast SSSE3 SSE4.2
x264 [info]: profile Main, level 4.0
[02:47:54] sync: first pts audio 0x1 is 0
[02:47:54] sync: first pts video is 3840
[02:47:54] sync: "Chapter 1" (1) at frame 1 time 3840
[04:16:09] reader: done. 1 scr changes
[04:16:10] work: average encoding speed for job is 29.356848 fps
[04:16:10] comb detect: heavy 1154 | light 8799 | uncombed 145545 | total 155498
[04:16:10] decomb: deinterlaced 1154 | blended 8799 | unfiltered 145545 | total 155498
[04:16:10] vfr: 155498 frames output, 0 dropped and 0 duped for CFR/PFR
[04:16:10] vfr: lost time: 0 (0 frames)
[04:16:10] vfr: gained time: 0 (0 frames) (0 not accounted for)
[04:16:10] aac-decoder done: 304014 frames, 0 decoder errors
[04:16:10] h264-decoder done: 155498 frames, 0 decoder errors
[04:16:10] sync: got 155498 frames, 155499 expected
[04:16:10] sync: framerate min 23.981 fps, max 23.981 fps, avg 23.976 fps
x264 [info]: frame I:2104 Avg QP:19.35 size: 83144
x264 [info]: frame P:47594 Avg QP:22.49 size: 15913
x264 [info]: frame B:105800 Avg QP:24.87 size: 3929
x264 [info]: consecutive B-frames: 5.7% 8.9% 6.0% 79.5%
x264 [info]: mb I I16..4: 54.5% 0.0% 45.5%
x264 [info]: mb P I16..4: 18.1% 0.0% 2.3% P16..4: 23.0% 9.0% 3.3% 0.0% 0.0% skip:44.3%
x264 [info]: mb B I16..4: 2.2% 0.0% 0.2% B16..8: 10.6% 2.9% 0.2% direct: 2.9% skip:81.1% L0:41.0% L1:50.1% BI: 8.9%
x264 [info]: coded y,uvDC,uvAC intra: 21.7% 42.1% 9.5% inter: 3.7% 7.6% 0.3%
x264 [info]: i16 v,h,dc,p: 37% 34% 18% 12%
x264 [info]: i4 v,h,dc,ddl,ddr,vr,hd,vl,hu: 24% 24% 22% 5% 5% 5% 6% 4% 4%
x264 [info]: i8c dc,h,v,p: 51% 25% 19% 4%
x264 [info]: Weighted P-Frames: Y:1.4% UV:1.0%
x264 [info]: kb/s:1662.75
[04:16:11] mux: track 0, 155498 frames, 1347920457 bytes, 1662.65 kbps, fifo 4096
[04:16:11] mux: track 1, 304014 frames, 130809965 bytes, 161.35 kbps, fifo 8192
[04:16:11] libhb: work result = 0

# Encode Completed ...

alienred
Posts: 5
Joined: Thu Oct 11, 2018 11:44 pm

Re: AVI to MKV hugely reduces file size, normal?

Post by alienred » Fri Oct 12, 2018 11:48 am

HandBrake 1.0.7 (2017040900) - 32bit
OS: Microsoft Windows NT 6.1.7601 Service Pack 1 - 64bit
CPU: Intel(R) Core(TM) i5 CPU M 460 @ 2.53GHz
Ram: 3958 MB,
GPU Information:
AMD Mobility Radeon HD 5000 Series - 15.200.1062.1004
Screen: 1366x768
Temp Dir: C:\Users\Admin\AppData\Local\Temp\
Install Dir: C:\Program Files (x86)\HandBrake
Data Dir: C:\Users\Admin\AppData\Roaming\HandBrake Team\HandBrake\1.0.7.0

-------------------------------------------


# Starting Encode ...

[14:22:56] hb_init: starting libhb thread
[14:22:56] 1 job(s) to process
[14:22:56] json job:
{
"Audio": {
"AudioList": [
{
"Bitrate": 160,
"DRC": 0.0,
"Encoder": 65536,
"Gain": 0.0,
"Mixdown": 4,
"NormalizeMixLevel": false,
"Samplerate": 0,
"Track": 0,
"DitherMethod": 0
}
],
"CopyMask": [
1073807360,
1073743872,
1074003968,
1073750016,
1090519040,
1074790400,
1074266112,
1107296256
],
"FallbackEncoder": 2048
},
"Destination": {
"ChapterList": [
{
"Name": "Chapter 1"
}
],
"ChapterMarkers": true,
"File": "D:\\2B Handbraked\\- 4 NABERT CHRISTMAS\\Elf Bowling The Movie; The Great North Pole Elf Strike (2007).mkv",
"Mp4Options": {
"IpodAtom": false,
"Mp4Optimize": false
},
"Mux": 2097152
},
"Filters": {
"FilterList": [
{
"ID": 4,
"Settings": {
"mode": "7"
}
},
{
"ID": 3,
"Settings": {
"block-height": "16",
"block-thresh": "80",
"block-width": "16",
"filter-mode": "1",
"mode": "0",
"motion-thresh": "2",
"spatial-metric": "2",
"spatial-thresh": "3"
}
},
{
"ID": 11,
"Settings": {
"crop-bottom": "0",
"crop-left": "0",
"crop-right": "0",
"crop-top": "0",
"height": "320",
"width": "576"
}
},
{
"ID": 6,
"Settings": {
"mode": "2",
"rate": "27000000/900000"
}
}
]
},
"PAR": {
"Num": 1,
"Den": 1
},
"Metadata": {},
"SequenceID": 0,
"Source": {
"Angle": 1,
"Range": {
"Type": "chapter",
"Start": 1,
"End": 1
},
"Title": 1,
"Path": "D:\\2B Handbraked\\- 4 NABERT CHRISTMAS\\Elf Bowling The Movie; The Great North Pole Elf Strike (2007).avi"
},
"Subtitle": {
"Search": {
"Burn": true,
"Default": false,
"Enable": true,
"Forced": true
},
"SubtitleList": []
},
"Video": {
"Encoder": 65536,
"Level": "4.0",
"TwoPass": false,
"Turbo": false,
"ColorMatrixCode": 0,
"Options": "",
"Preset": "veryfast",
"Profile": "main",
"Quality": 24.0,
"OpenCL": false,
"HWDecode": false,
"QSV": {
"Decode": false,
"AsyncDepth": 0
}
}
}
[14:22:56] CPU: Intel(R) Core(TM) i5 CPU M 460 @ 2.53GHz
[14:22:56] - logical processor count: 4
[14:22:56] Intel Quick Sync Video support: no
[14:22:56] hb_scan: path=D:\2B Handbraked\- 4 NABERT CHRISTMAS\Elf Bowling The Movie; The Great North Pole Elf Strike (2007).avi, title_index=1
udfread ERROR: ECMA 167 Volume Recognition failed
src/libbluray/disc/disc.c:274: failed opening UDF image D:\2B Handbraked\- 4 NABERT CHRISTMAS\Elf Bowling The Movie; The Great North Pole Elf Strike (2007).avi
src/libbluray/disc/disc.c:352: error opening file BDMV\index.bdmv
src/libbluray/disc/disc.c:352: error opening file BDMV\BACKUP\index.bdmv
[14:22:56] bd: not a bd - trying as a stream/file instead
libdvdnav: Using dvdnav version 5.0.1
libdvdread: Encrypted DVD support unavailable.
libdvdread:DVDOpenFileUDF:UDFFindFile /VIDEO_TS/VIDEO_TS.IFO failed
libdvdread:DVDOpenFileUDF:UDFFindFile /VIDEO_TS/VIDEO_TS.BUP failed
libdvdread: Can't open file VIDEO_TS.IFO.
libdvdnav: vm: failed to read VIDEO_TS.IFO
[14:22:56] dvd: not a dvd - trying as a stream/file instead
Input #0, avi, from 'D:\2B Handbraked\- 4 NABERT CHRISTMAS\Elf Bowling The Movie; The Great North Pole Elf Strike (2007).avi':
Metadata:
encoder : VirtualDubMod 1.5.10.2 (build 2540/release)
IAS1 : English
Duration: 01:21:39.22, start: 0.000000, bitrate: 1197 kb/s
Stream #0:0: Video: mpeg4 (Advanced Simple Profile) [XVID / 0x44495658]
yuv420p, 576x320 [PAR 1:1 DAR 9:5]
23.98 fps, 23.98 tbn
Stream #0:1: Audio: mp3 [U[0][0][0] / 0x0055]
48000 Hz, 2 channels, s16p, 146 kb/s
[14:22:56] scan: decoding previews for title 1
[14:22:56] scan: audio 0x1: mp3, rate=48000Hz, bitrate=146424 Unknown (MP3) (2.0 ch)
[14:22:57] scan: 10 previews, 576x320, 23.976 fps, autocrop = 0/0/0/0, aspect 16:9, PAR 1:1
[14:22:57] libhb: scan thread found 1 valid title(s)
[14:22:57] Skipping subtitle scan. No suitable subtitle tracks.
[14:22:57] starting job
[14:22:57] decomb filter thread started for segment 0
[14:22:57] decomb filter thread started for segment 1
[14:22:57] decomb filter thread started for segment 2
[14:22:57] decomb filter thread started for segment 3
[14:22:57] decomb check thread started for segment 0
[14:22:57] decomb check thread started for segment 1
[14:22:57] decomb check thread started for segment 2
[14:22:57] decomb check thread started for segment 3
[14:22:57] yadif thread started for segment 0
[14:22:57] yadif thread started for segment 1
[14:22:57] yadif thread started for segment 2
[14:22:57] yadif thread started for segment 3
[14:22:57] work: track 1, dithering not supported by codec
[14:22:57] work: only 1 chapter, disabling chapter markers
[14:22:57] job configuration:
[14:22:57] * source
[14:22:57] + D:\2B Handbraked\- 4 NABERT CHRISTMAS\Elf Bowling The Movie; The Great North Pole Elf Strike (2007).avi
[14:22:57] + title 1, chapter(s) 1 to 1
[14:22:57] + container: avi
[14:22:57] + data rate: 1197 kbps
[14:22:57] * destination
[14:22:57] + D:\2B Handbraked\- 4 NABERT CHRISTMAS\Elf Bowling The Movie; The Great North Pole Elf Strike (2007).mkv
[14:22:57] + container: Matroska (libavformat)
[14:22:57] * video track
[14:22:57] + decoder: mpeg4
[14:22:57] + filters
[14:22:57] + Comb Detect (mode=0:spatial-metric=2:motion-thresh=2:spatial-thresh=3:filter-mode=1:block-thresh=80:block-width=16:block-height=16)
[14:22:57] + Decomb (mode=39)
[14:22:57] + Framerate Shaper (mode=2:rate=27000000/900000)
[14:22:57] + frame rate: 23.976 fps -> peak rate limited to 30.000 fps
[14:22:57] + Crop and Scale (width=576:height=320:crop-top=0:crop-bottom=0:crop-left=0:crop-right=0)
[14:22:57] + source: 576 * 320, crop (0/0/0/0): 576 * 320, scale: 576 * 320
[14:22:57] + Output geometry
[14:22:57] + storage dimensions: 576 x 320
[14:22:57] + pixel aspect ratio: 1 : 1
[14:22:57] + display dimensions: 576 x 320
[14:22:57] + encoder: H.264 (libx264)
[14:22:57] + preset: veryfast
[14:22:57] + profile: main
[14:22:57] + level: 4.0
[14:22:57] + quality: 24.00 (RF)
[14:22:57] * audio track 1
[14:22:57] + decoder: Unknown (MP3) (2.0 ch) (track 1, id 0x1)
[14:22:57] + bitrate: 146 kbps, samplerate: 48000 Hz
[14:22:57] + mixdown: Stereo
[14:22:57] + encoder: AAC (libavcodec)
[14:22:57] + bitrate: 160 kbps, samplerate: 48000 Hz
[14:22:57] sync: expecting 117464 video frames
[14:22:57] encx264: min-keyint: 24, keyint: 240
[14:22:57] encx264: encoding at constant RF 24.000000
[14:22:57] encx264: unparsed options: level=4.0:ref=1:rc-lookahead=10:8x8dct=0:weightp=1:subme=2:vbv-bufsize=25000:mixed-refs=0:trellis=0:vbv-maxrate=20000
x264 [info]: using SAR=1/1
x264 [info]: using cpu capabilities: MMX2 SSE2Fast SSSE3 SSE4.2
x264 [info]: profile Main, level 4.0
[14:22:57] sync: first pts video is 0
[14:22:57] sync: "Chapter 1" (1) at frame 1 time 0
[14:22:57] sync: first pts audio 0x1 is 0
[14:23:03] hb_init: starting libhb thread

# Starting Scan ...

[14:23:03] CPU: Intel(R) Core(TM) i5 CPU M 460 @ 2.53GHz
[14:23:03] - logical processor count: 4
[14:23:03] Intel Quick Sync Video support: no
[14:23:03] hb_scan: path=D:\2B Handbraked\- 4 NABERT WATCHED MOVIES + VIDEOS\Albert; Up, Up And Away (2016).avi, title_index=0
udfread ERROR: ECMA 167 Volume Recognition failed
src/libbluray/disc/disc.c:274: failed opening UDF image D:\2B Handbraked\- 4 NABERT WATCHED MOVIES + VIDEOS\Albert; Up, Up And Away (2016).avi
src/libbluray/disc/disc.c:352: error opening file BDMV\index.bdmv
src/libbluray/disc/disc.c:352: error opening file BDMV\BACKUP\index.bdmv
[14:23:03] bd: not a bd - trying as a stream/file instead
libdvdnav: Using dvdnav version 5.0.1
libdvdread: Encrypted DVD support unavailable.
libdvdread:DVDOpenFileUDF:UDFFindFile /VIDEO_TS/VIDEO_TS.IFO failed
libdvdread:DVDOpenFileUDF:UDFFindFile /VIDEO_TS/VIDEO_TS.BUP failed
libdvdread: Can't open file VIDEO_TS.IFO.
libdvdnav: vm: failed to read VIDEO_TS.IFO
[14:23:03] dvd: not a dvd - trying as a stream/file instead
Input #0, avi, from 'D:\2B Handbraked\- 4 NABERT WATCHED MOVIES + VIDEOS\Albert; Up, Up And Away (2016).avi':
Duration: 01:20:20.00, start: 0.000000, bitrate: 2399 kb/s
Stream #0:0: Video: mpeg4 (Advanced Simple Profile) [XVID / 0x44495658]
yuv420p, 720x304 [PAR 1:1 DAR 45:19]
24 fps, 24 tbn
Stream #0:1: Audio: ac3 [[0] [0][0] / 0x2000]
48000 Hz, 5.1, fltp, 384 kb/s
[14:23:04] scan: decoding previews for title 1
[14:23:06] scan: audio 0x1: ac3, rate=48000Hz, bitrate=384000 Unknown (AC3) (5.1 ch)
[14:23:06] scan: 10 previews, 720x304, 24.000 fps, autocrop = 0/0/0/0, aspect 2.37:1, PAR 1:1
[14:23:06] libhb: scan thread found 1 valid title(s)

# Scan Finished ...

[14:23:28] hb_init: starting libhb thread

# Starting Scan ...

[14:23:28] CPU: Intel(R) Core(TM) i5 CPU M 460 @ 2.53GHz
[14:23:28] - logical processor count: 4
[14:23:28] Intel Quick Sync Video support: no
[14:23:28] hb_scan: path=D:\2B Handbraked\- 4 NABERT WATCHED MOVIES + VIDEOS\Aliens In The Attic (2009).avi, title_index=0
udfread ERROR: ECMA 167 Volume Recognition failed
src/libbluray/disc/disc.c:274: failed opening UDF image D:\2B Handbraked\- 4 NABERT WATCHED MOVIES + VIDEOS\Aliens In The Attic (2009).avi
src/libbluray/disc/disc.c:352: error opening file BDMV\index.bdmv
src/libbluray/disc/disc.c:352: error opening file BDMV\BACKUP\index.bdmv
[14:23:28] bd: not a bd - trying as a stream/file instead
libdvdnav: Using dvdnav version 5.0.1
libdvdread: Encrypted DVD support unavailable.
libdvdread:DVDOpenFileUDF:UDFFindFile /VIDEO_TS/VIDEO_TS.IFO failed
libdvdread:DVDOpenFileUDF:UDFFindFile /VIDEO_TS/VIDEO_TS.BUP failed
libdvdread: Can't open file VIDEO_TS.IFO.
libdvdnav: vm: failed to read VIDEO_TS.IFO
[14:23:28] dvd: not a dvd - trying as a stream/file instead
Input #0, avi, from 'D:\2B Handbraked\- 4 NABERT WATCHED MOVIES + VIDEOS\Aliens In The Attic (2009).avi':
Metadata:
encoder : VirtualDubMod 1.5.10.2 (build 2540/release)
Duration: 01:25:48.18, start: 0.000000, bitrate: 1141 kb/s
Stream #0:0: Video: h264 (High) [h264 / 0x34363268]
yuv420p, 720x384 [PAR 1:1 DAR 15:8]
23.98 fps, 23.98 tbn
Stream #0:1: Audio: mp3 [U[0][0][0] / 0x0055]
48000 Hz, 2 channels, s16p, 128 kb/s
[14:23:29] scan: decoding previews for title 1
[14:23:30] scan: audio 0x1: mp3, rate=48000Hz, bitrate=128000 Unknown (MP3) (2.0 ch)
[14:23:30] scan: 10 previews, 720x384, 23.976 fps, autocrop = 0/0/0/0, aspect 16:9, PAR 1:1
[14:23:30] scan: supported video decoders: avcodec qsv
[14:23:30] libhb: scan thread found 1 valid title(s)

# Scan Finished ...

[14:23:48] hb_init: starting libhb thread

# Starting Scan ...

[14:23:48] CPU: Intel(R) Core(TM) i5 CPU M 460 @ 2.53GHz
[14:23:48] - logical processor count: 4
[14:23:48] Intel Quick Sync Video support: no
[14:23:48] hb_scan: path=D:\2B Handbraked\- 4 NABERT WATCHED MOVIES + VIDEOS\Alvin And The Chipmunks 1 (2007).avi, title_index=0
udfread ERROR: ECMA 167 Volume Recognition failed
src/libbluray/disc/disc.c:274: failed opening UDF image D:\2B Handbraked\- 4 NABERT WATCHED MOVIES + VIDEOS\Alvin And The Chipmunks 1 (2007).avi
src/libbluray/disc/disc.c:352: error opening file BDMV\index.bdmv
src/libbluray/disc/disc.c:352: error opening file BDMV\BACKUP\index.bdmv
[14:23:48] bd: not a bd - trying as a stream/file instead
libdvdnav: Using dvdnav version 5.0.1
libdvdread: Encrypted DVD support unavailable.
libdvdread:DVDOpenFileUDF:UDFFindFile /VIDEO_TS/VIDEO_TS.IFO failed
libdvdread:DVDOpenFileUDF:UDFFindFile /VIDEO_TS/VIDEO_TS.BUP failed
libdvdread: Can't open file VIDEO_TS.IFO.
libdvdnav: vm: failed to read VIDEO_TS.IFO
[14:23:48] dvd: not a dvd - trying as a stream/file instead
Input #0, avi, from 'D:\2B Handbraked\- 4 NABERT WATCHED MOVIES + VIDEOS\Alvin And The Chipmunks 1 (2007).avi':
Metadata:
encoder : VirtualDubMod 1.5.10.2 (build 2540/release)
Duration: 01:31:11.34, start: 0.000000, bitrate: 1073 kb/s
Stream #0:0: Video: mpeg4 (Advanced Real Time Simple Profile) [DX50 / 0x30355844]
yuv420p, 616x320 [PAR 1:1 DAR 77:40]
23.98 fps, 23.98 tbn
Stream #0:1: Audio: mp3 [U[0][0][0] / 0x0055]
48000 Hz, 2 channels, s16p, 128 kb/s
[14:23:49] scan: decoding previews for title 1
[14:23:50] scan: audio 0x1: mp3, rate=48000Hz, bitrate=128000 Unknown (MP3) (2.0 ch)
[14:23:50] scan: 10 previews, 616x320, 23.976 fps, autocrop = 0/0/0/0, aspect 1.93:1, PAR 1:1
[14:23:50] libhb: scan thread found 1 valid title(s)

# Scan Finished ...

[14:24:09] hb_init: starting libhb thread

# Starting Scan ...

[14:24:09] CPU: Intel(R) Core(TM) i5 CPU M 460 @ 2.53GHz
[14:24:09] - logical processor count: 4
[14:24:09] Intel Quick Sync Video support: no
[14:24:09] hb_scan: path=D:\2B Handbraked\- 4 NABERT WATCHED MOVIES + VIDEOS\Antz (1998).avi, title_index=0
udfread ERROR: ECMA 167 Volume Recognition failed
src/libbluray/disc/disc.c:274: failed opening UDF image D:\2B Handbraked\- 4 NABERT WATCHED MOVIES + VIDEOS\Antz (1998).avi
src/libbluray/disc/disc.c:352: error opening file BDMV\index.bdmv
src/libbluray/disc/disc.c:352: error opening file BDMV\BACKUP\index.bdmv
[14:24:09] bd: not a bd - trying as a stream/file instead
libdvdnav: Using dvdnav version 5.0.1
libdvdread: Encrypted DVD support unavailable.
libdvdread:DVDOpenFileUDF:UDFFindFile /VIDEO_TS/VIDEO_TS.IFO failed
libdvdread:DVDOpenFileUDF:UDFFindFile /VIDEO_TS/VIDEO_TS.BUP failed
libdvdread: Can't open file VIDEO_TS.IFO.
libdvdnav: vm: failed to read VIDEO_TS.IFO
[14:24:09] dvd: not a dvd - trying as a stream/file instead
Input #0, avi, from 'D:\2B Handbraked\- 4 NABERT WATCHED MOVIES + VIDEOS\Antz (1998).avi':
Duration: 01:19:30.32, start: 0.000000, bitrate: 1320 kb/s
Stream #0:0: Video: mpeg4 (Simple Profile) [XVID / 0x44495658]
yuv420p, 640x360 [PAR 1:1 DAR 16:9]
25 fps, 25 tbn
Stream #0:1: Audio: mp3 [U[0][0][0] / 0x0055]
44100 Hz, 2 channels, s16p, 128 kb/s
[14:24:10] scan: decoding previews for title 1
[14:24:11] scan: audio 0x1: mp3, rate=44100Hz, bitrate=128000 Unknown (MP3) (2.0 ch)
[14:24:11] scan: 10 previews, 640x360, 25.000 fps, autocrop = 0/0/2/2, aspect 16:9, PAR 1:1
[14:24:11] libhb: scan thread found 1 valid title(s)

# Scan Finished ...

[14:24:48] hb_init: starting libhb thread

# Starting Scan ...

[14:24:48] CPU: Intel(R) Core(TM) i5 CPU M 460 @ 2.53GHz
[14:24:48] - logical processor count: 4
[14:24:48] Intel Quick Sync Video support: no
[14:24:48] hb_scan: path=D:\2B Handbraked\- 4 NABERT WATCHED MOVIES + VIDEOS\Astro Boy (2009).avi, title_index=0
udfread ERROR: ECMA 167 Volume Recognition failed
src/libbluray/disc/disc.c:274: failed opening UDF image D:\2B Handbraked\- 4 NABERT WATCHED MOVIES + VIDEOS\Astro Boy (2009).avi
src/libbluray/disc/disc.c:352: error opening file BDMV\index.bdmv
src/libbluray/disc/disc.c:352: error opening file BDMV\BACKUP\index.bdmv
[14:24:48] bd: not a bd - trying as a stream/file instead
libdvdnav: Using dvdnav version 5.0.1
libdvdread: Encrypted DVD support unavailable.
libdvdread:DVDOpenFileUDF:UDFFindFile /VIDEO_TS/VIDEO_TS.IFO failed
libdvdread:DVDOpenFileUDF:UDFFindFile /VIDEO_TS/VIDEO_TS.BUP failed
libdvdread: Can't open file VIDEO_TS.IFO.
libdvdnav: vm: failed to read VIDEO_TS.IFO
[14:24:48] dvd: not a dvd - trying as a stream/file instead
Input #0, avi, from 'D:\2B Handbraked\- 4 NABERT WATCHED MOVIES + VIDEOS\Astro Boy (2009).avi':
Metadata:
encoder : VirtualDubMod 1.5.10.2 (build 2542/release)
Duration: 01:33:48.62, start: 0.000000, bitrate: 1044 kb/s
[14:24:49] scan: decoding previews for title 1
[14:24:50] scan: audio 0x1: mp3, rate=48000Hz, bitrate=144624 Unknown (MP3) (2.0 ch)
[14:24:50] scan: 10 previews, 640x272, 23.976 fps, autocrop = 0/0/0/0, aspect 2.35:1, PAR 1:1
[14:24:50] libhb: scan thread found 1 valid title(s)

# Scan Finished ...

[14:25:08] hb_init: starting libhb thread

# Starting Scan ...

[14:25:08] CPU: Intel(R) Core(TM) i5 CPU M 460 @ 2.53GHz
[14:25:08] - logical processor count: 4
[14:25:08] Intel Quick Sync Video support: no
[14:25:08] hb_scan: path=D:\2B Handbraked\- 4 NABERT WATCHED MOVIES + VIDEOS\Ballerina - Leap! (2016).avi, title_index=0
udfread ERROR: ECMA 167 Volume Recognition failed
src/libbluray/disc/disc.c:274: failed opening UDF image D:\2B Handbraked\- 4 NABERT WATCHED MOVIES + VIDEOS\Ballerina - Leap! (2016).avi
src/libbluray/disc/disc.c:352: error opening file BDMV\index.bdmv
src/libbluray/disc/disc.c:352: error opening file BDMV\BACKUP\index.bdmv
[14:25:08] bd: not a bd - trying as a stream/file instead
libdvdnav: Using dvdnav version 5.0.1
libdvdread: Encrypted DVD support unavailable.
libdvdread:DVDOpenFileUDF:UDFFindFile /VIDEO_TS/VIDEO_TS.IFO failed
libdvdread:DVDOpenFileUDF:UDFFindFile /VIDEO_TS/VIDEO_TS.BUP failed
libdvdread: Can't open file VIDEO_TS.IFO.
libdvdnav: vm: failed to read VIDEO_TS.IFO
[14:25:08] dvd: not a dvd - trying as a stream/file instead
Input #0, avi, from 'D:\2B Handbraked\- 4 NABERT WATCHED MOVIES + VIDEOS\Ballerina - Leap! (2016).avi':
Duration: 01:29:33.87, start: 0.000000, bitrate: 2222 kb/s
Stream #0:0: Video: mpeg4 (Advanced Simple Profile) [XVID / 0x44495658]
yuv420p, 720x304 [PAR 1:1 DAR 45:19]
24 fps, 24 tbn
Stream #0:1: Audio: ac3 [[0] [0][0] / 0x2000]
48000 Hz, 5.1, fltp, 384 kb/s
[14:25:10] scan: decoding previews for title 1
[14:25:11] scan: audio 0x1: ac3, rate=48000Hz, bitrate=384000 Unknown (AC3) (5.1 ch)
[14:25:11] scan: 10 previews, 720x304, 24.000 fps, autocrop = 0/0/0/0, aspect 2.37:1, PAR 1:1
[14:25:11] libhb: scan thread found 1 valid title(s)

# Scan Finished ...

[14:25:29] hb_init: starting libhb thread

# Starting Scan ...

[14:25:29] CPU: Intel(R) Core(TM) i5 CPU M 460 @ 2.53GHz
[14:25:29] - logical processor count: 4
[14:25:29] Intel Quick Sync Video support: no
[14:25:29] hb_scan: path=D:\2B Handbraked\- 4 NABERT WATCHED MOVIES + VIDEOS\Big Buck Bunny (2008) (Short).avi, title_index=0
udfread ERROR: ECMA 167 Volume Recognition failed
src/libbluray/disc/disc.c:274: failed opening UDF image D:\2B Handbraked\- 4 NABERT WATCHED MOVIES + VIDEOS\Big Buck Bunny (2008) (Short).avi
src/libbluray/disc/disc.c:352: error opening file BDMV\index.bdmv
src/libbluray/disc/disc.c:352: error opening file BDMV\BACKUP\index.bdmv
[14:25:29] bd: not a bd - trying as a stream/file instead
libdvdnav: Using dvdnav version 5.0.1
libdvdread: Encrypted DVD support unavailable.
libdvdread:DVDOpenFileUDF:UDFFindFile /VIDEO_TS/VIDEO_TS.IFO failed
libdvdread:DVDOpenFileUDF:UDFFindFile /VIDEO_TS/VIDEO_TS.BUP failed
libdvdread: Can't open file VIDEO_TS.IFO.
libdvdnav: vm: failed to read VIDEO_TS.IFO
[14:25:29] dvd: not a dvd - trying as a stream/file instead
Input #0, avi, from 'D:\2B Handbraked\- 4 NABERT WATCHED MOVIES + VIDEOS\Big Buck Bunny (2008) (Short).avi':
Metadata:
encoder : AVI-Mux GUI 1.17.7, Aug 8 2006 20:59:17
JUNK :
Duration: 00:09:56.45, start: 0.000000, bitrate: 2462 kb/s
Stream #0:0: Video: mpeg4 (Advanced Simple Profile) [XVID / 0x44495658]
yuv420p, 720x400 [PAR 1:1 DAR 9:5]
24 fps, 24 tbn
Stream #0:1: Audio: ac3 [[0] [0][0] / 0x2000]
48000 Hz, 5.1, fltp, 384 kb/s
Metadata:
title : Big.Buck.Bunny
[14:25:30] scan: decoding previews for title 1
[14:25:30] scan: audio 0x1: ac3, rate=48000Hz, bitrate=384000 Unknown (AC3) (5.1 ch)
[14:25:30] scan: 10 previews, 720x400, 24.000 fps, autocrop = 0/0/0/0, aspect 16:9, PAR 1:1
[14:25:30] libhb: scan thread found 1 valid title(s)

# Scan Finished ...

[14:25:48] hb_init: starting libhb thread

# Starting Scan ...

[14:25:48] CPU: Intel(R) Core(TM) i5 CPU M 460 @ 2.53GHz
[14:25:48] - logical processor count: 4
[14:25:48] Intel Quick Sync Video support: no
[14:25:48] hb_scan: path=D:\2B Handbraked\- 4 NABERT WATCHED MOVIES + VIDEOS\Bob the Builder; Big Dino Dig (2011).avi, title_index=0
udfread ERROR: ECMA 167 Volume Recognition failed
src/libbluray/disc/disc.c:274: failed opening UDF image D:\2B Handbraked\- 4 NABERT WATCHED MOVIES + VIDEOS\Bob the Builder; Big Dino Dig (2011).avi
src/libbluray/disc/disc.c:352: error opening file BDMV\index.bdmv
src/libbluray/disc/disc.c:352: error opening file BDMV\BACKUP\index.bdmv
[14:25:48] bd: not a bd - trying as a stream/file instead
libdvdnav: Using dvdnav version 5.0.1
libdvdread: Encrypted DVD support unavailable.
libdvdread:DVDOpenFileUDF:UDFFindFile /VIDEO_TS/VIDEO_TS.IFO failed
libdvdread:DVDOpenFileUDF:UDFFindFile /VIDEO_TS/VIDEO_TS.BUP failed
libdvdread: Can't open file VIDEO_TS.IFO.
libdvdnav: vm: failed to read VIDEO_TS.IFO
[14:25:48] dvd: not a dvd - trying as a stream/file instead
Input #0, avi, from 'D:\2B Handbraked\- 4 NABERT WATCHED MOVIES + VIDEOS\Bob the Builder; Big Dino Dig (2011).avi':
Metadata:
encoder : MEncoder version 4.0.0 building on 20100917
Duration: 01:00:44.67, start: 0.000000, bitrate: 1608 kb/s
Stream #0:0: Video: mpeg4 (Simple Profile) [DX50 / 0x30355844]
yuv420p, 720x404 [PAR 1:1 DAR 180:101], PAR 413696:413685 DAR 16384:9193
29.97 fps, 29.97 tbn
Stream #0:1: Audio: ac3 [[0] [0][0] / 0x2000]
48000 Hz, stereo, fltp, 256 kb/s
[14:25:48] scan: decoding previews for title 1
[14:25:48] scan: audio 0x1: ac3, rate=48000Hz, bitrate=256000 Unknown (AC3) (2.0 ch)
[14:25:49] scan: 10 previews, 720x404, 29.970 fps, autocrop = 0/0/0/0, aspect 16:9, PAR 1:1
[14:25:49] libhb: scan thread found 1 valid title(s)

# Scan Finished ...

[14:26:05] hb_init: starting libhb thread

# Starting Scan ...

[14:26:05] CPU: Intel(R) Core(TM) i5 CPU M 460 @ 2.53GHz
[14:26:05] - logical processor count: 4
[14:26:05] Intel Quick Sync Video support: no
[14:26:05] hb_scan: path=D:\2B Handbraked\- 4 NABERT WATCHED MOVIES + VIDEOS\Candy Land; The Great Lollipop Adventure (2005).avi, title_index=0
udfread ERROR: ECMA 167 Volume Recognition failed
src/libbluray/disc/disc.c:274: failed opening UDF image D:\2B Handbraked\- 4 NABERT WATCHED MOVIES + VIDEOS\Candy Land; The Great Lollipop Adventure (2005).avi
src/libbluray/disc/disc.c:352: error opening file BDMV\index.bdmv
src/libbluray/disc/disc.c:352: error opening file BDMV\BACKUP\index.bdmv
[14:26:05] bd: not a bd - trying as a stream/file instead
libdvdnav: Using dvdnav version 5.0.1
libdvdread: Encrypted DVD support unavailable.
libdvdread:DVDOpenFileUDF:UDFFindFile /VIDEO_TS/VIDEO_TS.IFO failed
libdvdread:DVDOpenFileUDF:UDFFindFile /VIDEO_TS/VIDEO_TS.BUP failed
libdvdread: Can't open file VIDEO_TS.IFO.
libdvdnav: vm: failed to read VIDEO_TS.IFO
[14:26:05] dvd: not a dvd - trying as a stream/file instead
Input #0, avi, from 'D:\2B Handbraked\- 4 NABERT WATCHED MOVIES + VIDEOS\Candy Land; The Great Lollipop Adventure (2005).avi':
Metadata:
encoder : MEncoder SVN-r22963
Duration: 00:57:48.56, start: 0.000000, bitrate: 1292 kb/s
Stream #0:0: Video: mpeg4 (Simple Profile) [XVID / 0x44495658]
yuv420p, 362x272 [PAR 1:1 DAR 181:136]
29.97 fps, 29.97 tbn
Stream #0:1: Audio: mp3 [U[0][0][0] / 0x0055]
44100 Hz, 2 channels, s16p, 128 kb/s
[14:26:06] scan: decoding previews for title 1
[mp3 @ 077ed6c0] Header missing
[mp3 @ 077ed6c0] Header missing
[14:26:06] scan: audio 0x1: mp3, rate=44100Hz, bitrate=128000 Unknown (MP3) (2.0 ch)
[14:26:06] scan: 10 previews, 362x272, 29.970 fps, autocrop = 0/0/0/2, aspect 1.33:1, PAR 1:1
[14:26:06] libhb: scan thread found 1 valid title(s)

# Scan Finished ...

[14:26:24] hb_init: starting libhb thread

# Starting Scan ...

[14:26:24] CPU: Intel(R) Core(TM) i5 CPU M 460 @ 2.53GHz
[14:26:24] - logical processor count: 4
[14:26:24] Intel Quick Sync Video support: no
[14:26:24] hb_scan: path=D:\2B Handbraked\- 4 NABERT WATCHED MOVIES + VIDEOS\Capture the Flag (2015).avi, title_index=0
udfread ERROR: ECMA 167 Volume Recognition failed
src/libbluray/disc/disc.c:274: failed opening UDF image D:\2B Handbraked\- 4 NABERT WATCHED MOVIES + VIDEOS\Capture the Flag (2015).avi
src/libbluray/disc/disc.c:352: error opening file BDMV\index.bdmv
src/libbluray/disc/disc.c:352: error opening file BDMV\BACKUP\index.bdmv
[14:26:24] bd: not a bd - trying as a stream/file instead
libdvdnav: Using dvdnav version 5.0.1
libdvdread: Encrypted DVD support unavailable.
libdvdread:DVDOpenFileUDF:UDFFindFile /VIDEO_TS/VIDEO_TS.IFO failed
libdvdread:DVDOpenFileUDF:UDFFindFile /VIDEO_TS/VIDEO_TS.BUP failed
libdvdread: Can't open file VIDEO_TS.IFO.
libdvdnav: vm: failed to read VIDEO_TS.IFO
[14:26:24] dvd: not a dvd - trying as a stream/file instead
Input #0, avi, from 'D:\2B Handbraked\- 4 NABERT WATCHED MOVIES + VIDEOS\Capture the Flag (2015).avi':
Metadata:
encoder : AVI-Mux GUI 1.17.8.3, Feb 16 201019:42:50
JUNK :
Duration: 01:34:34.24, start: 0.000000, bitrate: 2103 kb/s
Stream #0:0: Video: mpeg4 (Simple Profile) [XVID / 0x44495658]
yuv420p, 720x304 [PAR 1:1 DAR 45:19]
23.98 fps, 23.98 tbn
[14:26:26] scan: decoding previews for title 1
[14:26:27] scan: audio 0x1: ac3, rate=48000Hz, bitrate=448000 Unknown (AC3) (5.1 ch)
[14:26:27] scan: 10 previews, 720x304, 23.976 fps, autocrop = 0/0/0/0, aspect 2.37:1, PAR 1:1
[14:26:27] libhb: scan thread found 1 valid title(s)

# Scan Finished ...

[14:26:49] hb_init: starting libhb thread

# Starting Scan ...

[14:26:49] CPU: Intel(R) Core(TM) i5 CPU M 460 @ 2.53GHz
[14:26:49] - logical processor count: 4
[14:26:49] Intel Quick Sync Video support: no
[14:26:49] hb_scan: path=D:\2B Handbraked\- 4 NABERT WATCHED MOVIES + VIDEOS\Cat In The Hat (2003).avi, title_index=0
udfread ERROR: ECMA 167 Volume Recognition failed
src/libbluray/disc/disc.c:274: failed opening UDF image D:\2B Handbraked\- 4 NABERT WATCHED MOVIES + VIDEOS\Cat In The Hat (2003).avi
src/libbluray/disc/disc.c:352: error opening file BDMV\index.bdmv
src/libbluray/disc/disc.c:352: error opening file BDMV\BACKUP\index.bdmv
[14:26:49] bd: not a bd - trying as a stream/file instead
libdvdnav: Using dvdnav version 5.0.1
libdvdread: Encrypted DVD support unavailable.
libdvdread:DVDOpenFileUDF:UDFFindFile /VIDEO_TS/VIDEO_TS.IFO failed
libdvdread:DVDOpenFileUDF:UDFFindFile /VIDEO_TS/VIDEO_TS.BUP failed
libdvdread: Can't open file VIDEO_TS.IFO.
libdvdnav: vm: failed to read VIDEO_TS.IFO
[14:26:49] dvd: not a dvd - trying as a stream/file instead
Input #0, avi, from 'D:\2B Handbraked\- 4 NABERT WATCHED MOVIES + VIDEOS\Cat In The Hat (2003).avi':
Metadata:
encoder : VirtualDubMod 1.5.10.2 (build 2540/release)
Duration: 01:18:24.04, start: 0.000000, bitrate: 1248 kb/s
Stream #0:0: Video: mpeg4 (Advanced Simple Profile) [XVID / 0x44495658]
yuv420p, 640x336 [PAR 1:1 DAR 40:21]
25 fps, 25 tbn
Stream #0:1: Audio: mp3 [U[0][0][0] / 0x0055]
48000 Hz, 2 channels, s16p, 196 kb/s
[14:26:50] scan: decoding previews for title 1
[14:26:50] scan: audio 0x1: mp3, rate=48000Hz, bitrate=196704 Unknown (MP3) (2.0 ch)
[14:26:51] scan: 10 previews, 640x336, 25.000 fps, autocrop = 0/0/0/0, aspect 1.90:1, PAR 1:1
[14:26:51] libhb: scan thread found 1 valid title(s)

# Scan Finished ...

[14:27:11] hb_init: starting libhb thread

# Starting Scan ...

[14:27:11] CPU: Intel(R) Core(TM) i5 CPU M 460 @ 2.53GHz
[14:27:11] - logical processor count: 4
[14:27:11] Intel Quick Sync Video support: no
[14:27:11] hb_scan: path=D:\2B Handbraked\- 4 NABERT WATCHED MOVIES + VIDEOS\Coco.2017.DVDScr.XVID.AC3.HQ.Hive-CM8.avi, title_index=0
udfread ERROR: ECMA 167 Volume Recognition failed
src/libbluray/disc/disc.c:274: failed opening UDF image D:\2B Handbraked\- 4 NABERT WATCHED MOVIES + VIDEOS\Coco.2017.DVDScr.XVID.AC3.HQ.Hive-CM8.avi
src/libbluray/disc/disc.c:352: error opening file BDMV\index.bdmv
src/libbluray/disc/disc.c:352: error opening file BDMV\BACKUP\index.bdmv
[14:27:11] bd: not a bd - trying as a stream/file instead
libdvdnav: Using dvdnav version 5.0.1
libdvdread: Encrypted DVD support unavailable.
libdvdread:DVDOpenFileUDF:UDFFindFile /VIDEO_TS/VIDEO_TS.IFO failed
libdvdread:DVDOpenFileUDF:UDFFindFile /VIDEO_TS/VIDEO_TS.BUP failed
libdvdread: Can't open file VIDEO_TS.IFO.
libdvdnav: vm: failed to read VIDEO_TS.IFO
[14:27:11] dvd: not a dvd - trying as a stream/file instead
Input #0, avi, from 'D:\2B Handbraked\- 4 NABERT WATCHED MOVIES + VIDEOS\Coco.2017.DVDScr.XVID.AC3.HQ.Hive-CM8.avi':
Metadata:
encoder : Nandub v1.0rc2
Duration: 01:43:34.06, start: 0.000000, bitrate: 2260 kb/s
Stream #0:0: Video: mpeg4 (Advanced Simple Profile) [XVID / 0x44495658]
yuv420p, 720x304 [PAR 1:1 DAR 45:19]
30 fps, 30 tbn
Stream #0:1: Audio: ac3 [[0] [0][0] / 0x2000]
48000 Hz, stereo, fltp, 256 kb/s
[14:27:12] scan: decoding previews for title 1
[14:27:13] scan: audio 0x1: ac3, rate=48000Hz, bitrate=256000 Unknown (AC3) (2.0 ch)
[14:27:13] scan: 10 previews, 720x304, 30.000 fps, autocrop = 0/0/0/0, aspect 2.37:1, PAR 1:1
[14:27:13] libhb: scan thread found 1 valid title(s)

# Scan Finished ...

[14:27:35] hb_init: starting libhb thread

# Starting Scan ...

[14:27:35] CPU: Intel(R) Core(TM) i5 CPU M 460 @ 2.53GHz
[14:27:35] - logical processor count: 4
[14:27:35] Intel Quick Sync Video support: no
[14:27:35] hb_scan: path=D:\2B Handbraked\- 4 NABERT WATCHED MOVIES + VIDEOS\Dear Dracula (2012).avi, title_index=0
udfread ERROR: ECMA 167 Volume Recognition failed
src/libbluray/disc/disc.c:274: failed opening UDF image D:\2B Handbraked\- 4 NABERT WATCHED MOVIES + VIDEOS\Dear Dracula (2012).avi
src/libbluray/disc/disc.c:352: error opening file BDMV\index.bdmv
src/libbluray/disc/disc.c:352: error opening file BDMV\BACKUP\index.bdmv
[14:27:36] bd: not a bd - trying as a stream/file instead
libdvdnav: Using dvdnav version 5.0.1
libdvdread: Encrypted DVD support unavailable.
libdvdread:DVDOpenFileUDF:UDFFindFile /VIDEO_TS/VIDEO_TS.IFO failed
libdvdread:DVDOpenFileUDF:UDFFindFile /VIDEO_TS/VIDEO_TS.BUP failed
libdvdread: Can't open file VIDEO_TS.IFO.
libdvdnav: vm: failed to read VIDEO_TS.IFO
[14:27:36] dvd: not a dvd - trying as a stream/file instead
Input #0, avi, from 'D:\2B Handbraked\- 4 NABERT WATCHED MOVIES + VIDEOS\Dear Dracula (2012).avi':
Metadata:
encoder : MEncoder SVN-r33883(20110719-gcc4.5.2)
Duration: 00:43:12.85, start: 0.000000, bitrate: 1350 kb/s
Stream #0:0: Video: mpeg4 (Advanced Simple Profile) [XVID / 0x44495658]
yuv420p, 856x480 [PAR 1:1 DAR 107:60], PAR 491520:497657 DAR 8192:4651
29.97 fps, 29.97 tbn
Stream #0:1: Audio: mp3 [U[0][0][0] / 0x0055]
44100 Hz, 2 channels, s16p, 128 kb/s
[14:27:36] scan: decoding previews for title 1
[14:27:36] scan: audio 0x1: mp3, rate=44100Hz, bitrate=128000 Unknown (MP3) (2.0 ch)
[14:27:37] scan: 10 previews, 856x480, 29.970 fps, autocrop = 0/0/0/0, aspect 16:9, PAR 1:1
[14:27:37] libhb: scan thread found 1 valid title(s)

# Scan Finished ...

[14:27:57] hb_init: starting libhb thread

# Starting Scan ...

[14:27:57] CPU: Intel(R) Core(TM) i5 CPU M 460 @ 2.53GHz
[14:27:57] - logical processor count: 4
[14:27:57] Intel Quick Sync Video support: no
[14:27:57] hb_scan: path=D:\2B Handbraked\- 4 NABERT WATCHED MOVIES + VIDEOS\Delivery (2005) (Short).avi, title_index=0
udfread ERROR: ECMA 167 Volume Recognition failed
src/libbluray/disc/disc.c:274: failed opening UDF image D:\2B Handbraked\- 4 NABERT WATCHED MOVIES + VIDEOS\Delivery (2005) (Short).avi
src/libbluray/disc/disc.c:352: error opening file BDMV\index.bdmv
src/libbluray/disc/disc.c:352: error opening file BDMV\BACKUP\index.bdmv
[14:27:57] bd: not a bd - trying as a stream/file instead
libdvdnav: Using dvdnav version 5.0.1
libdvdread: Encrypted DVD support unavailable.
libdvdread:DVDOpenFileUDF:UDFFindFile /VIDEO_TS/VIDEO_TS.IFO failed
libdvdread:DVDOpenFileUDF:UDFFindFile /VIDEO_TS/VIDEO_TS.BUP failed
libdvdread: Can't open file VIDEO_TS.IFO.
libdvdnav: vm: failed to read VIDEO_TS.IFO
[14:27:57] dvd: not a dvd - trying as a stream/file instead
Input #0, avi, from 'D:\2B Handbraked\- 4 NABERT WATCHED MOVIES + VIDEOS\Delivery (2005) (Short).avi':
Duration: 00:08:43.56, start: 0.000000, bitrate: 1535 kb/s
Stream #0:0: Video: mpeg4 (Simple Profile) [DX50 / 0x30355844]
yuv420p, 720x400 [PAR 1:1 DAR 9:5]
25 fps, 25 tbn
Stream #0:1: Audio: mp3 [U[0][0][0] / 0x0055]
24000 Hz, 2 channels, s16p, 56 kb/s
[14:27:57] scan: decoding previews for title 1
[14:27:57] scan: audio 0x1: mp3, rate=24000Hz, bitrate=56000 Unknown (MP3) (2.0 ch)
[14:27:58] scan: 10 previews, 720x400, 25.000 fps, autocrop = 0/0/4/6, aspect 16:9, PAR 1:1
[14:27:58] libhb: scan thread found 1 valid title(s)

# Scan Finished ...

[14:28:15] hb_init: starting libhb thread

# Starting Scan ...

[14:28:15] CPU: Intel(R) Core(TM) i5 CPU M 460 @ 2.53GHz
[14:28:15] - logical processor count: 4
[14:28:15] Intel Quick Sync Video support: no
[14:28:15] hb_scan: path=D:\2B Handbraked\- 4 NABERT WATCHED MOVIES + VIDEOS\Despicable Me 1 (2010).avi, title_index=0
udfread ERROR: ECMA 167 Volume Recognition failed
src/libbluray/disc/disc.c:274: failed opening UDF image D:\2B Handbraked\- 4 NABERT WATCHED MOVIES + VIDEOS\Despicable Me 1 (2010).avi
src/libbluray/disc/disc.c:352: error opening file BDMV\index.bdmv
src/libbluray/disc/disc.c:352: error opening file BDMV\BACKUP\index.bdmv
[14:28:15] bd: not a bd - trying as a stream/file instead
libdvdnav: Using dvdnav version 5.0.1
libdvdread: Encrypted DVD support unavailable.
libdvdread:DVDOpenFileUDF:UDFFindFile /VIDEO_TS/VIDEO_TS.IFO failed
libdvdread:DVDOpenFileUDF:UDFFindFile /VIDEO_TS/VIDEO_TS.BUP failed
libdvdread: Can't open file VIDEO_TS.IFO.
libdvdnav: vm: failed to read VIDEO_TS.IFO
[14:28:15] dvd: not a dvd - trying as a stream/file instead
Input #0, avi, from 'D:\2B Handbraked\- 4 NABERT WATCHED MOVIES + VIDEOS\Despicable Me 1 (2010).avi':
Metadata:
encoder : VirtualDubMod 1.5.10.2 (build 2540/release)
Duration: 01:30:51.52, start: 0.000000, bitrate: 1075 kb/s
Stream #0:0: Video: mpeg4 (Simple Profile) [XVID / 0x44495658]
yuv420p, 624x336 [PAR 1:1 DAR 13:7]
25 fps, 25 tbn
Stream #0:1: Audio: mp3 [U[0][0][0] / 0x0055]
48000 Hz, 2 channels, s16p, 163 kb/s
[14:28:16] scan: decoding previews for title 1
[14:28:17] scan: audio 0x1: mp3, rate=48000Hz, bitrate=163584 Unknown (MP3) (2.0 ch)
[14:28:17] scan: 10 previews, 624x336, 25.000 fps, autocrop = 0/0/0/0, aspect 16:9, PAR 1:1
[14:28:17] libhb: scan thread found 1 valid title(s)

# Scan Finished ...

[14:28:35] hb_init: starting libhb thread

# Starting Scan ...

[14:28:35] CPU: Intel(R) Core(TM) i5 CPU M 460 @ 2.53GHz
[14:28:35] - logical processor count: 4
[14:28:35] Intel Quick Sync Video support: no
[14:28:35] hb_scan: path=D:\2B Handbraked\- 4 NABERT WATCHED MOVIES + VIDEOS\Doc Mcstuffins (2012).avi, title_index=0
udfread ERROR: ECMA 167 Volume Recognition failed
src/libbluray/disc/disc.c:274: failed opening UDF image D:\2B Handbraked\- 4 NABERT WATCHED MOVIES + VIDEOS\Doc Mcstuffins (2012).avi
src/libbluray/disc/disc.c:352: error opening file BDMV\index.bdmv
src/libbluray/disc/disc.c:352: error opening file BDMV\BACKUP\index.bdmv
[14:28:35] bd: not a bd - trying as a stream/file instead
libdvdnav: Using dvdnav version 5.0.1
libdvdread: Encrypted DVD support unavailable.
libdvdread:DVDOpenFileUDF:UDFFindFile /VIDEO_TS/VIDEO_TS.IFO failed
libdvdread:DVDOpenFileUDF:UDFFindFile /VIDEO_TS/VIDEO_TS.BUP failed
libdvdread: Can't open file VIDEO_TS.IFO.
libdvdnav: vm: failed to read VIDEO_TS.IFO
[14:28:35] dvd: not a dvd - trying as a stream/file instead
Input #0, avi, from 'D:\2B Handbraked\- 4 NABERT WATCHED MOVIES + VIDEOS\Doc Mcstuffins (2012).avi':
Metadata:
artist : Doc
comment : Hello Ladies
copyright : UnKnOwN
title : Mcstuff U
encoder : TMPGEnc Video Mastering Works 5 Version. 5.0.5.32
Duration: 02:00:35.79, start: 0.000000, bitrate: 1351 kb/s
Stream #0:0: Video: mpeg4 (Advanced Simple Profile) [XVID / 0x44495658]
yuv420p, 640x352 [PAR 1:1 DAR 20:11]
29.97 fps, 29.97 tbn
Stream #0:1: Audio: mp3 [U[0][0][0] / 0x0055]
48000 Hz, 2 channels, s16p, 128 kb/s
[14:28:36] scan: decoding previews for title 1
[14:28:37] scan: audio 0x1: mp3, rate=48000Hz, bitrate=128000 Unknown (MP3) (2.0 ch)
[14:28:38] scan: 10 previews, 640x352, 29.970 fps, autocrop = 0/0/0/0, aspect 16:9, PAR 1:1
[14:28:38] libhb: scan thread found 1 valid title(s)

# Scan Finished ...

[14:28:55] hb_init: starting libhb thread

# Starting Scan ...

[14:28:55] CPU: Intel(R) Core(TM) i5 CPU M 460 @ 2.53GHz
[14:28:55] - logical processor count: 4
[14:28:55] Intel Quick Sync Video support: no
[14:28:55] hb_scan: path=D:\2B Handbraked\- 4 NABERT WATCHED MOVIES + VIDEOS\Donkey Xote (2007).avi, title_index=0
udfread ERROR: ECMA 167 Volume Recognition failed
src/libbluray/disc/disc.c:274: failed opening UDF image D:\2B Handbraked\- 4 NABERT WATCHED MOVIES + VIDEOS\Donkey Xote (2007).avi
src/libbluray/disc/disc.c:352: error opening file BDMV\index.bdmv
src/libbluray/disc/disc.c:352: error opening file BDMV\BACKUP\index.bdmv
[14:28:55] bd: not a bd - trying as a stream/file instead
libdvdnav: Using dvdnav version 5.0.1
libdvdread: Encrypted DVD support unavailable.
libdvdread:DVDOpenFileUDF:UDFFindFile /VIDEO_TS/VIDEO_TS.IFO failed
libdvdread:DVDOpenFileUDF:UDFFindFile /VIDEO_TS/VIDEO_TS.BUP failed
libdvdread: Can't open file VIDEO_TS.IFO.
libdvdnav: vm: failed to read VIDEO_TS.IFO
[14:28:55] dvd: not a dvd - trying as a stream/file instead
Input #0, avi, from 'D:\2B Handbraked\- 4 NABERT WATCHED MOVIES + VIDEOS\Donkey Xote (2007).avi':
Metadata:
encoder : VirtualDubMod 1.5.10.1 (build 2366/release)
Duration: 01:31:08.84, start: 0.000000, bitrate: 1075 kb/s
Stream #0:0: Video: mpeg4 (Advanced Simple Profile) [XVID / 0x44495658]
yuv420p, 660x272 [PAR 1:1 DAR 165:68]
25 fps, 25 tbn
Stream #0:1: Audio: mp3 [U[0][0][0] / 0x0055]
48000 Hz, 2 channels, s16p, 128 kb/s
[14:28:55] scan: decoding previews for title 1
[14:28:56] scan: audio 0x1: mp3, rate=48000Hz, bitrate=128000 Unknown (MP3) (2.0 ch)
[14:28:56] scan: 10 previews, 660x272, 25.000 fps, autocrop = 0/0/0/0, aspect 2.43:1, PAR 1:1
[14:28:56] libhb: scan thread found 1 valid title(s)

# Scan Finished ...

[14:29:14] hb_init: starting libhb thread

# Starting Scan ...

[14:29:14] CPU: Intel(R) Core(TM) i5 CPU M 460 @ 2.53GHz
[14:29:14] - logical processor count: 4
[14:29:14] Intel Quick Sync Video support: no
[14:29:14] hb_scan: path=D:\2B Handbraked\- 4 NABERT WATCHED MOVIES + VIDEOS\Dora The Explorer - Dora and The 3 Little Pigs 2008.DVDRip.avi, title_index=0
udfread ERROR: ECMA 167 Volume Recognition failed
src/libbluray/disc/disc.c:274: failed opening UDF image D:\2B Handbraked\- 4 NABERT WATCHED MOVIES + VIDEOS\Dora The Explorer - Dora and The 3 Little Pigs 2008.DVDRip.avi
src/libbluray/disc/disc.c:352: error opening file BDMV\index.bdmv
src/libbluray/disc/disc.c:352: error opening file BDMV\BACKUP\index.bdmv
[14:29:14] bd: not a bd - trying as a stream/file instead
libdvdnav: Using dvdnav version 5.0.1
libdvdread: Encrypted DVD support unavailable.
libdvdread:DVDOpenFileUDF:UDFFindFile /VIDEO_TS/VIDEO_TS.IFO failed
libdvdread:DVDOpenFileUDF:UDFFindFile /VIDEO_TS/VIDEO_TS.BUP failed
libdvdread: Can't open file VIDEO_TS.IFO.
libdvdnav: vm: failed to read VIDEO_TS.IFO
[14:29:14] dvd: not a dvd - trying as a stream/file instead
Input #0, avi, from 'D:\2B Handbraked\- 4 NABERT WATCHED MOVIES + VIDEOS\Dora The Explorer - Dora and The 3 Little Pigs 2008.DVDRip.avi':
Metadata:
encoder : VirtualDubMod 1.5.4.1 (build 2178/release)
IAS1 : English
Duration: 01:32:18.40, start: 0.000000, bitrate: 1060 kb/s
Stream #0:0: Video: mpeg4 (Advanced Simple Profile) [XVID / 0x44495658]
yuv420p, 624x464 [PAR 1:1 DAR 39:29]
23.98 fps, 23.98 tbn
Stream #0:1: Audio: mp3 [U[0][0][0] / 0x0055]
48000 Hz, 2 channels, s16p, 112 kb/s
[14:29:15] scan: decoding previews for title 1
[14:29:16] scan: audio 0x1: mp3, rate=48000Hz, bitrate=112840 Unknown (MP3) (2.0 ch)
[14:29:16] scan: 10 previews, 624x464, 23.976 fps, autocrop = 0/0/0/0, aspect 4:3, PAR 1:1
[14:29:16] libhb: scan thread found 1 valid title(s)

# Scan Finished ...

[14:29:57] hb_init: starting libhb thread

# Starting Scan ...

[14:29:57] CPU: Intel(R) Core(TM) i5 CPU M 460 @ 2.53GHz
[14:29:57] - logical processor count: 4
[14:29:57] Intel Quick Sync Video support: no
[14:29:57] hb_scan: path=D:\2B Handbraked\- 4 NABERT WATCHED MOVIES + VIDEOS\Dr Seuss - Horton Hears A Who! (1970) (TV Special).avi, title_index=0
udfread ERROR: ECMA 167 Volume Recognition failed
src/libbluray/disc/disc.c:274: failed opening UDF image D:\2B Handbraked\- 4 NABERT WATCHED MOVIES + VIDEOS\Dr Seuss - Horton Hears A Who! (1970) (TV Special).avi
src/libbluray/disc/disc.c:352: error opening file BDMV\index.bdmv
src/libbluray/disc/disc.c:352: error opening file BDMV\BACKUP\index.bdmv
[14:29:58] bd: not a bd - trying as a stream/file instead
libdvdnav: Using dvdnav version 5.0.1
libdvdread: Encrypted DVD support unavailable.
libdvdread:DVDOpenFileUDF:UDFFindFile /VIDEO_TS/VIDEO_TS.IFO failed
libdvdread:DVDOpenFileUDF:UDFFindFile /VIDEO_TS/VIDEO_TS.BUP failed
libdvdread: Can't open file VIDEO_TS.IFO.
libdvdnav: vm: failed to read VIDEO_TS.IFO
[14:29:58] dvd: not a dvd - trying as a stream/file instead
Input #0, avi, from 'D:\2B Handbraked\- 4 NABERT WATCHED MOVIES + VIDEOS\Dr Seuss - Horton Hears A Who! (1970) (TV Special).avi':
Duration: 00:24:31.40, start: 0.000000, bitrate: 2288 kb/s
Stream #0:0: Video: mpeg4 (Simple Profile) [XVID / 0x44495658]
yuv420p, 720x576 [PAR 16:15 DAR 4:3], PAR 16:15 DAR 4:3
25 fps, 25 tbn
Stream #0:1: Audio: mp3 [U[0][0][0] / 0x0055]
48000 Hz, 2 channels, s16p, 160 kb/s
[14:29:58] scan: decoding previews for title 1
[14:29:58] scan: audio 0x1: mp3, rate=48000Hz, bitrate=160000 Unknown (MP3) (2.0 ch)
[14:29:58] scan: 10 previews, 720x576, 25.000 fps, autocrop = 0/0/0/0, aspect 4:3, PAR 16:15
[14:29:58] libhb: scan thread found 1 valid title(s)

# Scan Finished ...

[14:30:19] hb_init: starting libhb thread

# Starting Scan ...

[14:30:19] CPU: Intel(R) Core(TM) i5 CPU M 460 @ 2.53GHz
[14:30:19] - logical processor count: 4
[14:30:19] Intel Quick Sync Video support: no
[14:30:19] hb_scan: path=D:\2B Handbraked\- 4 NABERT WATCHED MOVIES + VIDEOS\Dragon Hunters (2008).avi, title_index=0
udfread ERROR: ECMA 167 Volume Recognition failed
src/libbluray/disc/disc.c:274: failed opening UDF image D:\2B Handbraked\- 4 NABERT WATCHED MOVIES + VIDEOS\Dragon Hunters (2008).avi
src/libbluray/disc/disc.c:352: error opening file BDMV\index.bdmv
src/libbluray/disc/disc.c:352: error opening file BDMV\BACKUP\index.bdmv
[14:30:20] bd: not a bd - trying as a stream/file instead
libdvdnav: Using dvdnav version 5.0.1
libdvdread: Encrypted DVD support unavailable.
libdvdread:DVDOpenFileUDF:UDFFindFile /VIDEO_TS/VIDEO_TS.IFO failed
libdvdread:DVDOpenFileUDF:UDFFindFile /VIDEO_TS/VIDEO_TS.BUP failed
libdvdread: Can't open file VIDEO_TS.IFO.
libdvdnav: vm: failed to read VIDEO_TS.IFO
[14:30:20] dvd: not a dvd - trying as a stream/file instead
Input #0, avi, from 'D:\2B Handbraked\- 4 NABERT WATCHED MOVIES + VIDEOS\Dragon Hunters (2008).avi':
Metadata:
encoder : VirtualDubMod 1.5.10.3 | www.virtualdub-fr.org || (build 2550/release)
Duration: 01:21:59.38, start: 0.000000, bitrate: 2591 kb/s
Stream #0:0: Video: mpeg4 (Advanced Simple Profile) [XVID / 0x44495658]
yuv420p, 1280x720 [PAR 1:1 DAR 16:9]
23.98 fps, 23.98 tbn
[14:30:21] scan: decoding previews for title 1
[14:30:23] scan: audio 0x1: ac3, rate=48000Hz, bitrate=384000 Unknown (AC3) (5.1 ch)
[14:30:24] scan: 10 previews, 1280x720, 23.976 fps, autocrop = 0/0/0/0, aspect 16:9, PAR 1:1
[14:30:24] libhb: scan thread found 1 valid title(s)

# Scan Finished ...

[14:30:42] hb_init: starting libhb thread

# Starting Scan ...

[14:30:42] CPU: Intel(R) Core(TM) i5 CPU M 460 @ 2.53GHz
[14:30:42] - logical processor count: 4
[14:30:42] Intel Quick Sync Video support: no
[14:30:42] hb_scan: path=D:\2B Handbraked\- 4 NABERT WATCHED MOVIES + VIDEOS\Edison & Leo (2008).avi, title_index=0
udfread ERROR: ECMA 167 Volume Recognition failed
src/libbluray/disc/disc.c:274: failed opening UDF image D:\2B Handbraked\- 4 NABERT WATCHED MOVIES + VIDEOS\Edison & Leo (2008).avi
src/libbluray/disc/disc.c:352: error opening file BDMV\index.bdmv
src/libbluray/disc/disc.c:352: error opening file BDMV\BACKUP\index.bdmv
[14:30:42] bd: not a bd - trying as a stream/file instead
libdvdnav: Using dvdnav version 5.0.1
libdvdread: Encrypted DVD support unavailable.
libdvdread:DVDOpenFileUDF:UDFFindFile /VIDEO_TS/VIDEO_TS.IFO failed
libdvdread:DVDOpenFileUDF:UDFFindFile /VIDEO_TS/VIDEO_TS.BUP failed
libdvdread: Can't open file VIDEO_TS.IFO.
libdvdnav: vm: failed to read VIDEO_TS.IFO
[14:30:42] dvd: not a dvd - trying as a stream/file instead
Input #0, avi, from 'D:\2B Handbraked\- 4 NABERT WATCHED MOVIES + VIDEOS\Edison & Leo (2008).avi':
Metadata:
encoder : VirtualDubMod 1.5.10.2 (build 2540/release)
Duration: 01:20:22.11, start: 0.000000, bitrate: 1219 kb/s
[14:30:43] scan: decoding previews for title 1
[14:30:44] scan: audio 0x1: ac3, rate=48000Hz, bitrate=384000 Unknown (AC3) (5.1 ch)
[14:30:44] scan: 10 previews, 640x352, 23.976 fps, autocrop = 0/0/0/0, aspect 16:9, PAR 1:1
[14:30:44] libhb: scan thread found 1 valid title(s)

# Scan Finished ...

[14:31:02] hb_init: starting libhb thread

# Starting Scan ...

[14:31:02] CPU: Intel(R) Core(TM) i5 CPU M 460 @ 2.53GHz
[14:31:02] - logical processor count: 4
[14:31:02] Intel Quick Sync Video support: no
[14:31:02] hb_scan: path=D:\2B Handbraked\- 4 NABERT WATCHED MOVIES + VIDEOS\Elephant Kingdom (2016).avi, title_index=0
udfread ERROR: ECMA 167 Volume Recognition failed
src/libbluray/disc/disc.c:274: failed opening UDF image D:\2B Handbraked\- 4 NABERT WATCHED MOVIES + VIDEOS\Elephant Kingdom (2016).avi
src/libbluray/disc/disc.c:352: error opening file BDMV\index.bdmv
src/libbluray/disc/disc.c:352: error opening file BDMV\BACKUP\index.bdmv
[14:31:02] bd: not a bd - trying as a stream/file instead
libdvdnav: Using dvdnav version 5.0.1
libdvdread: Encrypted DVD support unavailable.
libdvdread:DVDOpenFileUDF:UDFFindFile /VIDEO_TS/VIDEO_TS.IFO failed
libdvdread:DVDOpenFileUDF:UDFFindFile /VIDEO_TS/VIDEO_TS.BUP failed
libdvdread: Can't open file VIDEO_TS.IFO.
libdvdnav: vm: failed to read VIDEO_TS.IFO
[14:31:02] dvd: not a dvd - trying as a stream/file instead
Input #0, avi, from 'D:\2B Handbraked\- 4 NABERT WATCHED MOVIES + VIDEOS\Elephant Kingdom (2016).avi':
Metadata:
encoder : AVI-Mux GUI 1.17.8.3, Feb 16 201019:42:50๚
JUNK :
Duration: 01:40:33.02, start: 0.000000, bitrate: 1672 kb/s
Stream #0:0: Video: mpeg4 (Advanced Simple Profile) [XVID / 0x44495658]
yuv420p, 720x304 [PAR 1:1 DAR 45:19]
23.98 fps, 23.98 tbn
Stream #0:1: Audio: ac3 [[0] [0][0] / 0x2000]
48000 Hz, 5.1, fltp, 384 kb/s
[14:31:04] scan: decoding previews for title 1
[14:31:06] scan: audio 0x1: ac3, rate=48000Hz, bitrate=384000 Unknown (AC3) (5.1 ch)
[14:31:06] scan: 10 previews, 720x304, 23.976 fps, autocrop = 0/0/0/0, aspect 2.37:1, PAR 1:1
[14:31:06] libhb: scan thread found 1 valid title(s)

# Scan Finished ...

[14:31:25] hb_init: starting libhb thread

# Starting Scan ...

[14:31:25] CPU: Intel(R) Core(TM) i5 CPU M 460 @ 2.53GHz
[14:31:25] - logical processor count: 4
[14:31:25] Intel Quick Sync Video support: no
[14:31:25] hb_scan: path=D:\2B Handbraked\- 4 NABERT WATCHED MOVIES + VIDEOS\Finding Nemo (2003s).avi, title_index=0
udfread ERROR: ECMA 167 Volume Recognition failed
src/libbluray/disc/disc.c:274: failed opening UDF image D:\2B Handbraked\- 4 NABERT WATCHED MOVIES + VIDEOS\Finding Nemo (2003s).avi
src/libbluray/disc/disc.c:352: error opening file BDMV\index.bdmv
src/libbluray/disc/disc.c:352: error opening file BDMV\BACKUP\index.bdmv
[14:31:25] bd: not a bd - trying as a stream/file instead
libdvdnav: Using dvdnav version 5.0.1
libdvdread: Encrypted DVD support unavailable.
libdvdread:DVDOpenFileUDF:UDFFindFile /VIDEO_TS/VIDEO_TS.IFO failed
libdvdread:DVDOpenFileUDF:UDFFindFile /VIDEO_TS/VIDEO_TS.BUP failed
libdvdread: Can't open file VIDEO_TS.IFO.
libdvdnav: vm: failed to read VIDEO_TS.IFO
[14:31:25] dvd: not a dvd - trying as a stream/file instead
Input #0, avi, from 'D:\2B Handbraked\- 4 NABERT WATCHED MOVIES + VIDEOS\Finding Nemo (2003s).avi':
Metadata:
encoder : VirtualDubMod 1.5.10.1 (build 2519/release)
IAS1 : English
Duration: 01:40:33.28, start: 0.000000, bitrate: 973 kb/s
Stream #0:0: Video: mpeg4 (Advanced Simple Profile) [XVID / 0x44495658]
yuv420p, 560x320 [PAR 1:1 DAR 7:4]
23.98 fps, 23.98 tbn
Stream #0:1: Audio: mp3 [U[0][0][0] / 0x0055]
48000 Hz, 2 channels, s16p, 127 kb/s
[14:31:26] scan: decoding previews for title 1
[14:31:27] scan: audio 0x1: mp3, rate=48000Hz, bitrate=127080 Unknown (MP3) (2.0 ch)
[14:31:27] scan: 10 previews, 560x320, 23.976 fps, autocrop = 0/0/0/0, aspect 1.75:1, PAR 1:1
[14:31:27] libhb: scan thread found 1 valid title(s)

# Scan Finished ...

[14:31:31] reader: done. 1 scr changes
[14:31:32] work: average encoding speed for job is 228.146347 fps
[14:31:32] comb detect: heavy 591 | light 3372 | uncombed 113501 | total 117464
[14:31:32] decomb: deinterlaced 591 | blended 3372 | unfiltered 113501 | total 117464
[14:31:32] vfr: 117464 frames output, 0 dropped and 0 duped for CFR/PFR
[14:31:32] vfr: lost time: 0 (0 frames)
[14:31:32] vfr: gained time: 0 (0 frames) (0 not accounted for)
[14:31:32] mp3-decoder done: 204134 frames, 0 decoder errors
[14:31:32] mpeg4-decoder done: 117464 frames, 0 decoder errors
[14:31:32] sync: got 117464 frames, 117464 expected
[14:31:32] sync: framerate min 23.981 fps, max 23.981 fps, avg 23.976 fps
x264 [info]: frame I:1164 Avg QP:20.66 size: 19483
x264 [info]: frame P:48565 Avg QP:24.46 size: 2521
x264 [info]: frame B:67735 Avg QP:28.66 size: 763
x264 [info]: consecutive B-frames: 3.3% 58.7% 1.9% 36.1%
x264 [info]: mb I I16..4: 19.6% 0.0% 80.4%
x264 [info]: mb P I16..4: 4.5% 0.0% 1.7% P16..4: 20.2% 10.4% 7.4% 0.0% 0.0% skip:55.8%
x264 [info]: mb B I16..4: 0.6% 0.0% 0.2% B16..8: 8.5% 4.2% 1.0% direct: 2.8% skip:82.7% L0:32.0% L1:40.7% BI:27.3%
x264 [info]: coded y,uvDC,uvAC intra: 46.7% 55.9% 26.6% inter: 7.4% 7.9% 1.4%
x264 [info]: i16 v,h,dc,p: 44% 29% 20% 7%
x264 [info]: i4 v,h,dc,ddl,ddr,vr,hd,vl,hu: 23% 26% 18% 5% 5% 5% 6% 5% 6%
x264 [info]: i8c dc,h,v,p: 50% 26% 19% 5%
x264 [info]: Weighted P-Frames: Y:2.0% UV:1.1%
x264 [info]: kb/s:321.33
[14:31:32] mux: track 0, 117464 frames, 196743523 bytes, 321.26 kbps, fifo 8192
[14:31:32] mux: track 1, 229651 frames, 98204875 bytes, 160.36 kbps, fifo 16384
[14:31:32] libhb: work result = 0

# Encode Completed ...

alienred
Posts: 5
Joined: Thu Oct 11, 2018 11:44 pm

Re: AVI to MKV hugely reduces file size, normal?

Post by alienred » Fri Oct 12, 2018 11:52 am

Sorry Ferdinand is a mistake. I cannot see how to delete it.

alienred
Posts: 5
Joined: Thu Oct 11, 2018 11:44 pm

Re: AVI to MKV hugely reduces file size, normal?

Post by alienred » Fri Oct 12, 2018 11:54 am

HandBrake 1.0.7 (2017040900) - 32bit
OS: Microsoft Windows NT 6.1.7601 Service Pack 1 - 64bit
CPU: Intel(R) Core(TM) i5 CPU M 460 @ 2.53GHz
Ram: 3958 MB,
GPU Information:
AMD Mobility Radeon HD 5000 Series - 15.200.1062.1004
Screen: 1366x768
Temp Dir: C:\Users\Admin\AppData\Local\Temp\
Install Dir: C:\Program Files (x86)\HandBrake
Data Dir: C:\Users\Admin\AppData\Roaming\HandBrake Team\HandBrake\1.0.7.0

-------------------------------------------


# Starting Encode ...

[02:15:33] hb_init: starting libhb thread
[02:15:33] 1 job(s) to process
[02:15:33] json job:
{
"Audio": {
"AudioList": [
{
"Bitrate": 160,
"DRC": 0.0,
"Encoder": 65536,
"Gain": 0.0,
"Mixdown": 4,
"NormalizeMixLevel": false,
"Samplerate": 0,
"Track": 0,
"DitherMethod": 0
}
],
"CopyMask": [
1073807360,
1073743872,
1074003968,
1073750016,
1090519040,
1074790400,
1074266112,
1107296256
],
"FallbackEncoder": 2048
},
"Destination": {
"ChapterList": [
{
"Name": "Chapter 1"
}
],
"ChapterMarkers": true,
"File": "D:\\2B Handbraked\\- 4 NABERT WATCHED MOVIES + VIDEOS\\Happy Family (2017).mkv",
"Mp4Options": {
"IpodAtom": false,
"Mp4Optimize": false
},
"Mux": 2097152
},
"Filters": {
"FilterList": [
{
"ID": 4,
"Settings": {
"mode": "7"
}
},
{
"ID": 3,
"Settings": {
"block-height": "16",
"block-thresh": "80",
"block-width": "16",
"filter-mode": "1",
"mode": "0",
"motion-thresh": "2",
"spatial-metric": "2",
"spatial-thresh": "3"
}
},
{
"ID": 11,
"Settings": {
"crop-bottom": "0",
"crop-left": "0",
"crop-right": "0",
"crop-top": "0",
"height": "304",
"width": "720"
}
},
{
"ID": 6,
"Settings": {
"mode": "2",
"rate": "27000000/900000"
}
}
]
},
"PAR": {
"Num": 1,
"Den": 1
},
"Metadata": {},
"SequenceID": 0,
"Source": {
"Angle": 1,
"Range": {
"Type": "chapter",
"Start": 1,
"End": 1
},
"Title": 1,
"Path": "D:\\2B Handbraked\\- 4 NABERT WATCHED MOVIES + VIDEOS\\Happy Family (2017).avi"
},
"Subtitle": {
"Search": {
"Burn": true,
"Default": false,
"Enable": true,
"Forced": true
},
"SubtitleList": []
},
"Video": {
"Encoder": 65536,
"Level": "4.0",
"TwoPass": false,
"Turbo": false,
"ColorMatrixCode": 0,
"Options": "",
"Preset": "veryfast",
"Profile": "main",
"Quality": 24.0,
"OpenCL": false,
"HWDecode": false,
"QSV": {
"Decode": false,
"AsyncDepth": 0
}
}
}
[02:15:33] CPU: Intel(R) Core(TM) i5 CPU M 460 @ 2.53GHz
[02:15:33] - logical processor count: 4
[02:15:33] Intel Quick Sync Video support: no
[02:15:33] hb_scan: path=D:\2B Handbraked\- 4 NABERT WATCHED MOVIES + VIDEOS\Happy Family (2017).avi, title_index=1
udfread ERROR: ECMA 167 Volume Recognition failed
src/libbluray/disc/disc.c:274: failed opening UDF image D:\2B Handbraked\- 4 NABERT WATCHED MOVIES + VIDEOS\Happy Family (2017).avi
src/libbluray/disc/disc.c:352: error opening file BDMV\index.bdmv
src/libbluray/disc/disc.c:352: error opening file BDMV\BACKUP\index.bdmv
[02:15:33] bd: not a bd - trying as a stream/file instead
libdvdnav: Using dvdnav version 5.0.1
libdvdread: Encrypted DVD support unavailable.
libdvdread:DVDOpenFileUDF:UDFFindFile /VIDEO_TS/VIDEO_TS.IFO failed
libdvdread:DVDOpenFileUDF:UDFFindFile /VIDEO_TS/VIDEO_TS.BUP failed
libdvdread: Can't open file VIDEO_TS.IFO.
libdvdnav: vm: failed to read VIDEO_TS.IFO
[02:15:33] dvd: not a dvd - trying as a stream/file instead
Input #0, avi, from 'D:\2B Handbraked\- 4 NABERT WATCHED MOVIES + VIDEOS\Happy Family (2017).avi':
Metadata:
encoder : AVI-Mux GUI 1.17.8.3, Feb 16 201019:42:50
JUNK :
Duration: 01:32:57.85, start: 0.000000, bitrate: 1906 kb/s
Stream #0:0: Video: mpeg4 (Advanced Simple Profile) [XVID / 0x44495658]
yuv420p, 720x304 [PAR 1:1 DAR 45:19]
23.98 fps, 23.98 tbn
Stream #0:1: Audio: ac3 [[0] [0][0] / 0x2000]
48000 Hz, stereo, fltp, 192 kb/s
Metadata:
title : ac3
[02:15:33] scan: decoding previews for title 1
[02:15:33] scan: audio 0x1: ac3, rate=48000Hz, bitrate=192000 Unknown (AC3) (2.0 ch)
[02:15:33] scan: 10 previews, 720x304, 23.976 fps, autocrop = 0/0/0/0, aspect 2.37:1, PAR 1:1
[02:15:33] libhb: scan thread found 1 valid title(s)
[02:15:33] Skipping subtitle scan. No suitable subtitle tracks.
[02:15:33] starting job
[02:15:33] decomb filter thread started for segment 0
[02:15:33] decomb filter thread started for segment 1
[02:15:33] decomb filter thread started for segment 2
[02:15:33] decomb filter thread started for segment 3
[02:15:33] decomb check thread started for segment 0
[02:15:33] decomb check thread started for segment 1
[02:15:33] decomb check thread started for segment 2
[02:15:33] decomb check thread started for segment 3
[02:15:33] yadif thread started for segment 0
[02:15:33] yadif thread started for segment 1
[02:15:33] yadif thread started for segment 2
[02:15:33] yadif thread started for segment 3
[02:15:33] work: track 1, dithering not supported by codec
[02:15:33] work: only 1 chapter, disabling chapter markers
[02:15:33] job configuration:
[02:15:33] * source
[02:15:33] + D:\2B Handbraked\- 4 NABERT WATCHED MOVIES + VIDEOS\Happy Family (2017).avi
[02:15:33] + title 1, chapter(s) 1 to 1
[02:15:33] + container: avi
[02:15:33] + data rate: 1906 kbps
[02:15:33] * destination
[02:15:33] + D:\2B Handbraked\- 4 NABERT WATCHED MOVIES + VIDEOS\Happy Family (2017).mkv
[02:15:33] + container: Matroska (libavformat)
[02:15:33] * video track
[02:15:33] + decoder: mpeg4
[02:15:33] + filters
[02:15:33] + Comb Detect (mode=0:spatial-metric=2:motion-thresh=2:spatial-thresh=3:filter-mode=1:block-thresh=80:block-width=16:block-height=16)
[02:15:33] + Decomb (mode=39)
[02:15:33] + Framerate Shaper (mode=2:rate=27000000/900000)
[02:15:33] + frame rate: 23.976 fps -> peak rate limited to 30.000 fps
[02:15:33] + Crop and Scale (width=720:height=304:crop-top=0:crop-bottom=0:crop-left=0:crop-right=0)
[02:15:33] + source: 720 * 304, crop (0/0/0/0): 720 * 304, scale: 720 * 304
[02:15:33] + Output geometry
[02:15:33] + storage dimensions: 720 x 304
[02:15:33] + pixel aspect ratio: 1 : 1
[02:15:33] + display dimensions: 720 x 304
[02:15:33] + encoder: H.264 (libx264)
[02:15:33] + preset: veryfast
[02:15:33] + profile: main
[02:15:33] + level: 4.0
[02:15:33] + quality: 24.00 (RF)
[02:15:33] * audio track 1
[02:15:33] + decoder: Unknown (AC3) (2.0 ch) (track 1, id 0x1)
[02:15:33] + bitrate: 192 kbps, samplerate: 48000 Hz
[02:15:33] + mixdown: Stereo
[02:15:33] + encoder: AAC (libavcodec)
[02:15:33] + bitrate: 160 kbps, samplerate: 48000 Hz
[02:15:33] sync: expecting 133734 video frames
[02:15:33] encx264: min-keyint: 24, keyint: 240
[02:15:33] encx264: encoding at constant RF 24.000000
[02:15:33] encx264: unparsed options: level=4.0:ref=1:rc-lookahead=10:8x8dct=0:weightp=1:subme=2:vbv-bufsize=25000:mixed-refs=0:trellis=0:vbv-maxrate=20000
x264 [info]: using SAR=1/1
x264 [info]: using cpu capabilities: MMX2 SSE2Fast SSSE3 SSE4.2
x264 [info]: profile Main, level 4.0
[02:15:33] sync: first pts video is 0
[02:15:33] sync: "Chapter 1" (1) at frame 1 time 0
[02:15:33] sync: first pts audio 0x1 is 0
[02:27:39] reader: done. 1 scr changes
[02:27:40] work: average encoding speed for job is 184.009964 fps
[02:27:40] comb detect: heavy 2719 | light 13847 | uncombed 117169 | total 133735
[02:27:40] decomb: deinterlaced 2719 | blended 13847 | unfiltered 117169 | total 133735
[02:27:40] vfr: 133735 frames output, 0 dropped and 0 duped for CFR/PFR
[02:27:40] vfr: lost time: 0 (0 frames)
[02:27:40] vfr: gained time: 0 (0 frames) (0 not accounted for)
[02:27:40] ac3-decoder done: 174308 frames, 0 decoder errors
[02:27:40] mpeg4-decoder done: 133735 frames, 0 decoder errors
[02:27:40] sync: got 133735 frames, 133734 expected
[02:27:40] sync: framerate min 23.981 fps, max 23.981 fps, avg 23.976 fps
x264 [info]: frame I:1465 Avg QP:21.32 size: 24903
x264 [info]: frame P:43802 Avg QP:25.18 size: 5170
x264 [info]: frame B:88468 Avg QP:29.04 size: 1028
x264 [info]: consecutive B-frames: 3.8% 15.6% 24.7% 55.8%
x264 [info]: mb I I16..4: 22.2% 0.0% 77.8%
x264 [info]: mb P I16..4: 6.0% 0.0% 2.7% P16..4: 32.2% 15.6% 11.0% 0.0% 0.0% skip:32.5%
x264 [info]: mb B I16..4: 0.7% 0.0% 0.2% B16..8: 11.4% 4.4% 0.9% direct: 3.8% skip:78.6% L0:30.2% L1:39.6% BI:30.1%
x264 [info]: coded y,uvDC,uvAC intra: 48.8% 72.7% 36.5% inter: 9.9% 12.5% 1.9%
x264 [info]: i16 v,h,dc,p: 36% 34% 21% 9%
x264 [info]: i4 v,h,dc,ddl,ddr,vr,hd,vl,hu: 27% 24% 18% 5% 5% 5% 5% 5% 5%
x264 [info]: i8c dc,h,v,p: 42% 25% 24% 9%
x264 [info]: Weighted P-Frames: Y:1.7% UV:1.1%
x264 [info]: kb/s:507.55
[02:27:40] mux: track 0, 133735 frames, 353829771 bytes, 507.48 kbps, fifo 8192
[02:27:40] mux: track 1, 261462 frames, 111680091 bytes, 160.18 kbps, fifo 16384
[02:27:40] libhb: work result = 0

# Encode Completed ...

Locked