No audio after converting

HandBrake for Mac support
Forum rules
An Activity Log is required for support requests. Please read How-to get an activity log? for details on how and why this should be provided.
Post Reply
kazar54
New User
Posts: 1
Joined: Wed Sep 12, 2018 6:26 pm

No audio after converting

Post by kazar54 » Wed Sep 12, 2018 6:34 pm

Description of problem or question:
I have an .mp4 file I am trying to upload to a program I use online. In the past I have used Handbrake to convert any file into the best format possible to make for an easy upload. The company suggests using Handbrake and the Fast 720p30 setting. In the past I didn't have any issues with the files after converting them, the audio was always on there. My problem is that I have an .mp4 file I am trying to encode with Handbrake using this Fast 720p30 format but after encoding the audio is completely gone??
*Note*: this file was a screencast from an ipad and was airdropped onto my Macbook so I could work with it.


Steps to reproduce the problem (If Applicable):
I tried to sift through the filters or other settings of this 1.1.2 version to see if anything could help the issue but nothing changed, the audio was always stripped off.



HandBrake version (e.g., 1.0.0):
1.1.2



Operating system and version (e.g., Ubuntu 16.04 LTS, macOS 10.13 High Sierra, Windows 10 Creators Update):
Mac High Sierra 10.13.6



HandBrake Activity Log ***required*** (see How-to get an activity log)

Code: Select all

[12:57:39] macgui: Handbrake Version: 1.1.2  (2018090500)
[12:57:39] hb_init: starting libhb thread
[12:57:39] hb_init: starting libhb thread
[12:57:53] macgui: trying to open a folder or file
[12:57:53] macgui: ScanCore scanning titles with a duration of 10 seconds or more
[12:57:53] CPU: Intel(R) Core(TM) i5-5257U CPU @ 2.70GHz
[12:57:53]  - Intel microarchitecture Broadwell
[12:57:53]  - logical processor count: 4
[12:57:53] hb_scan: path=/Users/jasonkazar/Desktop/How students annotate on a PDF assignment.MP4, title_index=0
udfread ERROR: ECMA 167 Volume Recognition failed
disc.c:323: failed opening UDF image /Users/jasonkazar/Desktop/How students annotate on a PDF assignment.MP4
disc.c:424: error opening file BDMV/index.bdmv
disc.c:424: error opening file BDMV/BACKUP/index.bdmv
[12:57:53] bd: not a bd - trying as a stream/file instead
libdvdnav: Using dvdnav version 6.0.0
libdvdread: Encrypted DVD support unavailable.
libdvdread:DVDOpenFileUDF:UDFFindFile /VIDEO_TS/VIDEO_TS.IFO failed
libdvdread:DVDOpenFileUDF:UDFFindFile /VIDEO_TS/VIDEO_TS.BUP failed
libdvdread: Can't open file VIDEO_TS.IFO.
libdvdnav: vm: failed to read VIDEO_TS.IFO
[12:57:53] dvd: not a dvd - trying as a stream/file instead
Input #0, mov,mp4,m4a,3gp,3g2,mj2, from '/Users/jasonkazar/Desktop/How students annotate on a PDF assignment.MP4':
  Metadata:
    major_brand     : mp42
    minor_version   : 1
    compatible_brands: mp41mp42isom
    creation_time   : 2018-09-11 16:10:43
  Duration: 00:04:07.29, start: 0.037075, bitrate: 856 kb/s
    Stream #0:0(und): Video: h264 (High) [avc1 / 0x31637661]
      yuvj420p, pc, 1200x1600, 744 kb/s
      600 tbn (default)
    Metadata:
      creation_time   : 2018-09-11 16:10:43
      handler_name    : Core Media Video
    Side data:
      displaymatrix: rotation of 90.00 degrees
    Stream #0:1(und): Audio: aac (LC) [mp4a / 0x6134706D]
      44100 Hz, stereo, fltp, 2 kb/s (default)
    Metadata:
      creation_time   : 2018-09-11 16:10:43
      handler_name    : Core Media Audio
    Stream #0:2(und): Audio: aac (LC) [mp4a / 0x6134706D]
      44100 Hz, stereo, fltp, 106 kb/s (default)
    Metadata:
      creation_time   : 2018-09-11 16:10:43
      handler_name    : Core Media Audio
[12:57:53] scan: decoding previews for title 1
[12:57:53] scan: audio 0x1: aac, rate=44100Hz, bitrate=2067 Unknown (AAC) (2.0 ch)
[12:57:53] scan: audio 0x2: aac, rate=44100Hz, bitrate=106896 Unknown (AAC) (2.0 ch)
[12:57:54] scan: 10 previews, 1600x1200, 9.880 fps, autocrop = 0/0/0/0, aspect 4:3, PAR 1:1
[12:57:54] libhb: scan thread found 1 valid title(s)
[12:57:54] macgui: ScanCore scan done
[12:58:16] macgui: QueueCore scanning specifically for title: 1
[12:58:16] CPU: Intel(R) Core(TM) i5-5257U CPU @ 2.70GHz
[12:58:16]  - Intel microarchitecture Broadwell
[12:58:16]  - logical processor count: 4
[12:58:16] hb_scan: path=/Users/jasonkazar/Desktop/How students annotate on a PDF assignment.MP4, title_index=1
udfread ERROR: ECMA 167 Volume Recognition failed
disc.c:323: failed opening UDF image /Users/jasonkazar/Desktop/How students annotate on a PDF assignment.MP4
disc.c:424: error opening file BDMV/index.bdmv
disc.c:424: error opening file BDMV/BACKUP/index.bdmv
[12:58:16] bd: not a bd - trying as a stream/file instead
libdvdnav: Using dvdnav version 6.0.0
libdvdread: Encrypted DVD support unavailable.
libdvdread:DVDOpenFileUDF:UDFFindFile /VIDEO_TS/VIDEO_TS.IFO failed
libdvdread:DVDOpenFileUDF:UDFFindFile /VIDEO_TS/VIDEO_TS.BUP failed
libdvdread: Can't open file VIDEO_TS.IFO.
libdvdnav: vm: failed to read VIDEO_TS.IFO
[12:58:16] dvd: not a dvd - trying as a stream/file instead
Input #0, mov,mp4,m4a,3gp,3g2,mj2, from '/Users/jasonkazar/Desktop/How students annotate on a PDF assignment.MP4':
  Metadata:
    major_brand     : mp42
    minor_version   : 1
    compatible_brands: mp41mp42isom
    creation_time   : 2018-09-11 16:10:43
  Duration: 00:04:07.29, start: 0.037075, bitrate: 856 kb/s
    Stream #0:0(und): Video: h264 (High) [avc1 / 0x31637661]
      yuvj420p, pc, 1200x1600, 744 kb/s
      600 tbn (default)
    Metadata:
      creation_time   : 2018-09-11 16:10:43
      handler_name    : Core Media Video
    Side data:
      displaymatrix: rotation of 90.00 degrees
    Stream #0:1(und): Audio: aac (LC) [mp4a / 0x6134706D]
      44100 Hz, stereo, fltp, 2 kb/s (default)
    Metadata:
      creation_time   : 2018-09-11 16:10:43
      handler_name    : Core Media Audio
    Stream #0:2(und): Audio: aac (LC) [mp4a / 0x6134706D]
      44100 Hz, stereo, fltp, 106 kb/s (default)
    Metadata:
      creation_time   : 2018-09-11 16:10:43
      handler_name    : Core Media Audio
[12:58:16] scan: decoding previews for title 1
[12:58:16] scan: audio 0x1: aac, rate=44100Hz, bitrate=2067 Unknown (AAC) (2.0 ch)
[12:58:16] scan: audio 0x2: aac, rate=44100Hz, bitrate=106896 Unknown (AAC) (2.0 ch)
[12:58:16] scan: 10 previews, 1600x1200, 9.880 fps, autocrop = 0/0/0/0, aspect 4:3, PAR 1:1
[12:58:16] libhb: scan thread found 1 valid title(s)
[12:58:16] macgui: QueueCore scan done
[12:58:16] macgui: QueueCore started encoding How students annotate on a PDF assignment.mp4
[12:58:16] macgui: QueueCore with preset Fast 720p30
[12:58:16] 1 job(s) to process
[12:58:16] starting job
[12:58:16] decomb filter thread started for segment 0
[12:58:16] decomb filter thread started for segment 1
[12:58:16] decomb filter thread started for segment 2
[12:58:16] decomb filter thread started for segment 3
[12:58:16] decomb check thread started for segment 0
[12:58:16] decomb check thread started for segment 1
[12:58:16] decomb check thread started for segment 2
[12:58:16] decomb check thread started for segment 3
[12:58:16] mask filter thread started for segment 0
[12:58:16] mask filter thread started for segment 1
[12:58:16] mask filter thread started for segment 2
[12:58:16] mask filter thread started for segment 3
[12:58:16] mask erode thread started for segment 0
[12:58:16] mask erode thread started for segment 1
[12:58:16] mask erode thread started for segment 2
[12:58:16] mask erode thread started for segment 3
[12:58:16] mask dilate thread started for segment 0
[12:58:16] mask dilate thread started for segment 1
[12:58:16] mask dilate thread started for segment 2
[12:58:16] mask dilate thread started for segment 3
[12:58:16] yadif thread started for segment 0
[12:58:16] yadif thread started for segment 1
[12:58:16] yadif thread started for segment 2
[12:58:16] yadif thread started for segment 3
[12:58:16] work: only 1 chapter, disabling chapter markers
[12:58:16] job configuration:
[12:58:16]  * source
[12:58:16]    + /Users/jasonkazar/Desktop/How students annotate on a PDF assignment.MP4
[12:58:16]    + title 1, chapter(s) 1 to 1
[12:58:16]    + container: mov,mp4,m4a,3gp,3g2,mj2
[12:58:16]    + data rate: 856 kbps
[12:58:16]  * destination
[12:58:16]    + /Users/jasonkazar/Desktop/FilmCONV/How students annotate on a PDF assignment.mp4
[12:58:16]    + container: MPEG-4 (libavformat)
[12:58:16]      + align initial A/V stream timestamps
[12:58:16]  * video track
[12:58:16]    + decoder: h264
[12:58:16]      + bitrate 744 kbps
[12:58:16]    + filters
[12:58:16]      + Comb Detect (mode=3:spatial-metric=2:motion-thresh=1:spatial-thresh=1:filter-mode=2:block-thresh=40:block-width=16:block-height=16)
[12:58:16]      + Decomb (mode=39)
[12:58:16]      + Framerate Shaper (mode=2:rate=27000000/900000)
[12:58:16]        + frame rate: 9.880 fps -> peak rate limited to 30.000 fps
[12:58:16]      + Crop and Scale (width=1280:height=720:crop-top=0:crop-bottom=0:crop-left=0:crop-right=0)
[12:58:16]        + source: 1600 * 1200, crop (0/0/0/0): 1600 * 1200, scale: 1280 * 720
[12:58:16]    + Output geometry
[12:58:16]      + storage dimensions: 1280 x 720
[12:58:16]      + pixel aspect ratio: 3 : 4
[12:58:16]      + display dimensions: 960 x 720
[12:58:16]    + encoder: H.264 (libx264)
[12:58:16]      + preset:  fast
[12:58:16]      + profile: main
[12:58:16]      + level:   3.1
[12:58:16]      + quality: 21.00 (RF)
[12:58:16]  * audio track 1
[12:58:16]    + decoder: Unknown (AAC) (2.0 ch) (track 1, id 0x1)
[12:58:16]      + bitrate: 2 kbps, samplerate: 44100 Hz
[12:58:16]    + mixdown: Stereo
[12:58:16]    + encoder: AAC (Apple AudioToolbox)
[12:58:16]      + bitrate: 160 kbps, samplerate: 44100 Hz
[12:58:17] sync: expecting 2443 video frames
[12:58:17] encx264: min-keyint: 10, keyint: 100
[12:58:17] encx264: encoding at constant RF 21.000000
[12:58:17] encx264: unparsed options: level=3.1:ref=2:8x8dct=0:weightp=1:subme=6:vbv-bufsize=14000:vbv-maxrate=14000:rc-lookahead=30
x264 [info]: using SAR=3/4
x264 [info]: using cpu capabilities: MMX2 SSE2Fast SSSE3 SSE4.2 AVX FMA3 BMI2 AVX2
x264 [info]: profile Main, level 3.1
[12:58:17] sync: first pts audio 0x1 is 0
[12:58:17] sync: first pts video is 0
[12:58:17] sync: "Chapter 1" (1) at frame 1 time 0
[12:58:17] sync: video time went backwards 101 ms, dropped 1 frames. PTS 2215650
[12:58:18] sync: video time went backwards 101 ms, dropped 1 frames. PTS 3183805
[12:58:18] sync: video time went backwards 101 ms, dropped 1 frames. PTS 3261150
[12:58:20] sync: video time went backwards 101 ms, dropped 1 frames. PTS 4924998
[12:58:20] sync: video time went backwards 101 ms, dropped 1 frames. PTS 4940107
[12:58:23] sync: video time went backwards 101 ms, dropped 1 frames. PTS 6124699
[12:58:33] sync: video time went backwards 101 ms, dropped 1 frames. PTS 10853157
[12:58:34] sync: video time went backwards 101 ms, dropped 1 frames. PTS 10946100
[12:58:40] sync: video time went backwards 101 ms, dropped 1 frames. PTS 12446694
[12:58:40] sync: video time went backwards 101 ms, dropped 1 frames. PTS 12496412
[12:58:41] sync: video time went backwards 101 ms, dropped 1 frames. PTS 12561021
[12:58:46] sync: video time went backwards 101 ms, dropped 1 frames. PTS 15962400
[12:58:47] sync: video time went backwards 101 ms, dropped 1 frames. PTS 16407886
[12:59:02] sync: video time went backwards 101 ms, dropped 1 frames. PTS 18817840
[12:59:08] reader: done. 1 scr changes
[12:59:09] work: average encoding speed for job is 46.383137 fps
[12:59:09] comb detect: heavy 214 | light 257 | uncombed 1956 | total 2427
[12:59:09] decomb: deinterlaced 214 | blended 257 | unfiltered 1956 | total 2427
[12:59:09] vfr: 1477 frames output, 950 dropped and 0 duped for CFR/PFR
[12:59:09] vfr: lost time: 0 (0 frames)
[12:59:09] vfr: gained time: 0 (0 frames) (0 not accounted for)
[12:59:09] aac-decoder done: 10650 frames, 0 decoder errors
[12:59:09] h264-decoder done: 2441 frames, 0 decoder errors
[12:59:10] sync: got 2427 frames, 2443 expected
[12:59:10] sync: framerate min 0.059 fps, max 66.667 fps, avg 9.821 fps
x264 [info]: frame I:17    Avg QP:12.24  size: 54570
x264 [info]: frame P:586   Avg QP:16.56  size:  4901
x264 [info]: frame B:874   Avg QP:19.68  size:   832
x264 [info]: consecutive B-frames: 15.5% 13.1% 11.0% 60.4%
x264 [info]: mb I  I16..4: 72.7%  0.0% 27.3%
x264 [info]: mb P  I16..4: 10.2%  0.0%  1.1%  P16..4:  8.3%  1.7%  1.3%  0.0%  0.0%    skip:77.3%
x264 [info]: mb B  I16..4:  1.1%  0.0%  0.1%  B16..8:  2.2%  0.6%  0.0%  direct: 6.6%  skip:89.3%  L0:43.6% L1:46.0% BI:10.4%
x264 [info]: coded y,uvDC,uvAC intra: 10.2% 21.5% 14.6% inter: 1.7% 5.5% 0.4%
x264 [info]: i16 v,h,dc,p: 61% 37%  2%  0%
x264 [info]: i4 v,h,dc,ddl,ddr,vr,hd,vl,hu: 28% 35% 22%  2%  3%  2%  4%  2%  3%
x264 [info]: i8c dc,h,v,p: 64% 26%  9%  1%
x264 [info]: Weighted P-Frames: Y:1.2% UV:0.3%
x264 [info]: ref P L0: 71.5% 28.5%
x264 [info]: ref B L0: 78.3% 21.7%
x264 [info]: ref B L1: 95.0%  5.0%
x264 [info]: kb/s:146.58
[12:59:10] mux: track 0, 1477 frames, 4526396 bytes, 146.39 kbps, fifo 2048
[12:59:10] mux: track 1, 10651 frames, 63906 bytes, 2.07 kbps, fifo 16384
[12:59:10] libhb: work result = 0
[12:59:10] macgui: QueueCore work done
[12:59:10] macgui: Queue Done, there are no more pending encodes
[13:02:17] macgui: QueueCore scanning specifically for title: 1
[13:02:17] CPU: Intel(R) Core(TM) i5-5257U CPU @ 2.70GHz
[13:02:17]  - Intel microarchitecture Broadwell
[13:02:17]  - logical processor count: 4
[13:02:17] hb_scan: path=/Users/jasonkazar/Desktop/How students annotate on a PDF assignment.MP4, title_index=1
udfread ERROR: ECMA 167 Volume Recognition failed
disc.c:323: failed opening UDF image /Users/jasonkazar/Desktop/How students annotate on a PDF assignment.MP4
disc.c:424: error opening file BDMV/index.bdmv
disc.c:424: error opening file BDMV/BACKUP/index.bdmv
[13:02:17] bd: not a bd - trying as a stream/file instead
libdvdnav: Using dvdnav version 6.0.0
libdvdread: Encrypted DVD support unavailable.
libdvdread:DVDOpenFileUDF:UDFFindFile /VIDEO_TS/VIDEO_TS.IFO failed
libdvdread:DVDOpenFileUDF:UDFFindFile /VIDEO_TS/VIDEO_TS.BUP failed
libdvdread: Can't open file VIDEO_TS.IFO.
libdvdnav: vm: failed to read VIDEO_TS.IFO
[13:02:17] dvd: not a dvd - trying as a stream/file instead
Input #0, mov,mp4,m4a,3gp,3g2,mj2, from '/Users/jasonkazar/Desktop/How students annotate on a PDF assignment.MP4':
  Metadata:
    major_brand     : mp42
    minor_version   : 1
    compatible_brands: mp41mp42isom
    creation_time   : 2018-09-11 16:10:43
  Duration: 00:04:07.29, start: 0.037075, bitrate: 856 kb/s
    Stream #0:0(und): Video: h264 (High) [avc1 / 0x31637661]
      yuvj420p, pc, 1200x1600, 744 kb/s
      600 tbn (default)
    Metadata:
      creation_time   : 2018-09-11 16:10:43
      handler_name    : Core Media Video
    Side data:
      displaymatrix: rotation of 90.00 degrees
    Stream #0:1(und): Audio: aac (LC) [mp4a / 0x6134706D]
      44100 Hz, stereo, fltp, 2 kb/s (default)
    Metadata:
      creation_time   : 2018-09-11 16:10:43
      handler_name    : Core Media Audio
    Stream #0:2(und): Audio: aac (LC) [mp4a / 0x6134706D]
      44100 Hz, stereo, fltp, 106 kb/s (default)
    Metadata:
      creation_time   : 2018-09-11 16:10:43
      handler_name    : Core Media Audio
[13:02:17] scan: decoding previews for title 1
[13:02:17] scan: audio 0x1: aac, rate=44100Hz, bitrate=2067 Unknown (AAC) (2.0 ch)
[13:02:17] scan: audio 0x2: aac, rate=44100Hz, bitrate=106896 Unknown (AAC) (2.0 ch)
[13:02:18] scan: 10 previews, 1600x1200, 9.880 fps, autocrop = 0/0/0/0, aspect 4:3, PAR 1:1
[13:02:18] libhb: scan thread found 1 valid title(s)
[13:02:18] macgui: QueueCore scan done
[13:02:18] macgui: QueueCore started encoding How students annotate on a PDF assignment.mp4
[13:02:18] 1 job(s) to process
[13:02:18] macgui: QueueCore with preset Fast 720p30
[13:02:18] starting job
[13:02:18] decomb filter thread started for segment 0
[13:02:18] decomb filter thread started for segment 1
[13:02:18] decomb filter thread started for segment 2
[13:02:18] decomb filter thread started for segment 3
[13:02:18] decomb check thread started for segment 0
[13:02:18] decomb check thread started for segment 1
[13:02:18] decomb check thread started for segment 2
[13:02:18] decomb check thread started for segment 3
[13:02:18] mask filter thread started for segment 0
[13:02:18] mask filter thread started for segment 1
[13:02:18] mask filter thread started for segment 2
[13:02:18] mask filter thread started for segment 3
[13:02:18] mask erode thread started for segment 0
[13:02:18] mask erode thread started for segment 1
[13:02:18] mask erode thread started for segment 2
[13:02:18] mask erode thread started for segment 3
[13:02:18] mask dilate thread started for segment 0
[13:02:18] mask dilate thread started for segment 1
[13:02:18] mask dilate thread started for segment 2
[13:02:18] mask dilate thread started for segment 3
[13:02:18] yadif thread started for segment 0
[13:02:18] yadif thread started for segment 1
[13:02:18] yadif thread started for segment 2
[13:02:18] yadif thread started for segment 3
[13:02:18] work: only 1 chapter, disabling chapter markers
[13:02:18] job configuration:
[13:02:18]  * source
[13:02:18]    + /Users/jasonkazar/Desktop/How students annotate on a PDF assignment.MP4
[13:02:18]    + title 1, chapter(s) 1 to 1
[13:02:18]    + container: mov,mp4,m4a,3gp,3g2,mj2
[13:02:18]    + data rate: 856 kbps
[13:02:18]  * destination
[13:02:18]    + /Users/jasonkazar/Desktop/FilmCONV/How students annotate on a PDF assignment.mp4
[13:02:18]    + container: MPEG-4 (libavformat)
[13:02:18]      + align initial A/V stream timestamps
[13:02:18]  * video track
[13:02:18]    + decoder: h264
[13:02:18]      + bitrate 744 kbps
[13:02:18]    + filters
[13:02:18]      + Comb Detect (mode=3:spatial-metric=2:motion-thresh=1:spatial-thresh=1:filter-mode=2:block-thresh=40:block-width=16:block-height=16)
[13:02:18]      + Decomb (mode=39)
[13:02:18]      + Framerate Shaper (mode=2:rate=27000000/900000)
[13:02:18]        + frame rate: 9.880 fps -> peak rate limited to 30.000 fps
[13:02:18]      + Crop and Scale (width=1280:height=720:crop-top=0:crop-bottom=0:crop-left=0:crop-right=0)
[13:02:18]        + source: 1600 * 1200, crop (0/0/0/0): 1600 * 1200, scale: 1280 * 720
[13:02:18]    + Output geometry
[13:02:18]      + storage dimensions: 1280 x 720
[13:02:18]      + pixel aspect ratio: 3 : 4
[13:02:18]      + display dimensions: 960 x 720
[13:02:18]    + encoder: H.264 (libx264)
[13:02:18]      + preset:  fast
[13:02:18]      + profile: main
[13:02:18]      + level:   3.1
[13:02:18]      + quality: 21.00 (RF)
[13:02:18]  * audio track 1
[13:02:18]    + decoder: Unknown (AAC) (2.0 ch) (track 1, id 0x1)
[13:02:18]      + bitrate: 2 kbps, samplerate: 44100 Hz
[13:02:18]    + mixdown: Stereo
[13:02:18]    + encoder: AAC (Apple AudioToolbox)
[13:02:18]      + bitrate: 160 kbps, samplerate: 44100 Hz
[13:02:18] sync: expecting 2443 video frames
[13:02:18] encx264: min-keyint: 10, keyint: 100
[13:02:18] encx264: encoding at constant RF 21.000000
[13:02:18] encx264: unparsed options: level=3.1:ref=2:8x8dct=0:weightp=1:subme=6:vbv-bufsize=14000:vbv-maxrate=14000:rc-lookahead=30
x264 [info]: using SAR=3/4
x264 [info]: using cpu capabilities: MMX2 SSE2Fast SSSE3 SSE4.2 AVX FMA3 BMI2 AVX2
x264 [info]: profile Main, level 3.1
[13:02:18] sync: first pts audio 0x1 is 0
[13:02:18] sync: first pts video is 0
[13:02:18] sync: "Chapter 1" (1) at frame 1 time 0
[13:02:18] sync: video time went backwards 101 ms, dropped 1 frames. PTS 2215650
[13:02:19] sync: video time went backwards 101 ms, dropped 1 frames. PTS 3183805
[13:02:20] sync: video time went backwards 101 ms, dropped 1 frames. PTS 3261150
[13:02:21] sync: video time went backwards 101 ms, dropped 1 frames. PTS 4924998
[13:02:21] sync: video time went backwards 101 ms, dropped 1 frames. PTS 4940107
[13:02:24] sync: video time went backwards 101 ms, dropped 1 frames. PTS 6124699
[13:02:34] sync: video time went backwards 101 ms, dropped 1 frames. PTS 10853157
[13:02:35] sync: video time went backwards 101 ms, dropped 1 frames. PTS 10946100
[13:02:41] sync: video time went backwards 101 ms, dropped 1 frames. PTS 12446694
[13:02:41] sync: video time went backwards 101 ms, dropped 1 frames. PTS 12496412
[13:02:42] sync: video time went backwards 101 ms, dropped 1 frames. PTS 12561021
[13:02:47] sync: video time went backwards 101 ms, dropped 1 frames. PTS 15962400
[13:02:48] sync: video time went backwards 101 ms, dropped 1 frames. PTS 16407886
[13:03:02] sync: video time went backwards 101 ms, dropped 1 frames. PTS 18817840
[13:03:09] reader: done. 1 scr changes
[13:03:10] work: average encoding speed for job is 47.159893 fps
[13:03:10] comb detect: heavy 214 | light 257 | uncombed 1956 | total 2427
[13:03:10] decomb: deinterlaced 214 | blended 257 | unfiltered 1956 | total 2427
[13:03:10] vfr: 1477 frames output, 950 dropped and 0 duped for CFR/PFR
[13:03:10] vfr: lost time: 0 (0 frames)
[13:03:10] vfr: gained time: 0 (0 frames) (0 not accounted for)
[13:03:10] aac-decoder done: 10650 frames, 0 decoder errors
[13:03:10] h264-decoder done: 2441 frames, 0 decoder errors
[13:03:10] sync: got 2427 frames, 2443 expected
[13:03:10] sync: framerate min 0.059 fps, max 66.667 fps, avg 9.821 fps
x264 [info]: frame I:17    Avg QP:12.24  size: 54570
x264 [info]: frame P:586   Avg QP:16.56  size:  4901
x264 [info]: frame B:874   Avg QP:19.68  size:   832
x264 [info]: consecutive B-frames: 15.5% 13.1% 11.0% 60.4%
x264 [info]: mb I  I16..4: 72.7%  0.0% 27.3%
x264 [info]: mb P  I16..4: 10.2%  0.0%  1.1%  P16..4:  8.3%  1.7%  1.3%  0.0%  0.0%    skip:77.3%
x264 [info]: mb B  I16..4:  1.1%  0.0%  0.1%  B16..8:  2.2%  0.6%  0.0%  direct: 6.6%  skip:89.3%  L0:43.6% L1:46.0% BI:10.4%
x264 [info]: coded y,uvDC,uvAC intra: 10.2% 21.5% 14.6% inter: 1.7% 5.5% 0.4%
x264 [info]: i16 v,h,dc,p: 61% 37%  2%  0%
x264 [info]: i4 v,h,dc,ddl,ddr,vr,hd,vl,hu: 28% 35% 22%  2%  3%  2%  4%  2%  3%
x264 [info]: i8c dc,h,v,p: 64% 26%  9%  1%
x264 [info]: Weighted P-Frames: Y:1.2% UV:0.3%
x264 [info]: ref P L0: 71.5% 28.5%
x264 [info]: ref B L0: 78.3% 21.7%
x264 [info]: ref B L1: 95.0%  5.0%
x264 [info]: kb/s:146.58
[13:03:10] mux: track 0, 1477 frames, 4526396 bytes, 146.39 kbps, fifo 2048
[13:03:10] mux: track 1, 10651 frames, 63906 bytes, 2.07 kbps, fifo 16384
[13:03:10] libhb: work result = 0
[13:03:10] macgui: QueueCore work done
[13:03:10] macgui: Queue Done, there are no more pending encodes
[13:05:33] macgui: QueueCore scanning specifically for title: 1
[13:05:33] CPU: Intel(R) Core(TM) i5-5257U CPU @ 2.70GHz
[13:05:33]  - Intel microarchitecture Broadwell
[13:05:33]  - logical processor count: 4
[13:05:33] hb_scan: path=/Users/jasonkazar/Desktop/How students annotate on a PDF assignment.MP4, title_index=1
udfread ERROR: ECMA 167 Volume Recognition failed
disc.c:323: failed opening UDF image /Users/jasonkazar/Desktop/How students annotate on a PDF assignment.MP4
disc.c:424: error opening file BDMV/index.bdmv
disc.c:424: error opening file BDMV/BACKUP/index.bdmv
[13:05:33] bd: not a bd - trying as a stream/file instead
libdvdnav: Using dvdnav version 6.0.0
libdvdread: Encrypted DVD support unavailable.
libdvdread:DVDOpenFileUDF:UDFFindFile /VIDEO_TS/VIDEO_TS.IFO failed
libdvdread:DVDOpenFileUDF:UDFFindFile /VIDEO_TS/VIDEO_TS.BUP failed
libdvdread: Can't open file VIDEO_TS.IFO.
libdvdnav: vm: failed to read VIDEO_TS.IFO
[13:05:33] dvd: not a dvd - trying as a stream/file instead
Input #0, mov,mp4,m4a,3gp,3g2,mj2, from '/Users/jasonkazar/Desktop/How students annotate on a PDF assignment.MP4':
  Metadata:
    major_brand     : mp42
    minor_version   : 1
    compatible_brands: mp41mp42isom
    creation_time   : 2018-09-11 16:10:43
  Duration: 00:04:07.29, start: 0.037075, bitrate: 856 kb/s
    Stream #0:0(und): Video: h264 (High) [avc1 / 0x31637661]
      yuvj420p, pc, 1200x1600, 744 kb/s
      600 tbn (default)
    Metadata:
      creation_time   : 2018-09-11 16:10:43
      handler_name    : Core Media Video
    Side data:
      displaymatrix: rotation of 90.00 degrees
    Stream #0:1(und): Audio: aac (LC) [mp4a / 0x6134706D]
      44100 Hz, stereo, fltp, 2 kb/s (default)
    Metadata:
      creation_time   : 2018-09-11 16:10:43
      handler_name    : Core Media Audio
    Stream #0:2(und): Audio: aac (LC) [mp4a / 0x6134706D]
      44100 Hz, stereo, fltp, 106 kb/s (default)
    Metadata:
      creation_time   : 2018-09-11 16:10:43
      handler_name    : Core Media Audio
[13:05:33] scan: decoding previews for title 1
[13:05:33] scan: audio 0x1: aac, rate=44100Hz, bitrate=2067 Unknown (AAC) (2.0 ch)
[13:05:33] scan: audio 0x2: aac, rate=44100Hz, bitrate=106896 Unknown (AAC) (2.0 ch)
[13:05:33] scan: 10 previews, 1600x1200, 9.880 fps, autocrop = 0/0/0/0, aspect 4:3, PAR 1:1
[13:05:33] libhb: scan thread found 1 valid title(s)
[13:05:34] macgui: QueueCore scan done
[13:05:34] macgui: QueueCore started encoding How students annotate on a PDF assignment.mp4
[13:05:34] 1 job(s) to process
[13:05:34] macgui: QueueCore with preset Fast 720p30
[13:05:34] starting job
[13:05:34] decomb filter thread started for segment 0
[13:05:34] decomb filter thread started for segment 1
[13:05:34] decomb filter thread started for segment 3
[13:05:34] decomb check thread started for segment 1
[13:05:34] decomb filter thread started for segment 2
[13:05:34] decomb check thread started for segment 0
[13:05:34] decomb check thread started for segment 2
[13:05:34] mask filter thread started for segment 0
[13:05:34] decomb check thread started for segment 3
[13:05:34] mask filter thread started for segment 1
[13:05:34] mask filter thread started for segment 2
[13:05:34] mask filter thread started for segment 3
[13:05:34] mask erode thread started for segment 0
[13:05:34] mask erode thread started for segment 1
[13:05:34] mask erode thread started for segment 2
[13:05:34] mask erode thread started for segment 3
[13:05:34] mask dilate thread started for segment 0
[13:05:34] mask dilate thread started for segment 1
[13:05:34] mask dilate thread started for segment 2
[13:05:34] mask dilate thread started for segment 3
[13:05:34] yadif thread started for segment 0
[13:05:34] yadif thread started for segment 1
[13:05:34] yadif thread started for segment 2
[13:05:34] yadif thread started for segment 3
[13:05:34] work: only 1 chapter, disabling chapter markers
[13:05:34] job configuration:
[13:05:34]  * source
[13:05:34]    + /Users/jasonkazar/Desktop/How students annotate on a PDF assignment.MP4
[13:05:34]    + title 1, chapter(s) 1 to 1
[13:05:34]    + container: mov,mp4,m4a,3gp,3g2,mj2
[13:05:34]    + data rate: 856 kbps
[13:05:34]  * destination
[13:05:34]    + /Users/jasonkazar/Desktop/FilmCONV/How students annotate on a PDF assignment.mp4
[13:05:34]    + container: MPEG-4 (libavformat)
[13:05:34]      + align initial A/V stream timestamps
[13:05:34]  * video track
[13:05:34]    + decoder: h264
[13:05:34]      + bitrate 744 kbps
[13:05:34]    + filters
[13:05:34]      + Comb Detect (mode=3:spatial-metric=2:motion-thresh=1:spatial-thresh=1:filter-mode=2:block-thresh=40:block-width=16:block-height=16)
[13:05:34]      + Decomb (mode=39)
[13:05:34]      + Framerate Shaper (mode=2:rate=27000000/900000)
[13:05:34]        + frame rate: 9.880 fps -> peak rate limited to 30.000 fps
[13:05:34]      + Crop and Scale (width=1280:height=720:crop-top=0:crop-bottom=0:crop-left=0:crop-right=0)
[13:05:34]        + source: 1600 * 1200, crop (0/0/0/0): 1600 * 1200, scale: 1280 * 720
[13:05:34]    + Output geometry
[13:05:34]      + storage dimensions: 1280 x 720
[13:05:34]      + pixel aspect ratio: 3 : 4
[13:05:34]      + display dimensions: 960 x 720
[13:05:34]    + encoder: H.264 (libx264)
[13:05:34]      + preset:  fast
[13:05:34]      + profile: main
[13:05:34]      + level:   3.1
[13:05:34]      + quality: 21.00 (RF)
[13:05:34]  * audio track 1
[13:05:34]    + decoder: Unknown (AAC) (2.0 ch) (track 1, id 0x1)
[13:05:34]      + bitrate: 2 kbps, samplerate: 44100 Hz
[13:05:34]    + mixdown: Stereo
[13:05:34]    + encoder: MP3 (libmp3lame)
[13:05:34]      + bitrate: 160 kbps, samplerate: 44100 Hz
[13:05:34]      + compression level: 2.00
[13:05:34] sync: expecting 2443 video frames
[13:05:34] encx264: min-keyint: 10, keyint: 100
[13:05:34] encx264: encoding at constant RF 21.000000
[13:05:34] encx264: unparsed options: level=3.1:ref=2:8x8dct=0:weightp=1:subme=6:vbv-bufsize=14000:vbv-maxrate=14000:rc-lookahead=30
x264 [info]: using SAR=3/4
x264 [info]: using cpu capabilities: MMX2 SSE2Fast SSSE3 SSE4.2 AVX FMA3 BMI2 AVX2
x264 [info]: profile Main, level 3.1
[13:05:34] sync: first pts audio 0x1 is 0
[13:05:34] sync: first pts video is 0
[13:05:34] sync: "Chapter 1" (1) at frame 1 time 0
[13:05:34] sync: video time went backwards 101 ms, dropped 1 frames. PTS 2215650
[13:05:35] sync: video time went backwards 101 ms, dropped 1 frames. PTS 3183805
[13:05:36] sync: video time went backwards 101 ms, dropped 1 frames. PTS 3261150
[13:05:37] sync: video time went backwards 101 ms, dropped 1 frames. PTS 4924998
[13:05:37] sync: video time went backwards 101 ms, dropped 1 frames. PTS 4940107
[13:05:41] sync: video time went backwards 101 ms, dropped 1 frames. PTS 6124699
[13:05:52] sync: video time went backwards 101 ms, dropped 1 frames. PTS 10853157
[13:05:52] sync: video time went backwards 101 ms, dropped 1 frames. PTS 10946100
[13:05:59] sync: video time went backwards 101 ms, dropped 1 frames. PTS 12446694
[13:05:59] sync: video time went backwards 101 ms, dropped 1 frames. PTS 12496412
[13:06:00] sync: video time went backwards 101 ms, dropped 1 frames. PTS 12561021
[13:06:06] sync: video time went backwards 101 ms, dropped 1 frames. PTS 15962400
[13:06:06] sync: video time went backwards 101 ms, dropped 1 frames. PTS 16407886
[13:06:21] sync: video time went backwards 101 ms, dropped 1 frames. PTS 18817840
[13:06:27] reader: done. 1 scr changes
[13:06:28] work: average encoding speed for job is 44.604317 fps
[13:06:29] comb detect: heavy 214 | light 257 | uncombed 1956 | total 2427
[13:06:29] decomb: deinterlaced 214 | blended 257 | unfiltered 1956 | total 2427
[13:06:29] vfr: 1477 frames output, 950 dropped and 0 duped for CFR/PFR
[13:06:29] vfr: lost time: 0 (0 frames)
[13:06:29] vfr: gained time: 0 (0 frames) (0 not accounted for)
[13:06:29] aac-decoder done: 10650 frames, 0 decoder errors
[13:06:29] h264-decoder done: 2441 frames, 0 decoder errors
[13:06:29] sync: got 2427 frames, 2443 expected
[13:06:29] sync: framerate min 0.059 fps, max 66.667 fps, avg 9.821 fps
x264 [info]: frame I:17    Avg QP:12.24  size: 54570
x264 [info]: frame P:586   Avg QP:16.56  size:  4901
x264 [info]: frame B:874   Avg QP:19.68  size:   832
x264 [info]: consecutive B-frames: 15.5% 13.1% 11.0% 60.4%
x264 [info]: mb I  I16..4: 72.7%  0.0% 27.3%
x264 [info]: mb P  I16..4: 10.2%  0.0%  1.1%  P16..4:  8.3%  1.7%  1.3%  0.0%  0.0%    skip:77.3%
x264 [info]: mb B  I16..4:  1.1%  0.0%  0.1%  B16..8:  2.2%  0.6%  0.0%  direct: 6.6%  skip:89.3%  L0:43.6% L1:46.0% BI:10.4%
x264 [info]: coded y,uvDC,uvAC intra: 10.2% 21.5% 14.6% inter: 1.7% 5.5% 0.4%
x264 [info]: i16 v,h,dc,p: 61% 37%  2%  0%
x264 [info]: i4 v,h,dc,ddl,ddr,vr,hd,vl,hu: 28% 35% 22%  2%  3%  2%  4%  2%  3%
x264 [info]: i8c dc,h,v,p: 64% 26%  9%  1%
x264 [info]: Weighted P-Frames: Y:1.2% UV:0.3%
x264 [info]: ref P L0: 71.5% 28.5%
x264 [info]: ref B L0: 78.3% 21.7%
x264 [info]: ref B L1: 95.0%  5.0%
x264 [info]: kb/s:146.58
[13:06:29] mux: track 0, 1477 frames, 4526396 bytes, 146.39 kbps, fifo 2048
[13:06:29] mux: track 1, 9466 frames, 4945502 bytes, 159.94 kbps, fifo 16384
[13:06:29] libhb: work result = 0
[13:06:29] macgui: QueueCore work done
[13:06:29] macgui: Queue Done, there are no more pending encodes
[13:08:52] macgui: QueueCore scanning specifically for title: 1
[13:08:52] CPU: Intel(R) Core(TM) i5-5257U CPU @ 2.70GHz
[13:08:52]  - Intel microarchitecture Broadwell
[13:08:52]  - logical processor count: 4
[13:08:52] hb_scan: path=/Users/jasonkazar/Desktop/How students annotate on a PDF assignment.MP4, title_index=1
udfread ERROR: ECMA 167 Volume Recognition failed
disc.c:323: failed opening UDF image /Users/jasonkazar/Desktop/How students annotate on a PDF assignment.MP4
disc.c:424: error opening file BDMV/index.bdmv
disc.c:424: error opening file BDMV/BACKUP/index.bdmv
[13:08:52] bd: not a bd - trying as a stream/file instead
libdvdnav: Using dvdnav version 6.0.0
libdvdread: Encrypted DVD support unavailable.
libdvdread:DVDOpenFileUDF:UDFFindFile /VIDEO_TS/VIDEO_TS.IFO failed
libdvdread:DVDOpenFileUDF:UDFFindFile /VIDEO_TS/VIDEO_TS.BUP failed
libdvdread: Can't open file VIDEO_TS.IFO.
libdvdnav: vm: failed to read VIDEO_TS.IFO
[13:08:52] dvd: not a dvd - trying as a stream/file instead
Input #0, mov,mp4,m4a,3gp,3g2,mj2, from '/Users/jasonkazar/Desktop/How students annotate on a PDF assignment.MP4':
  Metadata:
    major_brand     : mp42
    minor_version   : 1
    compatible_brands: mp41mp42isom
    creation_time   : 2018-09-11 16:10:43
  Duration: 00:04:07.29, start: 0.037075, bitrate: 856 kb/s
    Stream #0:0(und): Video: h264 (High) [avc1 / 0x31637661]
      yuvj420p, pc, 1200x1600, 744 kb/s
      600 tbn (default)
    Metadata:
      creation_time   : 2018-09-11 16:10:43
      handler_name    : Core Media Video
    Side data:
      displaymatrix: rotation of 90.00 degrees
    Stream #0:1(und): Audio: aac (LC) [mp4a / 0x6134706D]
      44100 Hz, stereo, fltp, 2 kb/s (default)
    Metadata:
      creation_time   : 2018-09-11 16:10:43
      handler_name    : Core Media Audio
    Stream #0:2(und): Audio: aac (LC) [mp4a / 0x6134706D]
      44100 Hz, stereo, fltp, 106 kb/s (default)
    Metadata:
      creation_time   : 2018-09-11 16:10:43
      handler_name    : Core Media Audio
[13:08:52] scan: decoding previews for title 1
[13:08:52] scan: audio 0x1: aac, rate=44100Hz, bitrate=2067 Unknown (AAC) (2.0 ch)
[13:08:52] scan: audio 0x2: aac, rate=44100Hz, bitrate=106896 Unknown (AAC) (2.0 ch)
[13:08:53] scan: 10 previews, 1600x1200, 9.880 fps, autocrop = 0/0/0/0, aspect 4:3, PAR 1:1
[13:08:53] libhb: scan thread found 1 valid title(s)
[13:08:53] macgui: QueueCore scan done
[13:08:53] macgui: QueueCore started encoding How students annotate on a PDF assignment.mp4
[13:08:53] macgui: QueueCore with preset Fast 720p30 (Modified)
[13:08:53] 1 job(s) to process
[13:08:53] starting job
[13:08:53] work: only 1 chapter, disabling chapter markers
[13:08:53] job configuration:
[13:08:53]  * source
[13:08:53]    + /Users/jasonkazar/Desktop/How students annotate on a PDF assignment.MP4
[13:08:53]    + title 1, chapter(s) 1 to 1
[13:08:53]    + container: mov,mp4,m4a,3gp,3g2,mj2
[13:08:53]    + data rate: 856 kbps
[13:08:53]  * destination
[13:08:53]    + /Users/jasonkazar/Desktop/FilmCONV/How students annotate on a PDF assignment.mp4
[13:08:53]    + container: MPEG-4 (libavformat)
[13:08:53]      + align initial A/V stream timestamps
[13:08:53]  * video track
[13:08:53]    + decoder: h264
[13:08:53]      + bitrate 744 kbps
[13:08:53]    + filters
[13:08:53]      + Framerate Shaper (mode=2:rate=27000000/900000)
[13:08:53]        + frame rate: 9.880 fps -> peak rate limited to 30.000 fps
[13:08:53]      + Crop and Scale (width=1280:height=720:crop-top=0:crop-bottom=0:crop-left=0:crop-right=0)
[13:08:53]        + source: 1600 * 1200, crop (0/0/0/0): 1600 * 1200, scale: 1280 * 720
[13:08:53]    + Output geometry
[13:08:53]      + storage dimensions: 1280 x 720
[13:08:53]      + pixel aspect ratio: 3 : 4
[13:08:53]      + display dimensions: 960 x 720
[13:08:53]    + encoder: H.264 (libx264)
[13:08:53]      + preset:  fast
[13:08:53]      + profile: main
[13:08:53]      + level:   3.1
[13:08:53]      + quality: 21.00 (RF)
[13:08:53]  * audio track 1
[13:08:53]    + decoder: Unknown (AAC) (2.0 ch) (track 1, id 0x1)
[13:08:53]      + bitrate: 2 kbps, samplerate: 44100 Hz
[13:08:53]    + mixdown: Stereo
[13:08:53]    + encoder: AAC (Apple AudioToolbox)
[13:08:53]      + bitrate: 160 kbps, samplerate: 44100 Hz
[13:08:53] sync: expecting 2443 video frames
[13:08:53] encx264: min-keyint: 10, keyint: 100
[13:08:53] encx264: encoding at constant RF 21.000000
[13:08:53] encx264: unparsed options: level=3.1:ref=2:8x8dct=0:weightp=1:subme=6:vbv-bufsize=14000:vbv-maxrate=14000:rc-lookahead=30
x264 [info]: using SAR=3/4
x264 [info]: using cpu capabilities: MMX2 SSE2Fast SSSE3 SSE4.2 AVX FMA3 BMI2 AVX2
x264 [info]: profile Main, level 3.1
[13:08:53] sync: first pts audio 0x1 is 0
[13:08:54] sync: first pts video is 0
[13:08:54] sync: "Chapter 1" (1) at frame 1 time 0
[13:08:54] sync: video time went backwards 101 ms, dropped 1 frames. PTS 2215650
[13:08:54] sync: video time went backwards 101 ms, dropped 1 frames. PTS 3183805
[13:08:55] sync: video time went backwards 101 ms, dropped 1 frames. PTS 3261150
[13:08:56] sync: video time went backwards 101 ms, dropped 1 frames. PTS 4924998
[13:08:56] sync: video time went backwards 101 ms, dropped 1 frames. PTS 4940107
[13:08:57] sync: video time went backwards 101 ms, dropped 1 frames. PTS 6124699
[13:09:03] sync: video time went backwards 101 ms, dropped 1 frames. PTS 10853157
[13:09:03] sync: video time went backwards 101 ms, dropped 1 frames. PTS 10946100
[13:09:07] sync: video time went backwards 101 ms, dropped 1 frames. PTS 12446694
[13:09:07] sync: video time went backwards 101 ms, dropped 1 frames. PTS 12496412
[13:09:08] sync: video time went backwards 101 ms, dropped 1 frames. PTS 12561021
[13:09:11] sync: video time went backwards 101 ms, dropped 1 frames. PTS 15962400
[13:09:11] sync: video time went backwards 101 ms, dropped 1 frames. PTS 16407886
[13:09:19] sync: video time went backwards 101 ms, dropped 1 frames. PTS 18817840
[13:09:23] reader: done. 1 scr changes
[13:09:24] work: average encoding speed for job is 81.316925 fps
[13:09:24] vfr: 1477 frames output, 950 dropped and 0 duped for CFR/PFR
[13:09:24] vfr: lost time: 0 (0 frames)
[13:09:24] vfr: gained time: 0 (0 frames) (0 not accounted for)
[13:09:24] aac-decoder done: 10650 frames, 0 decoder errors
[13:09:24] h264-decoder done: 2441 frames, 0 decoder errors
[13:09:24] sync: got 2427 frames, 2443 expected
[13:09:24] sync: framerate min 0.059 fps, max 66.667 fps, avg 9.821 fps
x264 [info]: frame I:17    Avg QP:12.10  size: 54949
x264 [info]: frame P:598   Avg QP:16.13  size:  4309
x264 [info]: frame B:862   Avg QP:19.53  size:   699
x264 [info]: consecutive B-frames: 16.8% 13.0%  9.5% 60.7%
x264 [info]: mb I  I16..4: 72.5%  0.0% 27.5%
x264 [info]: mb P  I16..4: 10.0%  0.0%  1.0%  P16..4:  7.1%  1.6%  1.1%  0.0%  0.0%    skip:79.1%
x264 [info]: mb B  I16..4:  0.9%  0.0%  0.1%  B16..8:  2.1%  0.5%  0.0%  direct: 6.3%  skip:90.2%  L0:43.9% L1:45.5% BI:10.6%
x264 [info]: coded y,uvDC,uvAC intra: 10.1% 20.6% 14.0% inter: 1.3% 5.1% 0.3%
x264 [info]: i16 v,h,dc,p: 63% 35%  2%  0%
x264 [info]: i4 v,h,dc,ddl,ddr,vr,hd,vl,hu: 28% 34% 21%  2%  3%  2%  4%  2%  4%
x264 [info]: i8c dc,h,v,p: 66% 24% 10%  1%
x264 [info]: Weighted P-Frames: Y:1.0% UV:0.2%
x264 [info]: ref P L0: 72.2% 27.8%
x264 [info]: ref B L0: 80.2% 19.8%
x264 [info]: ref B L1: 95.6%  4.4%
x264 [info]: kb/s:133.18
[13:09:24] mux: track 0, 1477 frames, 4112454 bytes, 133.00 kbps, fifo 2048
[13:09:24] mux: track 1, 10651 frames, 63906 bytes, 2.07 kbps, fifo 16384
[13:09:24] libhb: work result = 0
[13:09:24] macgui: QueueCore work done
[13:09:24] macgui: Queue Done, there are no more pending encodes
[13:11:42] macgui: QueueCore scanning specifically for title: 1
[13:11:42] CPU: Intel(R) Core(TM) i5-5257U CPU @ 2.70GHz
[13:11:42]  - Intel microarchitecture Broadwell
[13:11:42]  - logical processor count: 4
[13:11:42] hb_scan: path=/Users/jasonkazar/Desktop/How students annotate on a PDF assignment.MP4, title_index=1
udfread ERROR: ECMA 167 Volume Recognition failed
disc.c:323: failed opening UDF image /Users/jasonkazar/Desktop/How students annotate on a PDF assignment.MP4
disc.c:424: error opening file BDMV/index.bdmv
disc.c:424: error opening file BDMV/BACKUP/index.bdmv
[13:11:42] bd: not a bd - trying as a stream/file instead
libdvdnav: Using dvdnav version 6.0.0
libdvdread: Encrypted DVD support unavailable.
libdvdread:DVDOpenFileUDF:UDFFindFile /VIDEO_TS/VIDEO_TS.IFO failed
libdvdread:DVDOpenFileUDF:UDFFindFile /VIDEO_TS/VIDEO_TS.BUP failed
libdvdread: Can't open file VIDEO_TS.IFO.
libdvdnav: vm: failed to read VIDEO_TS.IFO
[13:11:42] dvd: not a dvd - trying as a stream/file instead
Input #0, mov,mp4,m4a,3gp,3g2,mj2, from '/Users/jasonkazar/Desktop/How students annotate on a PDF assignment.MP4':
  Metadata:
    major_brand     : mp42
    minor_version   : 1
    compatible_brands: mp41mp42isom
    creation_time   : 2018-09-11 16:10:43
  Duration: 00:04:07.29, start: 0.037075, bitrate: 856 kb/s
    Stream #0:0(und): Video: h264 (High) [avc1 / 0x31637661]
      yuvj420p, pc, 1200x1600, 744 kb/s
      600 tbn (default)
    Metadata:
      creation_time   : 2018-09-11 16:10:43
      handler_name    : Core Media Video
    Side data:
      displaymatrix: rotation of 90.00 degrees
    Stream #0:1(und): Audio: aac (LC) [mp4a / 0x6134706D]
      44100 Hz, stereo, fltp, 2 kb/s (default)
    Metadata:
      creation_time   : 2018-09-11 16:10:43
      handler_name    : Core Media Audio
    Stream #0:2(und): Audio: aac (LC) [mp4a / 0x6134706D]
      44100 Hz, stereo, fltp, 106 kb/s (default)
    Metadata:
      creation_time   : 2018-09-11 16:10:43
      handler_name    : Core Media Audio
[13:11:42] scan: decoding previews for title 1
[13:11:42] scan: audio 0x1: aac, rate=44100Hz, bitrate=2067 Unknown (AAC) (2.0 ch)
[13:11:42] scan: audio 0x2: aac, rate=44100Hz, bitrate=106896 Unknown (AAC) (2.0 ch)
[13:11:43] scan: 10 previews, 1600x1200, 9.880 fps, autocrop = 0/0/0/0, aspect 4:3, PAR 1:1
[13:11:43] libhb: scan thread found 1 valid title(s)
[13:11:43] macgui: QueueCore scan done
[13:11:43] macgui: QueueCore started encoding How students annotate on a PDF assignment.mp4
[13:11:43] 1 job(s) to process
[13:11:43] macgui: QueueCore with preset Fast 720p30 (Modified)
[13:11:43] starting job
[13:11:43] work: only 1 chapter, disabling chapter markers
[13:11:43] job configuration:
[13:11:43]  * source
[13:11:43]    + /Users/jasonkazar/Desktop/How students annotate on a PDF assignment.MP4
[13:11:43]    + title 1, chapter(s) 1 to 1
[13:11:43]    + container: mov,mp4,m4a,3gp,3g2,mj2
[13:11:43]    + data rate: 856 kbps
[13:11:43]  * destination
[13:11:43]    + /Users/jasonkazar/Desktop/FilmCONV/How students annotate on a PDF assignment.mp4
[13:11:43]    + container: MPEG-4 (libavformat)
[13:11:43]      + align initial A/V stream timestamps
[13:11:43]  * video track
[13:11:43]    + decoder: h264
[13:11:43]      + bitrate 744 kbps
[13:11:43]    + filters
[13:11:43]      + Framerate Shaper (mode=2:rate=27000000/900000)
[13:11:43]        + frame rate: 9.880 fps -> peak rate limited to 30.000 fps
[13:11:43]      + Crop and Scale (width=1280:height=720:crop-top=0:crop-bottom=0:crop-left=0:crop-right=0)
[13:11:43]        + source: 1600 * 1200, crop (0/0/0/0): 1600 * 1200, scale: 1280 * 720
[13:11:43]    + Output geometry
[13:11:43]      + storage dimensions: 1280 x 720
[13:11:43]      + pixel aspect ratio: 3 : 4
[13:11:43]      + display dimensions: 960 x 720
[13:11:43]    + encoder: H.264 (libx264)
[13:11:43]      + preset:  fast
[13:11:43]      + profile: main
[13:11:43]      + level:   3.1
[13:11:43]      + quality: 21.00 (RF)
[13:11:43]  * audio track 1
[13:11:43]    + decoder: Unknown (AAC) (2.0 ch) (track 1, id 0x1)
[13:11:43]      + bitrate: 2 kbps, samplerate: 44100 Hz
[13:11:43]    + mixdown: Mono
[13:11:43]    + encoder: AAC (Apple AudioToolbox)
[13:11:43]      + bitrate: 160 kbps, samplerate: 44100 Hz
[13:11:43] sync: expecting 2443 video frames
[13:11:43] encx264: min-keyint: 10, keyint: 100
[13:11:43] encx264: encoding at constant RF 21.000000
[13:11:43] encx264: unparsed options: level=3.1:ref=2:8x8dct=0:weightp=1:subme=6:vbv-bufsize=14000:vbv-maxrate=14000:rc-lookahead=30
x264 [info]: using SAR=3/4
x264 [info]: using cpu capabilities: MMX2 SSE2Fast SSSE3 SSE4.2 AVX FMA3 BMI2 AVX2
x264 [info]: profile Main, level 3.1
[13:11:43] sync: first pts audio 0x1 is 0
[13:11:44] sync: first pts video is 0
[13:11:44] sync: "Chapter 1" (1) at frame 1 time 0
[13:11:44] sync: video time went backwards 101 ms, dropped 1 frames. PTS 2215650
[13:11:44] sync: video time went backwards 101 ms, dropped 1 frames. PTS 3183805
[13:11:45] sync: video time went backwards 101 ms, dropped 1 frames. PTS 3261150
[13:11:46] sync: video time went backwards 101 ms, dropped 1 frames. PTS 4924998
[13:11:46] sync: video time went backwards 101 ms, dropped 1 frames. PTS 4940107
[13:11:48] sync: video time went backwards 101 ms, dropped 1 frames. PTS 6124699
[13:11:53] sync: video time went backwards 101 ms, dropped 1 frames. PTS 10853157
[13:11:54] sync: video time went backwards 101 ms, dropped 1 frames. PTS 10946100
[13:11:58] sync: video time went backwards 101 ms, dropped 1 frames. PTS 12446694
[13:11:58] sync: video time went backwards 101 ms, dropped 1 frames. PTS 12496412
[13:11:58] sync: video time went backwards 101 ms, dropped 1 frames. PTS 12561021
[13:12:02] sync: video time went backwards 101 ms, dropped 1 frames. PTS 15962400
[13:12:02] sync: video time went backwards 101 ms, dropped 1 frames. PTS 16407886
[13:12:10] sync: video time went backwards 101 ms, dropped 1 frames. PTS 18817840
[13:12:13] reader: done. 1 scr changes
[13:12:14] work: average encoding speed for job is 80.085548 fps
[13:12:14] vfr: 1477 frames output, 950 dropped and 0 duped for CFR/PFR
[13:12:14] vfr: lost time: 0 (0 frames)
[13:12:14] vfr: gained time: 0 (0 frames) (0 not accounted for)
[13:12:14] aac-decoder done: 10650 frames, 0 decoder errors
[13:12:14] h264-decoder done: 2441 frames, 0 decoder errors
[13:12:14] sync: got 2427 frames, 2443 expected
[13:12:14] sync: framerate min 0.059 fps, max 66.667 fps, avg 9.821 fps
x264 [info]: frame I:17    Avg QP:12.10  size: 54949
x264 [info]: frame P:598   Avg QP:16.13  size:  4309
x264 [info]: frame B:862   Avg QP:19.53  size:   699
x264 [info]: consecutive B-frames: 16.8% 13.0%  9.5% 60.7%
x264 [info]: mb I  I16..4: 72.5%  0.0% 27.5%
x264 [info]: mb P  I16..4: 10.0%  0.0%  1.0%  P16..4:  7.1%  1.6%  1.1%  0.0%  0.0%    skip:79.1%
x264 [info]: mb B  I16..4:  0.9%  0.0%  0.1%  B16..8:  2.1%  0.5%  0.0%  direct: 6.3%  skip:90.2%  L0:43.9% L1:45.5% BI:10.6%
x264 [info]: coded y,uvDC,uvAC intra: 10.1% 20.6% 14.0% inter: 1.3% 5.1% 0.3%
x264 [info]: i16 v,h,dc,p: 63% 35%  2%  0%
x264 [info]: i4 v,h,dc,ddl,ddr,vr,hd,vl,hu: 28% 34% 21%  2%  3%  2%  4%  2%  4%
x264 [info]: i8c dc,h,v,p: 66% 24% 10%  1%
x264 [info]: Weighted P-Frames: Y:1.0% UV:0.2%
x264 [info]: ref P L0: 72.2% 27.8%
x264 [info]: ref B L0: 80.2% 19.8%
x264 [info]: ref B L1: 95.6%  4.4%
x264 [info]: kb/s:133.18
[13:12:14] mux: track 0, 1477 frames, 4112454 bytes, 133.00 kbps, fifo 2048
[13:12:14] mux: track 1, 10651 frames, 42604 bytes, 1.38 kbps, fifo 16384
[13:12:14] libhb: work result = 0
[13:12:14] macgui: QueueCore work done
[13:12:14] macgui: Queue Done, there are no more pending encodes


User avatar
BradleyS
Moderator
Posts: 1401
Joined: Thu Aug 09, 2007 12:16 pm

Re: No audio after converting

Post by BradleyS » Sun Sep 16, 2018 6:22 pm

The log lists a few encodes and all seem to recognize and encode the audio. Are you sure there is no audio track in the output file(s), or just no sound?

I suppose you could try the nightly build.

Post Reply