Choppy background movement h.265

HandBrake for Mac support
Forum rules
An Activity Log is required for support requests. Please read How-to get an activity log? for details on how and why this should be provided.
Post Reply
error
Posts: 3
Joined: Mon Sep 10, 2018 2:27 am

Choppy background movement h.265

Post by error » Mon Sep 10, 2018 3:10 am

Description of problem or question:

Transcoded a tennis match from h.264 to h.265. Original is smooth motion, but h.265 movement of small objects (like ball kids rolling balls) in the background is choppy. When the ball comes to foreground, movement is smooth.
Have tried this on both Mac and Windows with same settings and result is identical. (log is from Windows, tested if that is only a Mac issue).
It should not be a playback problem, because I have tried on to play it back on Macbook Pro, Windows computer,VLC on Apple TV, and Sony X8500F Android TV from the flash drive, and that TV plays 4K HEVC videos without an issue.

Steps to reproduce the problem (If Applicable):

Fast encode 22.0


HandBrake version (e.g., 1.0.0):

1.1.1


Operating system and version (e.g., Ubuntu 16.04 LTS, macOS 10.13 High Sierra, Windows 10 Creators Update):

Mac OS High Sierra 10.13.6 (17G65), Windows 7


HandBrake Activity Log ***required*** (see How-to get an activity log)

Code: Select all

HandBrake 1.1.1 (2018061800) - 64bit
OS: Microsoft Windows NT 6.1.7601 Service Pack 1 - 64bit
CPU: Intel(R) Core(TM) i3-6100 CPU @ 3.70GHz
Ram: 3978 MB, 
GPU Information:
  Intel(R) HD Graphics 530 - 10.18.15.4279
Screen: 1280x1024
Temp Dir: C:\Users\user\AppData\Local\Temp\
Install Dir: C:\Program Files\HandBrake
Data Dir: C:\Users\user\AppData\Roaming\HandBrake Team\HandBrake\1.1.1.0

-------------------------------------------


# Starting Encode ...

[11:24:04] hb_init: starting libhb thread
[11:24:04] 1 job(s) to process
[11:24:04] json job:
{
  "Audio": {
    "AudioList": [
      {
        "Bitrate": 160,
        "DRC": 0.0,
        "Encoder": 65536,
        "Gain": 0.0,
        "Mixdown": 4,
        "NormalizeMixLevel": false,
        "Samplerate": 48000,
        "Track": 0,
        "DitherMethod": 0
      }
    ],
    "CopyMask": [
      1073807360,
      1073743872,
      1074003968,
      1073750016,
      1090519040,
      1074790400,
      1074266112,
      1107296256
    ],
    "FallbackEncoder": 2048
  },
  "Destination": {
    "ChapterList": [
      {
        "Name": "Chapter 1"
      }
    ],
    "ChapterMarkers": true,
    "AlignAVStart": true,
    "File": "D:\\temp\\tcnv\\2018_US_Open_Round_01_Petkovic_Ostapenko-1.m4v",
    "Mp4Options": {
      "IpodAtom": false,
      "Mp4Optimize": false
    },
    "Mux": 131072
  },
  "Filters": {
    "FilterList": [
      {
        "ID": 4,
        "Settings": {
          "mode": "7"
        }
      },
      {
        "ID": 3,
        "Settings": {
          "block-height": "16",
          "block-thresh": "40",
          "block-width": "16",
          "filter-mode": "2",
          "mode": "3",
          "motion-thresh": "1",
          "spatial-metric": "2",
          "spatial-thresh": "1"
        }
      },
      {
        "ID": 11,
        "Settings": {
          "crop-bottom": "0",
          "crop-left": "0",
          "crop-right": "0",
          "crop-top": "0",
          "height": "720",
          "width": "1280"
        }
      },
      {
        "ID": 6,
        "Settings": {
          "mode": "0"
        }
      }
    ]
  },
  "PAR": {
    "Num": 1,
    "Den": 1
  },
  "Metadata": {},
  "SequenceID": 0,
  "Source": {
    "Angle": 1,
    "Range": {
      "Type": "chapter",
      "Start": 1,
      "End": 1
    },
    "Title": 1,
    "Path": "D:\\temp\\tcnv\\2018_US_Open_Round_01_Petkovic_Ostapenko.mkv"
  },
  "Subtitle": {
    "Search": {
      "Burn": true,
      "Default": false,
      "Enable": true,
      "Forced": true
    },
    "SubtitleList": []
  },
  "Video": {
    "Encoder": 4096,
    "Level": "auto",
    "TwoPass": false,
    "Turbo": false,
    "ColorMatrixCode": 0,
    "Options": "",
    "Preset": "fast",
    "Profile": "auto",
    "Quality": 22.0,
    "HWDecode": false,
    "QSV": {
      "Decode": false,
      "AsyncDepth": 0
    }
  }
}
[11:24:04] CPU: Intel(R) Core(TM) i3-6100 CPU @ 3.70GHz
[11:24:04]  - Intel microarchitecture Skylake
[11:24:04]  - logical processor count: 4
[11:24:04] Intel Quick Sync Video support: yes
[11:24:04]  - Intel Media SDK hardware: API 1.16 (minimum: 1.3)
[11:24:04]  - H.264 encoder: yes
[11:24:04]     - preferred implementation: hardware (any) via D3D11
[11:24:04]     - capabilities (hardware):  breftype vsinfo opt1 opt2+mbbrc+extbrc+trellis+ib_adapt+nmpslice
[11:24:04]  - H.265 encoder: no
[11:24:04] hb_scan: path=D:\temp\tcnv\2018_US_Open_Round_01_Petkovic_Ostapenko.mkv, title_index=1
udfread ERROR: ECMA 167 Volume Recognition failed
src/libbluray/disc/disc.c:323: failed opening UDF image D:\temp\tcnv\2018_US_Open_Round_01_Petkovic_Ostapenko.mkv
src/libbluray/disc/disc.c:424: error opening file BDMV\index.bdmv
src/libbluray/disc/disc.c:424: error opening file BDMV\BACKUP\index.bdmv
[11:24:04] bd: not a bd - trying as a stream/file instead
libdvdnav: Using dvdnav version 5.0.3
libdvdread: Encrypted DVD support unavailable.
libdvdread:DVDOpenFileUDF:UDFFindFile /VIDEO_TS/VIDEO_TS.IFO failed
libdvdread:DVDOpenFileUDF:UDFFindFile /VIDEO_TS/VIDEO_TS.BUP failed
libdvdread: Can't open file VIDEO_TS.IFO.
libdvdnav: vm: failed to read VIDEO_TS.IFO
[11:24:04] dvd: not a dvd - trying as a stream/file instead
Input #0, matroska,webm, from 'D:\temp\tcnv\2018_US_Open_Round_01_Petkovic_Ostapenko.mkv':
  Metadata:
    ENCODER         : Lavf57.25.100
  Duration: 01:45:45.90, start: 0.000000, bitrate: N/A
    Stream #0:0: Video: h264 (High)
      yuv420p, 1280x720 [PAR 1:1 DAR 16:9], PAR 1:1 DAR 16:9
      50 fps, 1k tbn (default)
    Metadata:
      DURATION        : 01:45:45.900000000
    Stream #0:1(unknown): Audio: aac (LC)
      48000 Hz, stereo, fltp (default)
    Metadata:
      DURATION        : 01:45:45.861000000
[11:24:04] scan: decoding previews for title 1
[11:24:04] scan: audio 0x1: aac, rate=48000Hz, bitrate=1 Unknown (AAC) (2.0 ch)
[11:24:05] scan: 10 previews, 1280x720, 50.000 fps, autocrop = 0/0/0/0, aspect 16:9, PAR 1:1
[11:24:05] scan: supported video decoders: avcodec qsv
[11:24:05] libhb: scan thread found 1 valid title(s)
[11:24:05] Skipping subtitle scan.  No suitable subtitle tracks.
[11:24:05] starting job
[11:24:05] decomb filter thread started for segment 0
[11:24:05] decomb filter thread started for segment 1
[11:24:05] decomb filter thread started for segment 2
[11:24:05] decomb check thread started for segment 0
[11:24:05] decomb check thread started for segment 1
[11:24:05] decomb filter thread started for segment 3
[11:24:05] mask filter thread started for segment 0
[11:24:05] mask filter thread started for segment 1
[11:24:05] decomb check thread started for segment 2
[11:24:05] mask erode thread started for segment 0
[11:24:05] mask erode thread started for segment 1
[11:24:05] decomb check thread started for segment 3
[11:24:05] mask dilate thread started for segment 0
[11:24:05] mask dilate thread started for segment 1
[11:24:05] mask filter thread started for segment 2
[11:24:05] yadif thread started for segment 0
[11:24:05] yadif thread started for segment 1
[11:24:05] mask filter thread started for segment 3
[11:24:05] work: track 1, dithering not supported by codec
[11:24:05] work: only 1 chapter, disabling chapter markers
[11:24:05] job configuration:
[11:24:05]  * source
[11:24:05]    + D:\temp\tcnv\2018_US_Open_Round_01_Petkovic_Ostapenko.mkv
[11:24:05]    + title 1, chapter(s) 1 to 1
[11:24:05]    + container: matroska,webm
[11:24:05]  * destination
[11:24:05]    + D:\temp\tcnv\2018_US_Open_Round_01_Petkovic_Ostapenko-1.m4v
[11:24:05]    + container: MPEG-4 (libavformat)
[11:24:05]      + align initial A/V stream timestamps
[11:24:05]  * video track
[11:24:05]    + decoder: h264
[11:24:05]    + filters
[11:24:05]      + Comb Detect (mode=3:spatial-metric=2:motion-thresh=1:spatial-thresh=1:filter-mode=2:block-thresh=40:block-width=16:block-height=16)
[11:24:05]      + Decomb (mode=39)
[11:24:05]      + Framerate Shaper (mode=0)
[11:24:05]        + frame rate: same as source (around 50.000 fps)
[11:24:05]      + Crop and Scale (width=1280:height=720:crop-top=0:crop-bottom=0:crop-left=0:crop-right=0)
[11:24:05]        + source: 1280 * 720, crop (0/0/0/0): 1280 * 720, scale: 1280 * 720
[11:24:05]    + Output geometry
[11:24:05]      + storage dimensions: 1280 x 720
[11:24:05]      + pixel aspect ratio: 1 : 1
[11:24:05]      + display dimensions: 1280 x 720
[11:24:05]    + encoder: H.265 (libx265)
[11:24:05]      + preset:  fast
[11:24:05]      + profile: auto
[11:24:05]      + quality: 22.00 (RF)
[11:24:05]  * audio track 1
[11:24:05]    + decoder: Unknown (AAC) (2.0 ch) (track 1, id 0x1)
[11:24:05]      + samplerate: 48000 Hz
[11:24:05]    + mixdown: Stereo
[11:24:05]    + encoder: AAC (libavcodec)
[11:24:05]      + bitrate: 160 kbps, samplerate: 48000 Hz
[11:24:05] mask erode thread started for segment 2
[11:24:05] mask erode thread started for segment 3
[11:24:05] mask dilate thread started for segment 2
[11:24:05] mask dilate thread started for segment 3
[11:24:05] yadif thread started for segment 2
[11:24:05] yadif thread started for segment 3
[11:24:05] sync: expecting 317295 video frames
x265 [info]: HEVC encoder version 2.6
x265 [info]: build info [Windows][GCC 7.3.0][64 bit] 8bit+10bit+12bit
x265 [info]: using cpu capabilities: MMX2 SSE2Fast LZCNT SSSE3 SSE4.2 AVX FMA3 BMI2 AVX2
x265 [info]: Main profile, Level-4 (Main tier)
x265 [info]: Thread pool created using 4 threads
x265 [info]: Slices                              : 1
x265 [info]: frame threads / pool features       : 2 / wpp(12 rows)
x265 [info]: Coding QT: max CU size, min CU size : 64 / 8
x265 [info]: Residual QT: max TU size, max depth : 32 / 1 inter / 1 intra
x265 [info]: ME / range / subpel / merge         : hex / 57 / 2 / 2
x265 [info]: Keyframe min / max / scenecut / bias: 50 / 500 / 40 / 5.00
x265 [info]: Lookahead / bframes / badapt        : 15 / 4 / 0
x265 [info]: b-pyramid / weightp / weightb       : 1 / 1 / 0
x265 [info]: References / ref-limit  cu / depth  : 3 / on / on
x265 [info]: AQ: mode / str / qg-size / cu-tree  : 1 / 1.0 / 32 / 1
x265 [info]: Rate Control / qCompress            : CRF-22.0 / 0.60
x265 [info]: tools: rd=2 psy-rd=2.00 rskip signhide tmvp fast-intra
x265 [info]: tools: strong-intra-smoothing lslices=4 deblock sao
[11:24:05] sync: first pts video is 0
[11:24:05] sync: "Chapter 1" (1) at frame 1 time 0
[11:24:05] sync: first pts audio 0x1 is 0
[11:24:43] hb_init: starting libhb thread

 # Starting Scan ...

[11:24:43] CPU: Intel(R) Core(TM) i3-6100 CPU @ 3.70GHz
[11:24:43]  - Intel microarchitecture Skylake
[11:24:43]  - logical processor count: 4
[11:24:43] Intel Quick Sync Video support: yes
[11:24:43]  - Intel Media SDK hardware: API 1.16 (minimum: 1.3)
[11:24:43]  - H.264 encoder: yes
[11:24:43]     - preferred implementation: hardware (any) via D3D11
[11:24:43]     - capabilities (hardware):  breftype vsinfo opt1 opt2+mbbrc+extbrc+trellis+ib_adapt+nmpslice
[11:24:43]  - H.265 encoder: no
[11:24:43] hb_scan: path=D:\temp\tcnv\2018_US_Open_Round_01_Wawrinka_Dimitrov.mkv, title_index=0
udfread ERROR: ECMA 167 Volume Recognition failed
src/libbluray/disc/disc.c:323: failed opening UDF image D:\temp\tcnv\2018_US_Open_Round_01_Wawrinka_Dimitrov.mkv
src/libbluray/disc/disc.c:424: error opening file BDMV\index.bdmv
src/libbluray/disc/disc.c:424: error opening file BDMV\BACKUP\index.bdmv
[11:24:43] bd: not a bd - trying as a stream/file instead
libdvdnav: Using dvdnav version 5.0.3
libdvdread: Encrypted DVD support unavailable.
libdvdread:DVDOpenFileUDF:UDFFindFile /VIDEO_TS/VIDEO_TS.IFO failed
libdvdread:DVDOpenFileUDF:UDFFindFile /VIDEO_TS/VIDEO_TS.BUP failed
libdvdread: Can't open file VIDEO_TS.IFO.
libdvdnav: vm: failed to read VIDEO_TS.IFO
[11:24:43] dvd: not a dvd - trying as a stream/file instead
Input #0, matroska,webm, from 'D:\temp\tcnv\2018_US_Open_Round_01_Wawrinka_Dimitrov.mkv':
  Metadata:
    ENCODER         : Lavf57.71.100
  Duration: 01:56:55.42, start: 0.000000, bitrate: N/A
    Stream #0:0: Video: h264 (High)
      yuv420p, 1280x720 [PAR 1:1 DAR 16:9], PAR 1:1 DAR 16:9
      50 fps, 1k tbn (default)
    Metadata:
      DURATION        : 01:56:55.420000000
    Stream #0:1(unknown): Audio: aac (LC)
      48000 Hz, stereo, fltp (default)
    Metadata:
      DURATION        : 01:56:55.381000000
[11:24:43] scan: decoding previews for title 1
[11:24:43] scan: audio 0x1: aac, rate=48000Hz, bitrate=1 Unknown (AAC) (2.0 ch)
[11:24:44] scan: 10 previews, 1280x720, 50.000 fps, autocrop = 0/0/0/0, aspect 16:9, PAR 1:1
[11:24:44] scan: supported video decoders: avcodec qsv
[11:24:44] libhb: scan thread found 1 valid title(s)

 # Processing Scan Information ...


 # Scan Finished ...

[11:25:04] hb_init: starting libhb thread

 # Starting Scan ...

[11:25:04] CPU: Intel(R) Core(TM) i3-6100 CPU @ 3.70GHz
[11:25:04]  - Intel microarchitecture Skylake
[11:25:04]  - logical processor count: 4
[11:25:04] Intel Quick Sync Video support: yes
[11:25:04]  - Intel Media SDK hardware: API 1.16 (minimum: 1.3)
[11:25:04]  - H.264 encoder: yes
[11:25:04]     - preferred implementation: hardware (any) via D3D11
[11:25:04]     - capabilities (hardware):  breftype vsinfo opt1 opt2+mbbrc+extbrc+trellis+ib_adapt+nmpslice
[11:25:04]  - H.265 encoder: no
[11:25:04] hb_scan: path=D:\temp\tcnv\2018_US_Open_Round_02_Djokovic_Sandgren.mkv, title_index=0
udfread ERROR: ECMA 167 Volume Recognition failed
src/libbluray/disc/disc.c:323: failed opening UDF image D:\temp\tcnv\2018_US_Open_Round_02_Djokovic_Sandgren.mkv
src/libbluray/disc/disc.c:424: error opening file BDMV\index.bdmv
src/libbluray/disc/disc.c:424: error opening file BDMV\BACKUP\index.bdmv
[11:25:04] bd: not a bd - trying as a stream/file instead
libdvdnav: Using dvdnav version 5.0.3
libdvdread: Encrypted DVD support unavailable.
libdvdread:DVDOpenFileUDF:UDFFindFile /VIDEO_TS/VIDEO_TS.IFO failed
libdvdread:DVDOpenFileUDF:UDFFindFile /VIDEO_TS/VIDEO_TS.BUP failed
libdvdread: Can't open file VIDEO_TS.IFO.
libdvdnav: vm: failed to read VIDEO_TS.IFO
[11:25:04] dvd: not a dvd - trying as a stream/file instead
Input #0, matroska,webm, from 'D:\temp\tcnv\2018_US_Open_Round_02_Djokovic_Sandgren.mkv':
  Metadata:
    ENCODER         : Lavf57.71.100
  Duration: 02:20:05.06, start: 0.000000, bitrate: N/A
    Stream #0:0: Video: h264 (High)
      yuv420p, 1280x720 [PAR 1:1 DAR 16:9], PAR 1:1 DAR 16:9
      50 fps, 1k tbn (default)
    Metadata:
      DURATION        : 02:20:05.060000000
    Stream #0:1(unknown): Audio: aac (LC)
      48000 Hz, stereo, fltp (default)
    Metadata:
      DURATION        : 02:20:05.023000000
[11:25:04] scan: decoding previews for title 1
[11:25:04] scan: audio 0x1: aac, rate=48000Hz, bitrate=1 Unknown (AAC) (2.0 ch)
[11:25:05] scan: 10 previews, 1280x720, 50.000 fps, autocrop = 0/0/0/0, aspect 16:9, PAR 1:1
[11:25:05] scan: supported video decoders: avcodec qsv
[11:25:05] libhb: scan thread found 1 valid title(s)

 # Processing Scan Information ...


 # Scan Finished ...

[11:25:16] hb_init: starting libhb thread

 # Starting Scan ...

[11:25:16] CPU: Intel(R) Core(TM) i3-6100 CPU @ 3.70GHz
[11:25:16]  - Intel microarchitecture Skylake
[11:25:16]  - logical processor count: 4
[11:25:16] Intel Quick Sync Video support: yes
[11:25:16]  - Intel Media SDK hardware: API 1.16 (minimum: 1.3)
[11:25:16]  - H.264 encoder: yes
[11:25:16]     - preferred implementation: hardware (any) via D3D11
[11:25:16]     - capabilities (hardware):  breftype vsinfo opt1 opt2+mbbrc+extbrc+trellis+ib_adapt+nmpslice
[11:25:16]  - H.265 encoder: no
[11:25:16] hb_scan: path=D:\temp\tcnv\2018_US_Open_Round_02_Medvedev_Tsitsipas.mkv, title_index=0
udfread ERROR: ECMA 167 Volume Recognition failed
src/libbluray/disc/disc.c:323: failed opening UDF image D:\temp\tcnv\2018_US_Open_Round_02_Medvedev_Tsitsipas.mkv
src/libbluray/disc/disc.c:424: error opening file BDMV\index.bdmv
src/libbluray/disc/disc.c:424: error opening file BDMV\BACKUP\index.bdmv
[11:25:16] bd: not a bd - trying as a stream/file instead
libdvdnav: Using dvdnav version 5.0.3
libdvdread: Encrypted DVD support unavailable.
libdvdread:DVDOpenFileUDF:UDFFindFile /VIDEO_TS/VIDEO_TS.IFO failed
libdvdread:DVDOpenFileUDF:UDFFindFile /VIDEO_TS/VIDEO_TS.BUP failed
libdvdread: Can't open file VIDEO_TS.IFO.
libdvdnav: vm: failed to read VIDEO_TS.IFO
[11:25:16] dvd: not a dvd - trying as a stream/file instead
Input #0, matroska,webm, from 'D:\temp\tcnv\2018_US_Open_Round_02_Medvedev_Tsitsipas.mkv':
  Metadata:
    ENCODER         : Lavf57.25.100
  Duration: 02:04:28.36, start: 0.000000, bitrate: N/A
    Stream #0:0: Video: h264 (High)
      yuv420p, 1280x720 [PAR 1:1 DAR 16:9], PAR 1:1 DAR 16:9
      50 fps, 1k tbn (default)
    Metadata:
      DURATION        : 02:04:28.360000000
    Stream #0:1(unknown): Audio: aac (LC)
      48000 Hz, stereo, fltp (default)
    Metadata:
      DURATION        : 02:04:28.323000000
[11:25:16] scan: decoding previews for title 1
[11:25:16] scan: audio 0x1: aac, rate=48000Hz, bitrate=1 Unknown (AAC) (2.0 ch)
[11:25:17] scan: 10 previews, 1280x720, 50.000 fps, autocrop = 0/0/0/0, aspect 16:9, PAR 1:1
[11:25:17] scan: supported video decoders: avcodec qsv
[11:25:17] libhb: scan thread found 1 valid title(s)

 # Processing Scan Information ...


 # Scan Finished ...

[11:25:31] hb_init: starting libhb thread

 # Starting Scan ...

[11:25:31] CPU: Intel(R) Core(TM) i3-6100 CPU @ 3.70GHz
[11:25:31]  - Intel microarchitecture Skylake
[11:25:31]  - logical processor count: 4
[11:25:31] Intel Quick Sync Video support: yes
[11:25:31]  - Intel Media SDK hardware: API 1.16 (minimum: 1.3)
[11:25:31]  - H.264 encoder: yes
[11:25:31]     - preferred implementation: hardware (any) via D3D11
[11:25:31]     - capabilities (hardware):  breftype vsinfo opt1 opt2+mbbrc+extbrc+trellis+ib_adapt+nmpslice
[11:25:31]  - H.265 encoder: no
[11:25:31] hb_scan: path=D:\temp\tcnv\2018_US_Open_Round_02_Murrey_Verdasco.mkv, title_index=0
udfread ERROR: ECMA 167 Volume Recognition failed
src/libbluray/disc/disc.c:323: failed opening UDF image D:\temp\tcnv\2018_US_Open_Round_02_Murrey_Verdasco.mkv
src/libbluray/disc/disc.c:424: error opening file BDMV\index.bdmv
src/libbluray/disc/disc.c:424: error opening file BDMV\BACKUP\index.bdmv
[11:25:31] bd: not a bd - trying as a stream/file instead
libdvdnav: Using dvdnav version 5.0.3
libdvdread: Encrypted DVD support unavailable.
libdvdread:DVDOpenFileUDF:UDFFindFile /VIDEO_TS/VIDEO_TS.IFO failed
libdvdread:DVDOpenFileUDF:UDFFindFile /VIDEO_TS/VIDEO_TS.BUP failed
libdvdread: Can't open file VIDEO_TS.IFO.
libdvdnav: vm: failed to read VIDEO_TS.IFO
[11:25:31] dvd: not a dvd - trying as a stream/file instead
Input #0, matroska,webm, from 'D:\temp\tcnv\2018_US_Open_Round_02_Murrey_Verdasco.mkv':
  Metadata:
    ENCODER         : Lavf57.71.100
  Duration: 02:37:47.34, start: 0.000000, bitrate: N/A
    Stream #0:0: Video: h264 (High)
      yuv420p, 1280x720 [PAR 1:1 DAR 16:9], PAR 1:1 DAR 16:9
      50 fps, 1k tbn (default)
    Metadata:
      DURATION        : 02:37:47.340000000
    Stream #0:1(unknown): Audio: aac (LC)
      48000 Hz, stereo, fltp (default)
    Metadata:
      DURATION        : 02:37:47.319000000
[11:25:32] scan: decoding previews for title 1
[11:25:32] scan: audio 0x1: aac, rate=48000Hz, bitrate=1 Unknown (AAC) (2.0 ch)
[11:25:32] scan: 10 previews, 1280x720, 50.000 fps, autocrop = 0/0/0/0, aspect 16:9, PAR 1:1
[11:25:32] scan: supported video decoders: avcodec qsv
[11:25:32] libhb: scan thread found 1 valid title(s)

 # Processing Scan Information ...


 # Scan Finished ...

[11:25:47] hb_init: starting libhb thread

 # Starting Scan ...

[11:25:47] CPU: Intel(R) Core(TM) i3-6100 CPU @ 3.70GHz
[11:25:47]  - Intel microarchitecture Skylake
[11:25:47]  - logical processor count: 4
[11:25:47] Intel Quick Sync Video support: yes
[11:25:47]  - Intel Media SDK hardware: API 1.16 (minimum: 1.3)
[11:25:47]  - H.264 encoder: yes
[11:25:47]     - preferred implementation: hardware (any) via D3D11
[11:25:47]     - capabilities (hardware):  breftype vsinfo opt1 opt2+mbbrc+extbrc+trellis+ib_adapt+nmpslice
[11:25:47]  - H.265 encoder: no
[11:25:47] hb_scan: path=D:\temp\tcnv\ATP Masters Cincinnati 18 - ????? -  ????? ???????? — ?????? ???????.mkv, title_index=0
src/libbluray/disc/disc.c:323: failed opening UDF image D:\temp\tcnv\ATP Masters Cincinnati 18 - Финал -  Новак Джокович — Роджер Федерер.mkv
src/libbluray/disc/disc.c:424: error opening file BDMV\index.bdmv
src/libbluray/disc/disc.c:424: error opening file BDMV\BACKUP\index.bdmv
[11:25:47] bd: not a bd - trying as a stream/file instead
libdvdnav: Using dvdnav version 5.0.3
libdvdread: Encrypted DVD support unavailable.
libdvdread: Can't open D:\temp\tcnv\ATP Masters Cincinnati 18 - ????? -  ????? ???????? — ?????? ???????.mkv for reading
libdvdnav: vm: failed to open/read the DVD
[11:25:47] dvd: not a dvd - trying as a stream/file instead
Input #0, matroska,webm, from 'D:\temp\tcnv\ATP Masters Cincinnati 18 - Финал -  Новак Джокович — Роджер Федерер.mkv':
  Duration: 01:59:24.94, start: 0.000000, bitrate: N/A
    Stream #0:0: Video: h264 (High 4:2:2)
      yuv422p10le, tv, bt709/bt709/bt709
      1920x1080 [PAR 1:1 DAR 16:9], PAR 1:1 DAR 16:9
      50 fps, 1k tbn (default)
    Metadata:
      BPS-eng         : 11684098
      DURATION-eng    : 01:59:24.800000000
      NUMBER_OF_FRAMES-eng: 358240
      NUMBER_OF_BYTES-eng: 10464278361
      _STATISTICS_WRITING_APP-eng: mkvmerge v25.0.0 ('Prog Noir') 64-bit
      _STATISTICS_WRITING_DATE_UTC-eng: 2018-08-20 06:48:31
      _STATISTICS_TAGS-eng: BPS DURATION NUMBER_OF_FRAMES NUMBER_OF_BYTES
    Stream #0:1(eng): Audio: mp2
      48000 Hz, 2 channels, s16p, 192 kb/s (default)
    Metadata:
      title           : Английские комментарии
      BPS-eng         : 192000
      DURATION-eng    : 01:59:24.792000000
      NUMBER_OF_FRAMES-eng: 298533
      NUMBER_OF_BYTES-eng: 171955008
      _STATISTICS_WRITING_APP-eng: mkvmerge v25.0.0 ('Prog Noir') 64-bit
      _STATISTICS_WRITING_DATE_UTC-eng: 2018-08-20 06:48:31
      _STATISTICS_TAGS-eng: BPS DURATION NUMBER_OF_FRAMES NUMBER_OF_BYTES
    Stream #0:2: Audio: mp2
      48000 Hz, 2 channels, s16p, 192 kb/s
    Metadata:
      title           : Интершум
      BPS-eng         : 192000
      DURATION-eng    : 01:59:24.816000000
      NUMBER_OF_FRAMES-eng: 298534
      NUMBER_OF_BYTES-eng: 171955584
      _STATISTICS_WRITING_APP-eng: mkvmerge v25.0.0 ('Prog Noir') 64-bit
      _STATISTICS_WRITING_DATE_UTC-eng: 2018-08-20 06:48:31
      _STATISTICS_TAGS-eng: BPS DURATION NUMBER_OF_FRAMES NUMBER_OF_BYTES
[11:25:47] scan: decoding previews for title 1
[11:25:47] scan: audio 0x2: mp2, rate=48000Hz, bitrate=192000 Unknown (MPEG) (2.0 ch)
[11:25:47] scan: audio 0x1: mp2, rate=48000Hz, bitrate=192000 English (MPEG) (2.0 ch)
[11:25:56] scan: 10 previews, 1920x1080, 50.000 fps, autocrop = 0/0/0/0, aspect 16:9, PAR 1:1
[11:25:57] libhb: scan thread found 1 valid title(s)

 # Processing Scan Information ...


 # Scan Finished ...

[11:26:08] hb_init: starting libhb thread

 # Starting Scan ...

[11:26:08] CPU: Intel(R) Core(TM) i3-6100 CPU @ 3.70GHz
[11:26:08]  - Intel microarchitecture Skylake
[11:26:08]  - logical processor count: 4
[11:26:08] Intel Quick Sync Video support: yes
[11:26:08]  - Intel Media SDK hardware: API 1.16 (minimum: 1.3)
[11:26:08]  - H.264 encoder: yes
[11:26:08]     - preferred implementation: hardware (any) via D3D11
[11:26:08]     - capabilities (hardware):  breftype vsinfo opt1 opt2+mbbrc+extbrc+trellis+ib_adapt+nmpslice
[11:26:08]  - H.265 encoder: no
[11:26:08] hb_scan: path=D:\temp\tcnv\???-???.mkv, title_index=0
src/libbluray/disc/disc.c:323: failed opening UDF image D:\temp\tcnv\над-кач.mkv
src/libbluray/disc/disc.c:424: error opening file BDMV\index.bdmv
src/libbluray/disc/disc.c:424: error opening file BDMV\BACKUP\index.bdmv
[11:26:08] bd: not a bd - trying as a stream/file instead
libdvdnav: Using dvdnav version 5.0.3
libdvdread: Encrypted DVD support unavailable.
libdvdread: Can't open D:\temp\tcnv\???-???.mkv for reading
libdvdnav: vm: failed to open/read the DVD
[11:26:08] dvd: not a dvd - trying as a stream/file instead
Input #0, matroska,webm, from 'D:\temp\tcnv\над-кач.mkv':
  Duration: 03:34:03.14, start: 0.000000, bitrate: N/A
    Stream #0:0: Video: h264 (High)
      yuv420p, tv, bt709/bt709/bt709
      1280x720 [PAR 1:1 DAR 16:9], PAR 1:1 DAR 16:9
      50 fps, 1k tbn
    Stream #0:1: Audio: mp3
      48000 Hz, 2 channels, s16p, 128 kb/s
[11:26:08] scan: decoding previews for title 1
[11:26:08] scan: audio 0x1: mp3, rate=48000Hz, bitrate=128000 Unknown (MP3) (2.0 ch)
[11:26:08] scan: 10 previews, 1280x720, 50.000 fps, autocrop = 0/2/0/0, aspect 16:9, PAR 1:1
[11:26:08] scan: supported video decoders: avcodec qsv
[11:26:08] libhb: scan thread found 1 valid title(s)

 # Processing Scan Information ...


 # Scan Finished ...

[11:26:18] hb_init: starting libhb thread

 # Starting Scan ...

[11:26:18] CPU: Intel(R) Core(TM) i3-6100 CPU @ 3.70GHz
[11:26:18]  - Intel microarchitecture Skylake
[11:26:18]  - logical processor count: 4
[11:26:18] Intel Quick Sync Video support: yes
[11:26:18]  - Intel Media SDK hardware: API 1.16 (minimum: 1.3)
[11:26:18]  - H.264 encoder: yes
[11:26:18]     - preferred implementation: hardware (any) via D3D11
[11:26:18]     - capabilities (hardware):  breftype vsinfo opt1 opt2+mbbrc+extbrc+trellis+ib_adapt+nmpslice
[11:26:18]  - H.265 encoder: no
[11:26:18] hb_scan: path=D:\temp\tcnv\???-???.mkv, title_index=0
src/libbluray/disc/disc.c:323: failed opening UDF image D:\temp\tcnv\пэр-фед.mkv
src/libbluray/disc/disc.c:424: error opening file BDMV\index.bdmv
src/libbluray/disc/disc.c:424: error opening file BDMV\BACKUP\index.bdmv
[11:26:18] bd: not a bd - trying as a stream/file instead
libdvdnav: Using dvdnav version 5.0.3
libdvdread: Encrypted DVD support unavailable.
libdvdread: Can't open D:\temp\tcnv\???-???.mkv for reading
libdvdnav: vm: failed to open/read the DVD
[11:26:18] dvd: not a dvd - trying as a stream/file instead
Input #0, matroska,webm, from 'D:\temp\tcnv\пэр-фед.mkv':
  Duration: 01:29:29.37, start: 0.000000, bitrate: N/A
    Stream #0:0: Video: h264 (High)
      yuv420p, tv, bt709/bt709/bt709
      1280x720 [PAR 1:1 DAR 16:9], PAR 1:1 DAR 16:9
      50 fps, 1k tbn
    Stream #0:1: Audio: mp3
      48000 Hz, 2 channels, s16p, 128 kb/s
[11:26:18] scan: decoding previews for title 1
[11:26:18] scan: audio 0x1: mp3, rate=48000Hz, bitrate=128000 Unknown (MP3) (2.0 ch)
[11:26:19] scan: 10 previews, 1280x720, 50.000 fps, autocrop = 0/2/0/0, aspect 16:9, PAR 1:1
[11:26:19] scan: supported video decoders: avcodec qsv
[11:26:19] libhb: scan thread found 1 valid title(s)

 # Processing Scan Information ...


 # Scan Finished ...

[14:13:03] reader: done. 1 scr changes
[14:13:05] work: average encoding speed for job is 31.290754 fps
[14:13:06] comb detect: heavy 2927 | light 14943 | uncombed 299423 | total 317293
[14:13:06] decomb: deinterlaced 2927 | blended 14943 | unfiltered 299423 | total 317293
[14:13:06] vfr: lost time: 0 (0 frames)
[14:13:06] vfr: gained time: 0 (0 frames) (0 not accounted for)
[14:13:06] aac-decoder done: 297460 frames, 0 decoder errors
[14:13:06] h264-decoder done: 317293 frames, 0 decoder errors
[14:13:06] sync: got 317293 frames, 317295 expected
[14:13:06] sync: framerate min 50.000 fps, max 50.000 fps, avg 50.000 fps
x265 [info]: frame I:    758, Avg QP:21.99  kb/s: 24127.89
x265 [info]: frame P:  63015, Avg QP:23.40  kb/s: 4856.95
x265 [info]: frame B: 253520, Avg QP:30.47  kb/s: 584.65
x265 [info]: Weighted P-Frames: Y:1.5% UV:0.9%
x265 [info]: consecutive B-frames: 0.5% 0.1% 0.1% 0.1% 99.3%
encoded 317293 frames in 10140.73s (31.29 fps), 1489.38 kb/s, Avg QP:29.05
[14:13:06] mux: track 0, 317293 frames, 1182693951 bytes, 1490.98 kbps, fifo 4096
[14:13:06] mux: track 1, 297461 frames, 127135136 bytes, 160.27 kbps, fifo 4096
[14:13:06] libhb: work result = 0

# Encode Completed ...



mduell
Veteran User
Posts: 6153
Joined: Sat Apr 21, 2007 8:54 pm

Re: Choppy background movement h.265

Post by mduell » Mon Sep 10, 2018 5:57 pm

error wrote:
Mon Sep 10, 2018 3:10 am

Code: Select all

Duration: 01:45:45.90, start: 0.000000, bitrate: N/A
    Stream #0:0: Video: h264 (High)
      yuv420p, 1280x720 [PAR 1:1 DAR 16:9], PAR 1:1 DAR 16:9
      50 fps, 1k tbn (default)

[14:13:06] comb detect: heavy 2927 | light 14943 | uncombed 299423 | total 317293
[14:13:06] decomb: deinterlaced 2927 | blended 14943 | unfiltered 299423 | total 317293
Try disabling decomb. It was active, but I don't think it should be on 720p50 content.

error
Posts: 3
Joined: Mon Sep 10, 2018 2:27 am

Re: Choppy background movement h.265

Post by error » Tue Sep 11, 2018 3:18 am

I have tested decomb, and there is no improvement at all. It looks like very small fast moving objects are refreshed like at 10FPS.

However, "zero latency" setting appears to fix this somewhat. I am not sure if it's 100% fixed, but it's a huge improvement.

So I suspect there is a problem with encoder. Any chance to fix?

mduell
Veteran User
Posts: 6153
Joined: Sat Apr 21, 2007 8:54 pm

Re: Choppy background movement h.265

Post by mduell » Tue Sep 11, 2018 3:19 pm

No chance without a repeatable sample.

error
Posts: 3
Joined: Mon Sep 10, 2018 2:27 am

Re: Choppy background movement h.265

Post by error » Wed Sep 12, 2018 4:51 am

I probably do not clearly understand what is the "repeatable sample" in case encoder deals with the movement of small objects incorrectly. It is not an artefact of one specific scene, it is present in every encoding with the settings I have posted. The only matter is if you can reliably notice this distortion.

Here are 2 samples, first is original transcoded with Handbrake to h.264.
Another one is the h.265 sample (from the first sample, so it is now 2x transcoded by Handbrake).

https://youtu.be/Mk4ULYyxmIM
https://youtu.be/QIF36EyYdaQ

Look at the ball toss at the far end (0:09, at the highest point ball is almost "flickering") and ball kid passing the ball (0:16). Of course Youtube transcoding has smoothened things out but I think it is totally obvious that there is something wrong with the encoding. Btw changing preset to "medium" did not improve much. Only thing that cures the problem is setting "tune" to "zerolatency", and with this setting file size increases too.

rollin_eng
Veteran User
Posts: 2881
Joined: Wed May 04, 2011 11:06 pm

Re: Choppy background movement h.265

Post by rollin_eng » Wed Sep 12, 2018 7:56 am

Unfortunately YouTube will have mangled your video, can you post the pre-YouTube videos and log files somewhere?

Post Reply