No Valid Source Found - GoPro Fusion file

HandBrake for Mac support
Forum rules
An Activity Log is required for support requests. Please read How-to get an activity log? for details on how and why this should be provided.
Post Reply
TheHandyUser
Posts: 2
Joined: Wed Aug 08, 2018 6:12 am

No Valid Source Found - GoPro Fusion file

Post by TheHandyUser » Wed Aug 08, 2018 6:21 am

Description of problem or question:

Wanting to resize a 5.2k 148GB GoPro fusion VR video file. When attempting to open it in HandBrake, I get "No Valid Source Found".

Video file info:

Format: GoPro-CineForm HD/4K/3D, 5120 × 2560, Millions
16-bit Integer (Little Endian), Stereo, 48.000 kHz
FPS: 29.97
File size: 148.03 GB
Data rate: 462.90 mbits/s
Duration: 0:00:45:47.74
Fram size: 5120 x 2560 pixels

Steps to reproduce the problem (If Applicable):

Attempt to open the file in HandBrake 1.1.1 on Mac, see the error.


HandBrake version (e.g., 1.0.0):

1.1.1


Operating system and version (e.g., Ubuntu 16.04 LTS, macOS 10.13 High Sierra, Windows 10 Creators Update):

MacOS High Sierra version 10.13.6 (17G65)


HandBrake Activity Log ***required***

Code: Select all

[16:17:24] macgui: Handbrake Version: 1.1.1  (2018061800)
[16:17:24] hb_init: starting libhb thread
[16:17:24] hb_init: starting libhb thread
[16:17:41] macgui: trying to open a folder or file
[16:17:41] macgui: ScanCore scanning titles with a duration of 10 seconds or more
[16:17:41] CPU: Intel(R) Xeon(R) CPU E5-1620 v2 @ 3.70GHz
[16:17:41]  - Intel microarchitecture Ivy Bridge
[16:17:41]  - logical processor count: 8
[16:17:41] hb_scan: path=/Fusion Rendered/VIDEO_0310.mov, title_index=0
udfread ERROR: ECMA 167 Volume Recognition failed
disc.c:323: failed opening UDF image /Fusion Rendered/VIDEO_0310.mov
disc.c:424: error opening file BDMV/index.bdmv
disc.c:424: error opening file BDMV/BACKUP/index.bdmv
[16:17:41] bd: not a bd - trying as a stream/file instead
libdvdnav: Using dvdnav version 5.0.3
libdvdread: Encrypted DVD support unavailable.
libdvdread:DVDOpenFileUDF:UDFFindFile /VIDEO_TS/VIDEO_TS.IFO failed
libdvdread:DVDOpenFileUDF:UDFFindFile /VIDEO_TS/VIDEO_TS.BUP failed
libdvdread: Can't open file VIDEO_TS.IFO.
libdvdnav: vm: failed to read VIDEO_TS.IFO
[16:17:41] dvd: not a dvd - trying as a stream/file instead
Input #0, mov,mp4,m4a,3gp,3g2,mj2, from '/Fusion Rendered/VIDEO_0310.mov':
  Metadata:
    major_brand     : qt  
    minor_version   : 537199360
    compatible_brands: qt  
    creation_time   : 2018-07-25 15:20:43
  Duration: 00:45:47.71, start: 0.000000, bitrate: 462780 kb/s
    Stream #0:0(eng): Video: CFHD / 0x44484643 [CFHD / 0x44484643]
      none, 5120x2560, 461243 kb/s, PAR 1:1 DAR 2:1
      29.97 fps, 2997 tbn (default)
    Metadata:
      creation_time   : 2018-07-25 15:20:43
      handler_name    : VideoHandler
    Stream #0:1(eng): Audio: pcm_s16le [sowt / 0x74776F73]
      48000 Hz, 2 channels, s16, 1536 kb/s (default)
    Metadata:
      creation_time   : 2018-07-25 15:20:43
      handler_name    : SoundHandler
[16:17:41] scan: decoding previews for title 1
error: No video decoder set!
[16:17:41] scan: Too few previews (0), trying harder
[16:17:41] scan: decoding previews for title 1
[16:17:41] libhb: scan thread found 0 valid title(s)
[16:17:42] macgui: ScanCore scan done
Any idea how I can resize this file? Max size for YouTube is 128GB. Thanks!

rollin_eng
Veteran User
Posts: 2873
Joined: Wed May 04, 2011 11:06 pm

Re: No Valid Source Found - GoPro Fusion file

Post by rollin_eng » Wed Aug 08, 2018 7:53 am

Try the nightly build.

TheHandyUser
Posts: 2
Joined: Wed Aug 08, 2018 6:12 am

Re: No Valid Source Found - GoPro Fusion file

Post by TheHandyUser » Wed Aug 08, 2018 8:50 am

rollin_eng wrote:
Wed Aug 08, 2018 7:53 am
Try the nightly build.
Wow yeah - looks like it's working! Thanks!

Post Reply