No H.265 (Intel QSV) on 8600K

HandBrake for Windows support
Forum rules
An Activity Log is required for support requests. Please read How-to get an activity log? for details on how and why this should be provided.
Post Reply
stevvie
Posts: 4
Joined: Thu Jul 05, 2018 1:51 pm

No H.265 (Intel QSV) on 8600K

Post by stevvie » Thu Jul 05, 2018 2:09 pm

I just installed new mobo/CPU and dont see an option for H.265 (Intel QSV). I do see the option for H.264 (Intel QSV).
I'm on windows 10 with an 8600K with intel 24.20.100.6195 GPU drivers, and handbreak nightly 2018070401. Can anybody point me in the right direction for the GPU drivers that have this, thanks.

https://s15.postimg.cc/bimu8tlfv/Image1.jpg

User avatar
Rodeo
HandBrake Team
Posts: 11907
Joined: Tue Mar 03, 2009 8:55 pm

Re: No H.265 (Intel QSV) on 8600K

Post by Rodeo » Thu Jul 05, 2018 3:03 pm

Any scan log should contain useful information, see https://handbrake.fr/docs/en/1.1.0/help ... y-log.html

mduell
Veteran User
Posts: 6073
Joined: Sat Apr 21, 2007 8:54 pm

Re: No H.265 (Intel QSV) on 8600K

Post by mduell » Thu Jul 05, 2018 3:56 pm

The forum should tell people about that before they post.

stevvie
Posts: 4
Joined: Thu Jul 05, 2018 1:51 pm

Re: No H.265 (Intel QSV) on 8600K

Post by stevvie » Sun Jul 08, 2018 5:44 pm

Here's the scan log. I never started a conversion as my problem is before you need to click 'start encode'.

HandBrake Nightly 20180702205041-7ceb4dd-master (2018070401)
OS: Microsoft Windows NT 10.0.17692.0
CPU: Intel(R) Core(TM) i5-8600K CPU @ 3.60GHz
Ram: 16317 MB,
GPU Information:
AMD Radeon R9 200 Series - 24.20.11021.1000
Screen: 1920x1080
Temp Dir: F:\Temp\
Install Dir: C:\Portables\HandBrake
Data Dir: C:\Users\Stevvie\AppData\Roaming\HandBrake Team\HandBrake\1.2.0.0

-------------------------------------------

Cannot load nvEncodeAPI64.dll
[18:41:30] hb_init: starting libhb thread

# Starting Scan ...

[18:41:30] CPU: Intel(R) Core(TM) i5-8600K CPU @ 3.60GHz
[18:41:30] - Intel microarchitecture Kaby Lake
[18:41:30] - logical processor count: 6
[18:41:30] Intel Quick Sync Video support: yes
[18:41:30] - Intel Media SDK hardware: API 1.27 (minimum: 1.3)
[18:41:30] - H.264 encoder: yes
[18:41:30] - preferred implementation: hardware (any) via D3D11
[18:41:30] - capabilities (hardware): breftype vsinfo opt1 opt2+mbbrc+extbrc+trellis+ib_adapt+nmpslice
[18:41:30] - H.265 encoder: no
[18:41:30] hb_scan: path=D:\Users\Stevvie\Videos\MagicSnow.mp4, title_index=0
udfread ERROR: ECMA 167 Volume Recognition failed
src/libbluray/disc/disc.c:323: failed opening UDF image D:\Users\Stevvie\Videos\MagicSnow.mp4
src/libbluray/disc/disc.c:424: error opening file BDMV\index.bdmv
src/libbluray/disc/disc.c:424: error opening file BDMV\BACKUP\index.bdmv
[18:41:30] bd: not a bd - trying as a stream/file instead
libdvdnav: Using dvdnav version 5.0.3
libdvdread: Encrypted DVD support unavailable.
libdvdread:DVDOpenFileUDF:UDFFindFile /VIDEO_TS/VIDEO_TS.IFO failed
libdvdread:DVDOpenFileUDF:UDFFindFile /VIDEO_TS/VIDEO_TS.BUP failed
libdvdread: Can't open file VIDEO_TS.IFO.
libdvdnav: vm: failed to read VIDEO_TS.IFO
[18:41:30] dvd: not a dvd - trying as a stream/file instead
Input #0, mov,mp4,m4a,3gp,3g2,mj2, from 'D:\Users\Stevvie\Videos\MagicSnow.mp4':
Metadata:
major_brand : isom
minor_version : 512
compatible_brands: mp41
creation_time : 1970-01-01T00:00:00.000000Z
Duration: 00:02:11.54, start: 0.000000, bitrate: 1214 kb/s
Stream #0:0(und): Video: h264 (Constrained Baseline) (avc1 / 0x31637661), yuv420p, 640x480, 1082 kb/s, 24 fps, 24 tbr, 24 tbn, 48 tbc (default)
Metadata:
creation_time : 1970-01-01T00:00:00.000000Z
handler_name : VideoHandler
Stream #0:1(und): Audio: aac (LC) (mp4a / 0x6134706D), 44100 Hz, stereo, fltp, 127 kb/s (default)
Metadata:
creation_time : 1970-01-01T00:00:00.000000Z
handler_name : SoundHandler
[18:41:30] scan: decoding previews for title 1
[18:41:30] scan: audio 0x1: aac, rate=44100Hz, bitrate=127987 Unknown (AAC LC) (2.0 ch)
[18:41:30] scan: 10 previews, 640x480, 24.000 fps, autocrop = 0/0/0/0, aspect 4:3, PAR 1:1
[18:41:30] scan: supported video decoders: avcodec qsv
[18:41:31] libhb: scan thread found 1 valid title(s)

# Processing Scan Information ...


# Scan Finished ...

User avatar
s55
HandBrake Team
Posts: 9168
Joined: Sun Dec 24, 2006 1:05 pm

Re: No H.265 (Intel QSV) on 8600K

Post by s55 » Sun Jul 08, 2018 5:47 pm

You need to enable the onboard GPU in the bios if you wish to use QuickSync.
You may also want to make sure your running the latest Intel Drivers.

stevvie
Posts: 4
Joined: Thu Jul 05, 2018 1:51 pm

Re: No H.265 (Intel QSV) on 8600K

Post by stevvie » Sun Jul 08, 2018 6:03 pm

I am and I am, I also went so far as to do what you used to have to do and plugged a monitor into the onboard graphics hdmi and selected it as the primary display in windows. There are post here that say older drivers are better for handbrake but don't say which older drivers. As you can see from the screenshot I can select H.264 (Intel QSV) but do NOT see the option for H.265 (Intel QSV) that others seem to have.

stevvie
Posts: 4
Joined: Thu Jul 05, 2018 1:51 pm

Re: No H.265 (Intel QSV) on 8600K

Post by stevvie » Sun Jul 08, 2018 6:40 pm

OK fixed it for anybody else looking into this. I had the latest drivers like Handbrake team suggested, which at the time were 24.20.100.6136. I searched google for instel HD630 drivers 23, And the first ones that i downloaded where 23.20.16.4927 and they work for my 8600k.

User avatar
s55
HandBrake Team
Posts: 9168
Joined: Sun Dec 24, 2006 1:05 pm

Re: No H.265 (Intel QSV) on 8600K

Post by s55 » Sun Jul 08, 2018 7:44 pm

Hmm, I think you managed to select one of the drivers that were known to cause intermittent and random crashes / encode failures with HandBrake.

Anything below 4982 isn't recommended.

The log above, Windows is actually reporting the onboard GPU is turned off, so there is something a bit broken on your system if it is infact working. Probably a Windows reporting issue so not worth worrying about.

maxim_d33
Bright Spark User
Posts: 165
Joined: Mon Mar 21, 2011 12:02 pm

Re: No H.265 (Intel QSV) on 8600K

Post by maxim_d33 » Sun Jul 08, 2018 7:59 pm


Post Reply