Trimming With The UI

HandBrake for Mac support
Forum rules
An Activity Log is required for support requests. Please read How-to get an activity log? for details on how and why this should be provided.
Post Reply
sgscott
Posts: 2
Joined: Wed Jun 13, 2018 6:39 pm

Trimming With The UI

Post by sgscott » Wed Jun 13, 2018 6:52 pm

Description of problem or question:
I have a mov file I want to compress and I am using a modified Fast 1080p30 preset. I also want to trim 21:00 secs. from the beginning at the same time. How do I do this using the Version 1.1.0 UI?



Steps to reproduce the problem (If Applicable):




HandBrake version (e.g., 1.0.0):

Version 1.1.0


Operating system and version (e.g., Ubuntu 16.04 LTS, macOS 10.13 High Sierra, Windows 10 Creators Update):

Mac OS 10.13.5


HandBrake Activity Log ***required*** (see How-to get an activity log)

Code: Select all

[08:33:07] macgui: Handbrake Version: 1.1.0  (2018040700)
[08:33:07] hb_init: starting libhb thread
[08:33:07] hb_init: starting libhb thread
[08:33:48] macgui: trying to open a folder or file
[08:33:48] macgui: ScanCore scanning titles with a duration of 10 seconds or more
[08:33:48] CPU: Intel(R) Xeon(R) CPU E5-2697 v2 @ 2.70GHz
[08:33:48]  - Intel microarchitecture Ivy Bridge
[08:33:48]  - logical processor count: 24
[08:33:48] hb_scan: path=/Volumes/SSD RAID 4T/Spanish/Finals/S4 Tagged/Masters, title_index=0
disc.c:424: error opening file BDMV/index.bdmv
disc.c:424: error opening file BDMV/BACKUP/index.bdmv
[08:33:48] bd: not a bd - trying as a stream/file instead
libdvdnav: Using dvdnav version 5.0.3
libdvdread: Encrypted DVD support unavailable.
libdvdread: Couldn't find device name.
libdvdread:DVDOpenFilePath:findDVDFile /VIDEO_TS/VIDEO_TS.IFO failed
libdvdread:DVDOpenFilePath:findDVDFile /VIDEO_TS/VIDEO_TS.BUP failed
libdvdread: Can't open file VIDEO_TS.IFO.
libdvdnav: vm: failed to read VIDEO_TS.IFO
[08:33:48] dvd: not a dvd - trying as a stream/file instead
[08:33:48] batch: scanning /Volumes/SSD RAID 4T/Spanish/Finals/S4 Tagged/Masters/.DS_Store
[08:33:48] hb_stream_open: open /Volumes/SSD RAID 4T/Spanish/Finals/S4 Tagged/Masters/.DS_Store failed
[08:33:48] batch: scanning /Volumes/SSD RAID 4T/Spanish/Finals/S4 Tagged/Masters/SPN-WOTM-S4-01-LON.mov
Input #0, mov,mp4,m4a,3gp,3g2,mj2, from '/Volumes/SSD RAID 4T/Spanish/Finals/S4 Tagged/Masters/SPN-WOTM-S4-01-LON.mov':
  Metadata:
    major_brand     : qt  
    minor_version   : 0
    compatible_brands: qt  
    creation_time   : 2018-05-14 21:13:06
  Duration: 00:28:40.95, start: 0.000000, bitrate: 97444 kb/s
    Stream #0:0(und): Video: prores [apcs / 0x73637061]
      yuv422p10le, bt709/bt709/bt709
      1920x1080, 95905 kb/s, PAR 1:1 DAR 16:9
      29.97 fps, 30k tbn (default)
    Metadata:
      creation_time   : 2018-05-14 21:13:06
      handler_name    : Core Media Data Handler
      encoder         : Apple ProRes 422 LT
    Stream #0:1(und): Audio: pcm_s16le [lpcm / 0x6D63706C]
      48000 Hz, stereo, s16, 1536 kb/s (default)
    Metadata:
      creation_time   : 2018-05-14 21:13:06
      handler_name    : Core Media Data Handler
    Stream #0:2(und): Data: tmcd / 0x64636D74 (default)
    Metadata:
      creation_time   : 2018-05-14 21:13:06
      handler_name    : Core Media Data Handler
[08:33:49] batch: scanning /Volumes/SSD RAID 4T/Spanish/Finals/S4 Tagged/Masters/SPN-WOTM-S4-02-BRU.mov
Input #0, mov,mp4,m4a,3gp,3g2,mj2, from '/Volumes/SSD RAID 4T/Spanish/Finals/S4 Tagged/Masters/SPN-WOTM-S4-02-BRU.mov':
  Metadata:
    major_brand     : qt  
    minor_version   : 0
    compatible_brands: qt  
    creation_time   : 2018-05-15 18:20:10
  Duration: 00:28:40.95, start: 0.000000, bitrate: 99765 kb/s
    Stream #0:0(und): Video: prores [apcs / 0x73637061]
      yuv422p10le, bt709/bt709/bt709
      1920x1080, 98227 kb/s, PAR 1:1 DAR 16:9
      29.97 fps, 30k tbn (default)
    Metadata:
      creation_time   : 2018-05-15 18:20:10
      handler_name    : Core Media Data Handler
      encoder         : Apple ProRes 422 LT
    Stream #0:1(und): Audio: pcm_s16le [lpcm / 0x6D63706C]
      48000 Hz, stereo, s16, 1536 kb/s (default)
    Metadata:
      creation_time   : 2018-05-15 18:20:10
      handler_name    : Core Media Data Handler
    Stream #0:2(und): Data: tmcd / 0x64636D74 (default)
    Metadata:
      creation_time   : 2018-05-15 18:20:10
      handler_name    : Core Media Data Handler
[08:33:49] batch: scanning /Volumes/SSD RAID 4T/Spanish/Finals/S4 Tagged/Masters/SPN-WOTM-S4-03-LUX.mov
Input #0, mov,mp4,m4a,3gp,3g2,mj2, from '/Volumes/SSD RAID 4T/Spanish/Finals/S4 Tagged/Masters/SPN-WOTM-S4-03-LUX.mov':
  Metadata:
    major_brand     : qt  
    minor_version   : 0
    compatible_brands: qt  
    creation_time   : 2018-05-10 20:36:15
  Duration: 00:28:40.95, start: 0.000000, bitrate: 100301 kb/s
    Stream #0:0(und): Video: prores [apcs / 0x73637061]
      yuv422p10le, bt709/bt709/bt709
      1920x1080, 98762 kb/s, PAR 1:1 DAR 16:9
      29.97 fps, 30k tbn (default)
    Metadata:
      creation_time   : 2018-05-10 20:36:15
      handler_name    : Core Media Data Handler
      encoder         : Apple ProRes 422 LT
    Stream #0:1(und): Audio: pcm_s16le [lpcm / 0x6D63706C]
      48000 Hz, stereo, s16, 1536 kb/s (default)
    Metadata:
      creation_time   : 2018-05-10 20:36:15
      handler_name    : Core Media Data Handler
    Stream #0:2(und): Data: tmcd / 0x64636D74 (default)
    Metadata:
      creation_time   : 2018-05-10 20:36:15
      handler_name    : Core Media Data Handler
[08:33:49] batch: scanning /Volumes/SSD RAID 4T/Spanish/Finals/S4 Tagged/Masters/SPN-WOTM-S4-04-AMS.mov
Input #0, mov,mp4,m4a,3gp,3g2,mj2, from '/Volumes/SSD RAID 4T/Spanish/Finals/S4 Tagged/Masters/SPN-WOTM-S4-04-AMS.mov':
  Metadata:
    major_brand     : qt  
    minor_version   : 0
    compatible_brands: qt  
    creation_time   : 2018-05-10 20:45:20
  Duration: 00:28:40.95, start: 0.000000, bitrate: 98821 kb/s
    Stream #0:0(und): Video: prores [apcs / 0x73637061]
      yuv422p10le, bt709/bt709/bt709
      1920x1080, 97283 kb/s, PAR 1:1 DAR 16:9
      29.97 fps, 30k tbn (default)
    Metadata:
      creation_time   : 2018-05-10 20:45:20
      handler_name    : Core Media Data Handler
      encoder         : Apple ProRes 422 LT
    Stream #0:1(und): Audio: pcm_s16le [lpcm / 0x6D63706C]
      48000 Hz, stereo, s16, 1536 kb/s (default)
    Metadata:
      creation_time   : 2018-05-10 20:45:20
      handler_name    : Core Media Data Handler
    Stream #0:2(und): Data: tmcd / 0x64636D74 (default)
    Metadata:
      creation_time   : 2018-05-10 20:45:20
      handler_name    : Core Media Data Handler
[08:33:49] batch: scanning /Volumes/SSD RAID 4T/Spanish/Finals/S4 Tagged/Masters/SPN-WOTM-S4-05-PAR.mov
Input #0, mov,mp4,m4a,3gp,3g2,mj2, from '/Volumes/SSD RAID 4T/Spanish/Finals/S4 Tagged/Masters/SPN-WOTM-S4-05-PAR.mov':
  Metadata:
    major_brand     : qt  
    minor_version   : 0
    compatible_brands: qt  
    creation_time   : 2018-05-10 20:54:21
  Duration: 00:28:40.95, start: 0.000000, bitrate: 98941 kb/s
    Stream #0:0(und): Video: prores [apcs / 0x73637061]
      yuv422p10le, bt709/bt709/bt709
      1920x1080, 97402 kb/s, PAR 1:1 DAR 16:9
      29.97 fps, 30k tbn (default)
    Metadata:
      creation_time   : 2018-05-10 20:54:21
      handler_name    : Core Media Data Handler
      encoder         : Apple ProRes 422 LT
    Stream #0:1(und): Audio: pcm_s16le [lpcm / 0x6D63706C]
      48000 Hz, stereo, s16, 1536 kb/s (default)
    Metadata:
      creation_time   : 2018-05-10 20:54:21
      handler_name    : Core Media Data Handler
    Stream #0:2(und): Data: tmcd / 0x64636D74 (default)
    Metadata:
      creation_time   : 2018-05-10 20:54:21
      handler_name    : Core Media Data Handler
[08:33:49] batch: scanning /Volumes/SSD RAID 4T/Spanish/Finals/S4 Tagged/Masters/SPN-WOTM-S4-06-MAN.mov
Input #0, mov,mp4,m4a,3gp,3g2,mj2, from '/Volumes/SSD RAID 4T/Spanish/Finals/S4 Tagged/Masters/SPN-WOTM-S4-06-MAN.mov':
  Metadata:
    major_brand     : qt  
    minor_version   : 0
    compatible_brands: qt  
    creation_time   : 2018-05-10 21:03:19
  Duration: 00:28:40.95, start: 0.000000, bitrate: 97518 kb/s
    Stream #0:0(und): Video: prores [apcs / 0x73637061]
      yuv422p10le, bt709/bt709/bt709
      1920x1080, 95979 kb/s, PAR 1:1 DAR 16:9
      29.97 fps, 30k tbn (default)
    Metadata:
      creation_time   : 2018-05-10 21:03:19
      handler_name    : Core Media Data Handler
      encoder         : Apple ProRes 422 LT
    Stream #0:1(und): Audio: pcm_s16le [lpcm / 0x6D63706C]
      48000 Hz, stereo, s16, 1536 kb/s (default)
    Metadata:
      creation_time   : 2018-05-10 21:03:19
      handler_name    : Core Media Data Handler
    Stream #0:2(und): Data: tmcd / 0x64636D74 (default)
    Metadata:
      creation_time   : 2018-05-10 21:03:19
      handler_name    : Core Media Data Handler
[08:33:49] batch: scanning /Volumes/SSD RAID 4T/Spanish/Finals/S4 Tagged/Masters/SPN-WOTM-S4-07-MIL.mov
Input #0, mov,mp4,m4a,3gp,3g2,mj2, from '/Volumes/SSD RAID 4T/Spanish/Finals/S4 Tagged/Masters/SPN-WOTM-S4-07-MIL.mov':
  Metadata:
    major_brand     : qt  
    minor_version   : 0
    compatible_brands: qt  
    creation_time   : 2018-05-10 21:12:22
  Duration: 00:28:40.98, start: 0.000000, bitrate: 99820 kb/s
    Stream #0:0(und): Video: prores [apcs / 0x73637061]
      yuv422p10le, bt709/bt709/bt709
      1920x1080, 98281 kb/s, PAR 1:1 DAR 16:9
      29.97 fps, 30k tbn (default)
    Metadata:
      creation_time   : 2018-05-10 21:12:22
      handler_name    : Core Media Data Handler
      encoder         : Apple ProRes 422 LT
    Stream #0:1(und): Audio: pcm_s16le [lpcm / 0x6D63706C]
      48000 Hz, stereo, s16, 1536 kb/s (default)
    Metadata:
      creation_time   : 2018-05-10 21:12:22
      handler_name    : Core Media Data Handler
    Stream #0:2(und): Data: tmcd / 0x64636D74 (default)
    Metadata:
      creation_time   : 2018-05-10 21:12:22
      handler_name    : Core Media Data Handler
[08:33:49] batch: scanning /Volumes/SSD RAID 4T/Spanish/Finals/S4 Tagged/Masters/SPN-WOTM-S4-08-ZUR.mov
Input #0, mov,mp4,m4a,3gp,3g2,mj2, from '/Volumes/SSD RAID 4T/Spanish/Finals/S4 Tagged/Masters/SPN-WOTM-S4-08-ZUR.mov':
  Metadata:
    major_brand     : qt  
    minor_version   : 0
    compatible_brands: qt  
    creation_time   : 2018-05-10 21:21:45
  Duration: 00:28:40.95, start: 0.000000, bitrate: 97701 kb/s
    Stream #0:0(und): Video: prores [apcs / 0x73637061]
      yuv422p10le, bt709/bt709/bt709
      1920x1080, 96162 kb/s, PAR 1:1 DAR 16:9
      29.97 fps, 30k tbn (default)
    Metadata:
      creation_time   : 2018-05-10 21:21:45
      handler_name    : Core Media Data Handler
      encoder         : Apple ProRes 422 LT
    Stream #0:1(und): Audio: pcm_s16le [lpcm / 0x6D63706C]
      48000 Hz, stereo, s16, 1536 kb/s (default)
    Metadata:
      creation_time   : 2018-05-10 21:21:45
      handler_name    : Core Media Data Handler
    Stream #0:2(und): Data: tmcd / 0x64636D74 (default)
    Metadata:
      creation_time   : 2018-05-10 21:21:45
      handler_name    : Core Media Data Handler
[08:33:49] batch: scanning /Volumes/SSD RAID 4T/Spanish/Finals/S4 Tagged/Masters/SPN-WOTM-S4-09-MUN.mov
Input #0, mov,mp4,m4a,3gp,3g2,mj2, from '/Volumes/SSD RAID 4T/Spanish/Finals/S4 Tagged/Masters/SPN-WOTM-S4-09-MUN.mov':
  Metadata:
    major_brand     : qt  
    minor_version   : 0
    compatible_brands: qt  
    creation_time   : 2018-05-10 21:30:47
  Duration: 00:28:40.95, start: 0.000000, bitrate: 98549 kb/s
    Stream #0:0(und): Video: prores [apcs / 0x73637061]
      yuv422p10le, bt709/bt709/bt709
      1920x1080, 97010 kb/s, PAR 1:1 DAR 16:9
      29.97 fps, 30k tbn (default)
    Metadata:
      creation_time   : 2018-05-10 21:30:47
      handler_name    : Core Media Data Handler
      encoder         : Apple ProRes 422 LT
    Stream #0:1(und): Audio: pcm_s16le [lpcm / 0x6D63706C]
      48000 Hz, stereo, s16, 1536 kb/s (default)
    Metadata:
      creation_time   : 2018-05-10 21:30:47
      handler_name    : Core Media Data Handler
    Stream #0:2(und): Data: tmcd / 0x64636D74 (default)
    Metadata:
      creation_time   : 2018-05-10 21:30:47
      handler_name    : Core Media Data Handler
[08:33:49] batch: scanning /Volumes/SSD RAID 4T/Spanish/Finals/S4 Tagged/Masters/SPN-WOTM-S4-10-PRA.mov
Input #0, mov,mp4,m4a,3gp,3g2,mj2, from '/Volumes/SSD RAID 4T/Spanish/Finals/S4 Tagged/Masters/SPN-WOTM-S4-10-PRA.mov':
  Metadata:
    major_brand     : qt  
    minor_version   : 0
    compatible_brands: qt  
    creation_time   : 2018-05-10 21:39:58
  Duration: 00:28:40.95, start: 0.000000, bitrate: 97331 kb/s
    Stream #0:0(und): Video: prores [apcs / 0x73637061]
      yuv422p10le, bt709/bt709/bt709
      1920x1080, 95793 kb/s, PAR 1:1 DAR 16:9
      29.97 fps, 30k tbn (default)
    Metadata:
      creation_time   : 2018-05-10 21:39:58
      handler_name    : Core Media Data Handler
      encoder         : Apple ProRes 422 LT
    Stream #0:1(und): Audio: pcm_s16le [lpcm / 0x6D63706C]
      48000 Hz, stereo, s16, 1536 kb/s (default)
    Metadata:
      creation_time   : 2018-05-10 21:39:58
      handler_name    : Core Media Data Handler
    Stream #0:2(und): Data: tmcd / 0x64636D74 (default)
    Metadata:
      creation_time   : 2018-05-10 21:39:58
      handler_name    : Core Media Data Handler
[08:33:49] batch: scanning /Volumes/SSD RAID 4T/Spanish/Finals/S4 Tagged/Masters/SPN-WOTM-S4-11-VIE.mov
Input #0, mov,mp4,m4a,3gp,3g2,mj2, from '/Volumes/SSD RAID 4T/Spanish/Finals/S4 Tagged/Masters/SPN-WOTM-S4-11-VIE.mov':
  Metadata:
    major_brand     : qt  
    minor_version   : 0
    compatible_brands: qt  
    creation_time   : 2018-05-10 22:11:39
  Duration: 00:28:40.95, start: 0.000000, bitrate: 99901 kb/s
    Stream #0:0(und): Video: prores [apcs / 0x73637061]
      yuv422p10le, bt709/bt709/bt709
      1920x1080, 98363 kb/s, PAR 1:1 DAR 16:9
      29.97 fps, 30k tbn (default)
    Metadata:
      creation_time   : 2018-05-10 22:11:39
      handler_name    : Core Media Data Handler
      encoder         : Apple ProRes 422 LT
    Stream #0:1(und): Audio: pcm_s16le [lpcm / 0x6D63706C]
      48000 Hz, stereo, s16, 1536 kb/s (default)
    Metadata:
      creation_time   : 2018-05-10 22:11:39
      handler_name    : Core Media Data Handler
    Stream #0:2(und): Data: tmcd / 0x64636D74 (default)
    Metadata:
      creation_time   : 2018-05-10 22:11:39
      handler_name    : Core Media Data Handler
[08:33:49] batch: scanning /Volumes/SSD RAID 4T/Spanish/Finals/S4 Tagged/Masters/SPN-WOTM-S4-12-BUD.mov
Input #0, mov,mp4,m4a,3gp,3g2,mj2, from '/Volumes/SSD RAID 4T/Spanish/Finals/S4 Tagged/Masters/SPN-WOTM-S4-12-BUD.mov':
  Metadata:
    major_brand     : qt  
    minor_version   : 0
    compatible_brands: qt  
    creation_time   : 2018-05-10 20:07:14
  Duration: 00:28:40.95, start: 0.000000, bitrate: 99577 kb/s
    Stream #0:0(und): Video: prores [apcs / 0x73637061]
      yuv422p10le, bt709/bt709/bt709
      1920x1080, 98038 kb/s, PAR 1:1 DAR 16:9
      29.97 fps, 30k tbn (default)
    Metadata:
      creation_time   : 2018-05-10 20:07:14
      handler_name    : Core Media Data Handler
      encoder         : Apple ProRes 422 LT
    Stream #0:1(und): Audio: pcm_s16le [lpcm / 0x6D63706C]
      48000 Hz, stereo, s16, 1536 kb/s (default)
    Metadata:
      creation_time   : 2018-05-10 20:07:14
      handler_name    : Core Media Data Handler
    Stream #0:2(und): Data: tmcd / 0x64636D74 (default)
    Metadata:
      creation_time   : 2018-05-10 20:07:14
      handler_name    : Core Media Data Handler
[08:33:49] batch: scanning /Volumes/SSD RAID 4T/Spanish/Finals/S4 Tagged/Masters/SPN-WOTM-S4-13-TIM.mov
Input #0, mov,mp4,m4a,3gp,3g2,mj2, from '/Volumes/SSD RAID 4T/Spanish/Finals/S4 Tagged/Masters/SPN-WOTM-S4-13-TIM.mov':
  Metadata:
    major_brand     : qt  
    minor_version   : 0
    compatible_brands: qt  
    creation_time   : 2018-05-10 20:17:41
  Duration: 00:28:40.31, start: 0.000000, bitrate: 99768 kb/s
    Stream #0:0(und): Video: prores [apcs / 0x73637061]
      yuv422p10le, bt709/bt709/bt709
      1920x1080, 98229 kb/s, PAR 1:1 DAR 16:9
      29.97 fps, 30k tbn (default)
    Metadata:
      creation_time   : 2018-05-10 20:17:41
      handler_name    : Core Media Data Handler
      encoder         : Apple ProRes 422 LT
    Stream #0:1(und): Audio: pcm_s16le [lpcm / 0x6D63706C]
      48000 Hz, stereo, s16, 1536 kb/s (default)
    Metadata:
      creation_time   : 2018-05-10 20:17:41
      handler_name    : Core Media Data Handler
    Stream #0:2(und): Data: tmcd / 0x64636D74 (default)
    Metadata:
      creation_time   : 2018-05-10 20:17:41
      handler_name    : Core Media Data Handler
[08:33:49] scan: decoding previews for title 2 (/Volumes/SSD RAID 4T/Spanish/Finals/S4 Tagged/Masters/SPN-WOTM-S4-01-LON.mov)
[08:33:49] scan: audio 0x1: pcm_s16le, rate=48000Hz, bitrate=1536000 Unknown (pcm_s16le) (2.0 ch)
[08:33:50] scan: 10 previews, 1920x1080, 29.970 fps, autocrop = 0/0/0/0, aspect 16:9, PAR 1:1
[08:33:50] scan: decoding previews for title 3 (/Volumes/SSD RAID 4T/Spanish/Finals/S4 Tagged/Masters/SPN-WOTM-S4-02-BRU.mov)
[08:33:50] scan: audio 0x1: pcm_s16le, rate=48000Hz, bitrate=1536000 Unknown (pcm_s16le) (2.0 ch)
[08:33:51] scan: 10 previews, 1920x1080, 29.970 fps, autocrop = 4/0/0/0, aspect 16:9, PAR 1:1
[08:33:51] scan: decoding previews for title 4 (/Volumes/SSD RAID 4T/Spanish/Finals/S4 Tagged/Masters/SPN-WOTM-S4-03-LUX.mov)
[08:33:51] scan: audio 0x1: pcm_s16le, rate=48000Hz, bitrate=1536000 Unknown (pcm_s16le) (2.0 ch)
[08:33:52] scan: 10 previews, 1920x1080, 29.970 fps, autocrop = 0/0/0/4, aspect 16:9, PAR 1:1
[08:33:52] scan: decoding previews for title 5 (/Volumes/SSD RAID 4T/Spanish/Finals/S4 Tagged/Masters/SPN-WOTM-S4-04-AMS.mov)
[08:33:52] scan: audio 0x1: pcm_s16le, rate=48000Hz, bitrate=1536000 Unknown (pcm_s16le) (2.0 ch)
[08:33:52] scan: 10 previews, 1920x1080, 29.970 fps, autocrop = 0/0/0/0, aspect 16:9, PAR 1:1
[08:33:52] scan: decoding previews for title 6 (/Volumes/SSD RAID 4T/Spanish/Finals/S4 Tagged/Masters/SPN-WOTM-S4-05-PAR.mov)
[08:33:52] scan: audio 0x1: pcm_s16le, rate=48000Hz, bitrate=1536000 Unknown (pcm_s16le) (2.0 ch)
[08:33:53] scan: 10 previews, 1920x1080, 29.970 fps, autocrop = 0/0/0/0, aspect 16:9, PAR 1:1
[08:33:53] Title is likely interlaced or telecined (5 out of 10 previews). You should do something about that.
[08:33:53] scan: decoding previews for title 7 (/Volumes/SSD RAID 4T/Spanish/Finals/S4 Tagged/Masters/SPN-WOTM-S4-06-MAN.mov)
[08:33:53] scan: audio 0x1: pcm_s16le, rate=48000Hz, bitrate=1536000 Unknown (pcm_s16le) (2.0 ch)
[08:33:54] scan: 10 previews, 1920x1080, 29.970 fps, autocrop = 0/0/0/0, aspect 16:9, PAR 1:1
[08:33:54] scan: decoding previews for title 8 (/Volumes/SSD RAID 4T/Spanish/Finals/S4 Tagged/Masters/SPN-WOTM-S4-07-MIL.mov)
[08:33:54] scan: audio 0x1: pcm_s16le, rate=48000Hz, bitrate=1536000 Unknown (pcm_s16le) (2.0 ch)
[08:33:55] scan: 10 previews, 1920x1080, 29.970 fps, autocrop = 0/0/0/0, aspect 16:9, PAR 1:1
[08:33:55] Title is likely interlaced or telecined (6 out of 10 previews). You should do something about that.
[08:33:55] scan: decoding previews for title 9 (/Volumes/SSD RAID 4T/Spanish/Finals/S4 Tagged/Masters/SPN-WOTM-S4-08-ZUR.mov)
[08:33:55] scan: audio 0x1: pcm_s16le, rate=48000Hz, bitrate=1536000 Unknown (pcm_s16le) (2.0 ch)
[08:33:55] scan: 10 previews, 1920x1080, 29.970 fps, autocrop = 0/0/0/4, aspect 16:9, PAR 1:1
[08:33:55] scan: decoding previews for title 10 (/Volumes/SSD RAID 4T/Spanish/Finals/S4 Tagged/Masters/SPN-WOTM-S4-09-MUN.mov)
[08:33:55] scan: audio 0x1: pcm_s16le, rate=48000Hz, bitrate=1536000 Unknown (pcm_s16le) (2.0 ch)
[08:33:56] scan: 10 previews, 1920x1080, 29.970 fps, autocrop = 0/0/0/4, aspect 16:9, PAR 1:1
[08:33:56] scan: decoding previews for title 11 (/Volumes/SSD RAID 4T/Spanish/Finals/S4 Tagged/Masters/SPN-WOTM-S4-10-PRA.mov)
[08:33:56] scan: audio 0x1: pcm_s16le, rate=48000Hz, bitrate=1536000 Unknown (pcm_s16le) (2.0 ch)
[08:33:57] scan: 10 previews, 1920x1080, 29.970 fps, autocrop = 0/0/0/0, aspect 16:9, PAR 1:1
[08:33:57] scan: decoding previews for title 12 (/Volumes/SSD RAID 4T/Spanish/Finals/S4 Tagged/Masters/SPN-WOTM-S4-11-VIE.mov)
[08:33:57] scan: audio 0x1: pcm_s16le, rate=48000Hz, bitrate=1536000 Unknown (pcm_s16le) (2.0 ch)
[08:33:58] scan: 10 previews, 1920x1080, 29.970 fps, autocrop = 0/0/0/4, aspect 16:9, PAR 1:1
[08:33:58] scan: decoding previews for title 13 (/Volumes/SSD RAID 4T/Spanish/Finals/S4 Tagged/Masters/SPN-WOTM-S4-12-BUD.mov)
[08:33:58] scan: audio 0x1: pcm_s16le, rate=48000Hz, bitrate=1536000 Unknown (pcm_s16le) (2.0 ch)
[08:33:58] scan: 10 previews, 1920x1080, 29.970 fps, autocrop = 0/0/0/0, aspect 16:9, PAR 1:1
[08:33:58] scan: decoding previews for title 14 (/Volumes/SSD RAID 4T/Spanish/Finals/S4 Tagged/Masters/SPN-WOTM-S4-13-TIM.mov)
[08:33:58] scan: audio 0x1: pcm_s16le, rate=48000Hz, bitrate=1536000 Unknown (pcm_s16le) (2.0 ch)
[08:33:59] scan: 10 previews, 1920x1080, 29.970 fps, autocrop = 0/0/0/0, aspect 16:9, PAR 1:1
[08:33:59] libhb: scan thread found 13 valid title(s)
[08:33:59] macgui: ScanCore scan done
[08:45:25] macgui: QueueCore scanning specifically for title: 12
[08:45:25] CPU: Intel(R) Xeon(R) CPU E5-2697 v2 @ 2.70GHz
[08:45:25]  - Intel microarchitecture Ivy Bridge
[08:45:25]  - logical processor count: 24
[08:45:25] hb_scan: path=/Volumes/SSD RAID 4T/Spanish/Finals/S4 Tagged/Masters/SPN-WOTM-S4-11-VIE.mov, title_index=12
udfread ERROR: ECMA 167 Volume Recognition failed
disc.c:323: failed opening UDF image /Volumes/SSD RAID 4T/Spanish/Finals/S4 Tagged/Masters/SPN-WOTM-S4-11-VIE.mov
disc.c:424: error opening file BDMV/index.bdmv
disc.c:424: error opening file BDMV/BACKUP/index.bdmv
[08:45:25] bd: not a bd - trying as a stream/file instead
libdvdnav: Using dvdnav version 5.0.3
libdvdread: Encrypted DVD support unavailable.
libdvdread:DVDOpenFileUDF:UDFFindFile /VIDEO_TS/VIDEO_TS.IFO failed
libdvdread:DVDOpenFileUDF:UDFFindFile /VIDEO_TS/VIDEO_TS.BUP failed
libdvdread: Can't open file VIDEO_TS.IFO.
libdvdnav: vm: failed to read VIDEO_TS.IFO
[08:45:25] dvd: not a dvd - trying as a stream/file instead
Input #0, mov,mp4,m4a,3gp,3g2,mj2, from '/Volumes/SSD RAID 4T/Spanish/Finals/S4 Tagged/Masters/SPN-WOTM-S4-11-VIE.mov':
  Metadata:
    major_brand     : qt  
    minor_version   : 0
    compatible_brands: qt  
    creation_time   : 2018-05-10 22:11:39
  Duration: 00:28:40.95, start: 0.000000, bitrate: 99901 kb/s
    Stream #0:0(und): Video: prores [apcs / 0x73637061]
      yuv422p10le, bt709/bt709/bt709
      1920x1080, 98363 kb/s, PAR 1:1 DAR 16:9
      29.97 fps, 30k tbn (default)
    Metadata:
      creation_time   : 2018-05-10 22:11:39
      handler_name    : Core Media Data Handler
      encoder         : Apple ProRes 422 LT
    Stream #0:1(und): Audio: pcm_s16le [lpcm / 0x6D63706C]
      48000 Hz, stereo, s16, 1536 kb/s (default)
    Metadata:
      creation_time   : 2018-05-10 22:11:39
      handler_name    : Core Media Data Handler
    Stream #0:2(und): Data: tmcd / 0x64636D74 (default)
    Metadata:
      creation_time   : 2018-05-10 22:11:39
      handler_name    : Core Media Data Handler
[08:45:25] scan: decoding previews for title 12
[08:45:25] scan: audio 0x1: pcm_s16le, rate=48000Hz, bitrate=1536000 Unknown (pcm_s16le) (2.0 ch)
[08:45:26] scan: 10 previews, 1920x1080, 29.970 fps, autocrop = 0/0/0/4, aspect 16:9, PAR 1:1
[08:45:26] libhb: scan thread found 1 valid title(s)
[08:45:26] macgui: QueueCore scan done
[08:45:26] macgui: QueueCore started encoding SPN-WOTM-S4-11-VIE-rf27.00.mp4
[08:45:26] macgui: QueueCore with preset Fast 1080p30 (Modified)
[08:45:26] 1 job(s) to process
[08:45:26] starting job
[08:45:26] decomb filter thread started for segment 0
[08:45:26] decomb filter thread started for segment 1
[08:45:26] decomb filter thread started for segment 2
[08:45:26] decomb filter thread started for segment 3
[08:45:26] decomb filter thread started for segment 4
[08:45:26] decomb filter thread started for segment 5
[08:45:26] decomb filter thread started for segment 6
[08:45:26] decomb filter thread started for segment 7
[08:45:26] decomb filter thread started for segment 8
[08:45:26] decomb filter thread started for segment 9
[08:45:26] decomb filter thread started for segment 11
[08:45:26] decomb filter thread started for segment 10
[08:45:26] decomb filter thread started for segment 12
[08:45:26] decomb filter thread started for segment 13
[08:45:26] decomb filter thread started for segment 14
[08:45:26] decomb filter thread started for segment 15
[08:45:26] decomb filter thread started for segment 16
[08:45:26] decomb filter thread started for segment 17
[08:45:26] decomb filter thread started for segment 18
[08:45:26] decomb filter thread started for segment 19
[08:45:26] decomb filter thread started for segment 20
[08:45:26] decomb filter thread started for segment 21
[08:45:26] decomb filter thread started for segment 22
[08:45:26] decomb filter thread started for segment 23
[08:45:26] decomb check thread started for segment 0
[08:45:26] decomb check thread started for segment 1
[08:45:26] decomb check thread started for segment 2
[08:45:26] decomb check thread started for segment 3
[08:45:26] decomb check thread started for segment 4
[08:45:26] decomb check thread started for segment 5
[08:45:26] decomb check thread started for segment 6
[08:45:26] decomb check thread started for segment 7
[08:45:26] decomb check thread started for segment 8
[08:45:26] decomb check thread started for segment 9
[08:45:26] decomb check thread started for segment 10
[08:45:26] decomb check thread started for segment 11
[08:45:26] decomb check thread started for segment 12
[08:45:26] decomb check thread started for segment 13
[08:45:26] decomb check thread started for segment 14
[08:45:26] decomb check thread started for segment 15
[08:45:26] decomb check thread started for segment 16
[08:45:26] decomb check thread started for segment 17
[08:45:26] decomb check thread started for segment 18
[08:45:26] decomb check thread started for segment 19
[08:45:26] decomb check thread started for segment 20
[08:45:26] decomb check thread started for segment 21
[08:45:26] decomb check thread started for segment 22
[08:45:26] decomb check thread started for segment 23
[08:45:26] mask filter thread started for segment 0
[08:45:26] mask filter thread started for segment 1
[08:45:26] mask filter thread started for segment 2
[08:45:26] mask filter thread started for segment 3
[08:45:26] mask filter thread started for segment 4
[08:45:26] mask filter thread started for segment 5
[08:45:26] mask filter thread started for segment 6
[08:45:26] mask filter thread started for segment 7
[08:45:26] mask filter thread started for segment 8
[08:45:26] mask filter thread started for segment 9
[08:45:26] mask filter thread started for segment 10
[08:45:26] mask filter thread started for segment 11
[08:45:26] mask filter thread started for segment 12
[08:45:26] mask filter thread started for segment 13
[08:45:26] mask filter thread started for segment 14
[08:45:26] mask filter thread started for segment 15
[08:45:26] mask filter thread started for segment 16
[08:45:26] mask filter thread started for segment 17
[08:45:26] mask filter thread started for segment 18
[08:45:26] mask filter thread started for segment 19
[08:45:26] mask filter thread started for segment 20
[08:45:26] mask filter thread started for segment 21
[08:45:26] mask filter thread started for segment 22
[08:45:26] mask filter thread started for segment 23
[08:45:26] mask erode thread started for segment 0
[08:45:26] mask erode thread started for segment 1
[08:45:26] mask erode thread started for segment 2
[08:45:26] mask erode thread started for segment 3
[08:45:26] mask erode thread started for segment 4
[08:45:26] mask erode thread started for segment 5
[08:45:26] mask erode thread started for segment 6
[08:45:26] mask erode thread started for segment 7
[08:45:26] mask erode thread started for segment 8
[08:45:26] mask erode thread started for segment 9
[08:45:26] mask erode thread started for segment 10
[08:45:26] mask erode thread started for segment 11
[08:45:26] mask erode thread started for segment 12
[08:45:26] mask erode thread started for segment 13
[08:45:26] mask erode thread started for segment 14
[08:45:26] mask erode thread started for segment 15
[08:45:26] mask erode thread started for segment 16
[08:45:26] mask erode thread started for segment 17
[08:45:26] mask erode thread started for segment 18
[08:45:26] mask erode thread started for segment 19
[08:45:26] mask erode thread started for segment 20
[08:45:26] mask erode thread started for segment 21
[08:45:26] mask erode thread started for segment 22
[08:45:26] mask erode thread started for segment 23
[08:45:26] mask dilate thread started for segment 0
[08:45:26] mask dilate thread started for segment 1
[08:45:26] mask dilate thread started for segment 2
[08:45:26] mask dilate thread started for segment 3
[08:45:26] mask dilate thread started for segment 4
[08:45:26] mask dilate thread started for segment 5
[08:45:26] mask dilate thread started for segment 6
[08:45:26] mask dilate thread started for segment 7
[08:45:26] mask dilate thread started for segment 8
[08:45:26] mask dilate thread started for segment 9
[08:45:26] mask dilate thread started for segment 10
[08:45:26] mask dilate thread started for segment 11
[08:45:26] mask dilate thread started for segment 12
[08:45:26] mask dilate thread started for segment 13
[08:45:26] mask dilate thread started for segment 14
[08:45:26] mask dilate thread started for segment 15
[08:45:26] mask dilate thread started for segment 16
[08:45:26] mask dilate thread started for segment 17
[08:45:26] mask dilate thread started for segment 18
[08:45:26] mask dilate thread started for segment 19
[08:45:26] mask dilate thread started for segment 20
[08:45:26] mask dilate thread started for segment 21
[08:45:26] mask dilate thread started for segment 22
[08:45:26] mask dilate thread started for segment 23
[08:45:26] yadif thread started for segment 0
[08:45:26] yadif thread started for segment 1
[08:45:26] yadif thread started for segment 2
[08:45:26] yadif thread started for segment 3
[08:45:26] yadif thread started for segment 4
[08:45:26] yadif thread started for segment 5
[08:45:26] yadif thread started for segment 6
[08:45:26] yadif thread started for segment 7
[08:45:26] yadif thread started for segment 8
[08:45:26] yadif thread started for segment 9
[08:45:26] yadif thread started for segment 10
[08:45:26] yadif thread started for segment 11
[08:45:26] yadif thread started for segment 12
[08:45:26] yadif thread started for segment 13
[08:45:26] yadif thread started for segment 14
[08:45:26] yadif thread started for segment 15
[08:45:26] yadif thread started for segment 16
[08:45:26] yadif thread started for segment 17
[08:45:26] yadif thread started for segment 18
[08:45:26] yadif thread started for segment 19
[08:45:26] yadif thread started for segment 20
[08:45:26] yadif thread started for segment 21
[08:45:26] yadif thread started for segment 22
[08:45:26] yadif thread started for segment 23
[08:45:26] work: only 1 chapter, disabling chapter markers
[08:45:26] job configuration:
[08:45:26]  * source
[08:45:26]    + /Volumes/SSD RAID 4T/Spanish/Finals/S4 Tagged/Masters/SPN-WOTM-S4-11-VIE.mov
[08:45:26]    + title 12, chapter(s) 1 to 1
[08:45:26]    + container: mov,mp4,m4a,3gp,3g2,mj2
[08:45:26]    + data rate: 99901 kbps
[08:45:26]  * destination
[08:45:26]    + /Volumes/SSD RAID 4T/Spanish/Finals/S4 Tagged/S4 Str Dld/SPN-WOTM-S4-11-VIE-rf27.00.mp4
[08:45:26]    + container: MPEG-4 (libavformat)
[08:45:26]      + align initial A/V stream timestamps
[08:45:26]  * video track
[08:45:26]    + decoder: prores
[08:45:26]      + bitrate 98363 kbps
[08:45:26]    + filters
[08:45:26]      + Comb Detect (mode=3:spatial-metric=2:motion-thresh=1:spatial-thresh=1:filter-mode=2:block-thresh=40:block-width=16:block-height=16)
[08:45:26]      + Decomb (mode=39)
[08:45:26]      + Framerate Shaper (mode=2:rate=27000000/900000)
[08:45:26]        + frame rate: 29.970 fps -> peak rate limited to 30.000 fps
[08:45:26]      + Deblock (pp7) (qp=1)
[08:45:26]      + Crop and Scale (width=1916:height=1080:crop-top=0:crop-bottom=0:crop-left=0:crop-right=4)
[08:45:26]        + source: 1920 * 1080, crop (0/0/0/4): 1916 * 1080, scale: 1916 * 1080
[08:45:26]    + Output geometry
[08:45:26]      + storage dimensions: 1916 x 1080
[08:45:26]      + pixel aspect ratio: 1 : 1
[08:45:26]      + display dimensions: 1916 x 1080
[08:45:26]    + encoder: H.264 (libx264)
[08:45:26]      + preset:  veryslow
[08:45:26]      + profile: main
[08:45:26]      + level:   4.0
[08:45:26]      + quality: 27.00 (RF)
[08:45:26]  * audio track 1
[08:45:26]    + decoder: Unknown (pcm_s16le) (2.0 ch) (track 1, id 0x1)
[08:45:26]      + bitrate: 1536 kbps, samplerate: 48000 Hz
[08:45:26]    + mixdown: Stereo
[08:45:26]    + encoder: AAC (Apple AudioToolbox)
[08:45:26]      + bitrate: 160 kbps, samplerate: 48000 Hz
[08:45:26] sync: expecting 51577 video frames
[08:45:26] encx264: min-keyint: 30, keyint: 300
[08:45:26] encx264: encoding at constant RF 27.000000
[08:45:26] encx264: unparsed options: level=4.0:ref=4:bframes=8:b-adapt=2:direct=auto:analyse=all:8x8dct=0:me=umh:merange=24:subme=10:trellis=2:vbv-bufsize=25000:vbv-maxrate=20000:rc-lookahead=60
x264 [info]: using SAR=1/1
x264 [info]: using cpu capabilities: MMX2 SSE2Fast SSSE3 SSE4.2 AVX
x264 [info]: profile Main, level 4.0
[08:45:26] sync: first pts video is 0
[08:45:26] sync: "Chapter 1" (1) at frame 1 time 0
[08:45:26] sync: first pts audio 0x1 is 0
[11:15:11] macgui: QueueCore encode canceled
[11:15:11] work: average encoding speed for job is 4.158645 fps
[11:15:12] comb detect: heavy 22351 | light 6261 | uncombed 8738 | total 37350
[11:15:12] decomb: deinterlaced 22345 | blended 6260 | unfiltered 8738 | total 37343
[11:15:12] vfr: 37334 frames output, 0 dropped and 0 duped for CFR/PFR
[11:15:12] vfr: lost time: 0 (0 frames)
[11:15:12] vfr: gained time: 0 (0 frames) (0 not accounted for)
[11:15:12] pcm_s16le-decoder done: 59903 frames, 0 decoder errors
[11:15:12] prores-decoder done: 37413 frames, 0 decoder errors
[11:15:12] sync: got 37375 frames, 51577 expected
[11:15:12] sync: framerate min 29.970 fps, max 29.970 fps, avg 29.970 fps
x264 [info]: frame I:274   Avg QP:26.55  size: 96068
x264 [info]: frame P:8318  Avg QP:30.26  size: 25636
x264 [info]: frame B:28633 Avg QP:34.01  size:  6394
x264 [info]: consecutive B-frames:  3.1%  2.3%  4.2% 18.3% 41.4% 18.8%  2.9%  2.9%  6.2%
x264 [info]: mb I  I16..4: 43.5%  0.0% 56.5%
x264 [info]: mb P  I16..4: 10.0%  0.0%  5.4%  P16..4: 37.7%  6.8%  5.4%  0.1%  0.0%    skip:34.6%
x264 [info]: mb B  I16..4:  0.4%  0.0%  0.2%  B16..8: 33.7%  2.5%  0.5%  direct: 1.8%  skip:60.8%  L0:42.7% L1:55.3% BI: 2.0%
x264 [info]: direct mvs  spatial:99.9% temporal:0.1%
x264 [info]: coded y,uvDC,uvAC intra: 40.5% 33.4% 6.1% inter: 4.9% 3.8% 0.1%
x264 [info]: i16 v,h,dc,p: 31% 21% 12% 37%
x264 [info]: i4 v,h,dc,ddl,ddr,vr,hd,vl,hu: 11%  7% 12%  9% 14% 11% 13% 10% 13%
x264 [info]: i8c dc,h,v,p: 38% 30% 18% 14%
x264 [info]: Weighted P-Frames: Y:5.0% UV:3.4%
x264 [info]: ref P L0: 56.0% 17.3% 19.1%  6.9%  0.7%  0.0%
x264 [info]: ref B L0: 90.7%  7.3%  2.0%
x264 [info]: ref B L1: 97.0%  3.0%
x264 [info]: kb/s:2722.22
[11:15:12] mux: track 0, 37225 frames, 422638329 bytes, 2711.22 kbps, fifo 2048
[11:15:12] mux: track 1, 58457 frames, 25658176 bytes, 164.60 kbps, fifo 4096
[11:15:12] libhb: work result = 1
[11:15:12] macgui: QueueCore work canceled
[11:15:12] macgui: Queue manually stopped
Last edited by Rodeo on Sat Jun 16, 2018 5:48 pm, edited 1 time in total.
Reason: Logs in [code][/code] blocks please

Woodstock
Veteran User
Posts: 2592
Joined: Tue Aug 27, 2013 6:39 am

Re: Trimming With The UI

Post by Woodstock » Wed Jun 13, 2018 8:00 pm


sgscott
Posts: 2
Joined: Wed Jun 13, 2018 6:39 pm

Re: Trimming With The UI

Post by sgscott » Wed Jun 13, 2018 8:05 pm

Oh, I see it now. You've set up a "Range" at the top!
Good job!

Post Reply