With upcoming changes to data protection and privacy laws in Europe coming into effect soon, we thought this would be a good time to remind everyone that we do have a privacy policy.
This applies to all users and visitors world-wide.

We have made a few changes to the language to make it clearer in relation to this new regulation but fundamentally, the terms and your rights are unchanged.

If you have any questions about this, please feel free to ask in the General Forum

No PCM audio with Linux version

Support for HandBrake on Linux, Solaris, and other Unix-like platforms
Forum rules
An Activity Log is required for support requests. Please read How-to get an activity log? for details on how and why this should be provided.
Post Reply
Tolots
Posts: 6
Joined: Sun Jul 15, 2012 10:49 am

No PCM audio with Linux version

Post by Tolots » Sun Jun 10, 2018 6:37 pm

Hi,

PCM audio is not used with the latest Linux (Ubuntu 1.1.0 (x86_64)) Handbrake. Windows version works.

Here is the log:

Code: Select all

Input #0, matroska,webm, from '/media/HTPC/MediaCenter/_inWork/Serie/Mord mit Aussicht/Season 01/Mord mit Aussicht - S01E04 - Marienfeuer.mkv':
  Metadata:
    title           : Mord mit Aussicht Staffel 1.1
    encoder         : libmakemkv v1.12.2 (1.3.5/1.4.7) win(x64-release)
    creation_time   : 2018-06-10T13:26:50.000000Z
  Duration: 00:47:33.04, start: 0.000000, bitrate: 18540 kb/s
    Stream #0:0(eng): Video: h264 (High), yuv420p(tv, bt709, top first), 1920x1080 [SAR 1:1 DAR 16:9], 25 fps, 25 tbr, 1k tbn, 50 tbc
    Metadata:
      BPS-eng         : 16998608
      DURATION-eng    : 00:47:33.040000000
      NUMBER_OF_FRAMES-eng: 142652
      NUMBER_OF_BYTES-eng: 6062213636
      SOURCE_ID-eng   : 001011
      _STATISTICS_WRITING_APP-eng: MakeMKV v1.12.2 win(x64-release)
      _STATISTICS_WRITING_DATE_UTC-eng: 2018-06-10 13:26:50
      _STATISTICS_TAGS-eng: BPS DURATION NUMBER_OF_FRAMES NUMBER_OF_BYTES SOURCE_ID
    Stream #0:1(ger): Audio: pcm_s16le, 48000 Hz, 2 channels, s16, 1536 kb/s (default)
    Metadata:
      title           : Stereo
      BPS-eng         : 1536000
      DURATION-eng    : 00:47:33.040000000
      NUMBER_OF_FRAMES-eng: 85592
      NUMBER_OF_BYTES-eng: 547783680
      SOURCE_ID-eng   : 001100
      _STATISTICS_WRITING_APP-eng: MakeMKV v1.12.2 win(x64-release)
      _STATISTICS_WRITING_DATE_UTC-eng: 2018-06-10 13:26:50
      _STATISTICS_TAGS-eng: BPS DURATION NUMBER_OF_FRAMES NUMBER_OF_BYTES SOURCE_ID
    Stream #0:2: Video: mjpeg, yuvj444p(pc, bt470bg/unknown/unknown), 640x360, 90k tbr, 90k tbn, 90k tbc
    Metadata:
      filename        : cover.jpg
      mimetype        : image/jpeg
[20:33:04] scan: decoding previews for title 1
[20:33:39] scan: 10 previews, 1920x1080, 25,000 fps, autocrop = 4/4/0/0, aspect 16:9, PAR 1:1
[b][20:33:39] scan: removing audio 0x1 because no bitrate found[/b]
[20:33:39] libhb: scan thread found 1 valid title(s)
Last edited by Rodeo on Mon Jun 11, 2018 6:39 pm, edited 1 time in total.
Reason: Logs in [code][/code] blocks please

Woodstock
Veteran User
Posts: 2533
Joined: Tue Aug 27, 2013 6:39 am

Re: No PCM audio with Linux version

Post by Woodstock » Sun Jun 10, 2018 7:51 pm

If you obtained your ubuntu version from ubuntu, rather than the official PPA distribution link on the handbrake download page, you have a version that was deliberately broken by the ubuntu maintainers.

Tolots
Posts: 6
Joined: Sun Jul 15, 2012 10:49 am

Re: No PCM audio with Linux version

Post by Tolots » Mon Jun 11, 2018 12:26 pm

I installed the PPA from the Handbrake website. But I tried the nightly PPA which results in no update for apt-get update; apt-get dist-upgrade

Next I get a clone from GIT and compiled a GIT-snapshot. PCM-audio is now working but the work-time increases from 2h to 6h for a 1h episode.
The settings are the same as I used a stored queue.

Woodstock
Veteran User
Posts: 2533
Joined: Tue Aug 27, 2013 6:39 am

Re: No PCM audio with Linux version

Post by Woodstock » Mon Jun 11, 2018 1:12 pm

We would need to see the log for the encode.

Tolots
Posts: 6
Joined: Sun Jul 15, 2012 10:49 am

Re: No PCM audio with Linux version

Post by Tolots » Mon Jun 11, 2018 3:53 pm

Hopefully there is all included you need. There is a queue with 26 entries still running.

Code: Select all

[07:40:22]      + bitrate: 160 kbps, samplerate: 48000 Hz
[07:40:23] sync: expecting 71426 video frames
[07:40:23] encavcodecaInit: Unknown avcodec option stereo_mode
[07:40:23] encavcodecaInit: Unknown avcodec option stereo_mode
[07:40:23] encx264: encoding at average bitrate 8000
[07:40:23] encx264: unparsed options: ref=8:b-adapt=2:direct=auto:deblock=-1,-1:analyse=all:me=umh:subme=9:trellis=2:psy-rd=1,0,15:rc-lookahead=60
x264 [info]: using SAR=1/1
x264 [info]: using cpu capabilities: MMX2 SSE2Fast SSSE3 SSE4.2 AVX
x264 [info]: profile High, level 5.0
[07:40:25] sync: first pts video is 0
[07:40:25] sync: Chapter 1 at frame 1 time 0
[07:40:25] sync: first pts audio 0x1 is 0
[07:40:25] sync: first pts audio 0x1 is 0
[10:31:39] reader: done. 1 scr changes
[10:31:52] work: average encoding speed for job is 6,948016 fps
[10:31:52] comb detect: heavy 6490 | light 12949 | uncombed 51987 | total 71426
[10:31:52] decomb: deinterlaced 6490 | blended 12949 | unfiltered 51987 | total 71426
[10:31:52] vfr: lost time: 0 (0 frames)
[10:31:52] vfr: gained time: 0 (0 frames) (0 not accounted for)
[10:31:52] pcm_s16le-decoder done: 85712 frames, 0 decoder errors
[10:31:52] pcm_s16le-decoder done: 85712 frames, 0 decoder errors
[10:31:52] h264-decoder done: 71426 frames, 0 decoder errors
[10:31:52] sync: got 71426 frames, 71426 expected
[10:31:52] sync: framerate min 25,000 fps, max 25,000 fps, avg 25,000 fps
x264 [info]: frame I:653   Avg QP:16,24  size:215032
x264 [info]: frame P:19865 Avg QP:18,15  size: 72064
x264 [info]: frame B:50908 Avg QP:20,25  size: 25233
x264 [info]: consecutive B-frames:  1,7%  2,9% 21,2% 74,3%
x264 [info]: mb I  I16..4:  5,0% 78,7% 16,3%
x264 [info]: mb P  I16..4:  2,6% 20,7%  1,8%  P16..4: 43,9% 16,8%  9,2%  0,2%  0,0%    skip: 4,9%
x264 [info]: mb B  I16..4:  0,4%  2,7%  0,2%  B16..8: 34,6%  6,4%  1,5%  direct:13,3%  skip:40,8%  L0:41,6% L1:48,2% BI:10,2%
x264 [info]: 8x8 transform intra:82,1% inter:55,8%
x264 [info]: direct mvs  spatial:99,3% temporal:0,7%
x264 [info]: coded y,uvDC,uvAC intra: 86,5% 68,1% 41,4% inter: 31,2% 27,0% 1,6%
x264 [info]: i16 v,h,dc,p: 27% 18% 14% 42%
x264 [info]: i8 v,h,dc,ddl,ddr,vr,hd,vl,hu: 13% 11%  9%  7% 11% 12% 12% 12% 13%
x264 [info]: i4 v,h,dc,ddl,ddr,vr,hd,vl,hu: 11% 10%  6%  8% 14% 14% 14% 10% 13%
x264 [info]: i8c dc,h,v,p: 38% 26% 23% 12%
x264 [info]: Weighted P-Frames: Y:0,9% UV:0,3%
x264 [info]: ref P L0: 50,8%  9,2% 16,5%  7,9%  5,8%  4,3%  3,4%  2,1%  0,0%  0,0%
x264 [info]: ref B L0: 85,7%  8,6%  2,7%  1,3%  0,9%  0,5%  0,3%
x264 [info]: ref B L1: 97,8%  2,2%
x264 [info]: kb/s:7998,56
[10:31:52] mux: track 0, 71426 frames, 2856497697 bytes, 7998,37 kbps, fifo 1024
[10:31:52] mux: track 1, 133924 frames, 57340825 bytes, 160,56 kbps, fifo 2048
[10:31:52] mux: track 2, 133924 frames, 57340825 bytes, 160,56 kbps, fifo 2048
[10:31:52] libhb: work result = 0
[10:31:52] gtkgui: Custom Preset: /General/BD
[10:31:52] 1 job(s) to process
[10:31:52] json job:
{
    "Audio": {
        "AudioList": [
            {
                "Bitrate": 160,
                "CompressionLevel": -1.0,
                "DRC": 0.0,
                "DitherMethod": "auto",
                "Encoder": "av_aac",
                "Gain": 0.0,
                "Mixdown": "stereo",
                "NormalizeMixLevel": false,
                "PresetEncoder": "av_aac",
                "Quality": -3.0,
                "Samplerate": 0,
                "Track": 0
            },
            {
                "Bitrate": 160,
                "CompressionLevel": -1.0,
                "DRC": 0.0,
                "DitherMethod": "auto",
                "Encoder": "av_aac",
                "Gain": 0.0,
                "Mixdown": "stereo",
                "NormalizeMixLevel": false,
                "PresetEncoder": "copy",
                "Quality": -3.0,
                "Samplerate": 0,
                "Track": 0
            }
        ],
        "CopyMask": [
            "copy:mp3",
            "copy:aac",
            "copy:ac3",
            "copy:dts",
            "copy:dtshd",
            "copy:eac3",
            "copy:flac",
            "copy:truehd"
        ],
        "FallbackEncoder": "av_aac"
    },
    "Destination": {
        "AlignAVStart": false,
        "ChapterList": [
            {
                "Name": ""
            }
        ],
        "ChapterMarkers": false,
        "File": "/media/HTPC/MediaCenter/_inWork/Serie/Mord mit Aussicht/Season 01/Mord mit Aussicht - S01E03 - Fingerübungen - H.264.mkv",
        "InlineParameterSets": false,
        "Mp4Options": {
            "IpodAtom": false,
            "Mp4Optimize": false
        },
        "Mux": "mkv"
    },
    "Filters": {
        "FilterList": [
            {
                "ID": 3,
                "Settings": {
                    "block-height": "16",
                    "block-thresh": "40",
                    "block-width": "16",
                    "filter-mode": "2",
                    "mode": "3",
                    "motion-thresh": "1",
                    "spatial-metric": "2",
                    "spatial-thresh": "1"
                }
            },
            {
                "ID": 4,
                "Settings": {
                    "mode": "7"
                }
            },
            {
                "ID": 6,
                "Settings": {
                    "mode": 0
                }
            },
            {
                "ID": 11,
                "Settings": {
                    "crop-bottom": 4,
                    "crop-left": 4,
                    "crop-right": 0,
                    "crop-top": 4,
                    "height": 1072,
                    "width": 1916
                }
            }
        ]
    },
    "Metadata": {
        "Name": "Mord mit Aussicht Staffel 1.1"
    },
    "PAR": {
        "Den": 1,
        "Num": 1
    },
    "SequenceID": 0,
    "Source": {
        "Angle": 0,
        "Path": "/media/HTPC/MediaCenter/_inWork/Serie/Mord mit Aussicht/Season 01/Mord mit Aussicht - S01E03 - Fingerübungen.mkv",
        "Range": {
            "End": 1,
            "Start": 1,
            "Type": "chapter"
        },
        "Title": 1
    },
    "Subtitle": {
        "Search": {
            "Burn": true,
            "Default": false,
            "Enable": false,
            "Forced": false
        },
        "SubtitleList": []
    },
    "Video": {
        "Bitrate": 8000,
        "ColorMatrixCode": 0,
        "Encoder": "x264",
        "Level": "auto",
        "Options": "",
        "Preset": "slower",
        "Profile": "auto",
        "QSV": {
            "AsyncDepth": 4,
            "Decode": false
        },
        "Tune": "film",
        "Turbo": false,
        "TwoPass": true
    }
}
[10:31:52] CPU: Intel(R) Core(TM) i7-2600 CPU @ 3.40GHz
[10:31:52]  - Intel microarchitecture Sandy Bridge
[10:31:52]  - logical processor count: 8
[10:31:52] hb_scan: path=/media/HTPC/MediaCenter/_inWork/Serie/Mord mit Aussicht/Season 01/Mord mit Aussicht - S01E03 - Fingerübungen.mkv, title_index=1
udfread ERROR: ECMA 167 Volume Recognition failed
disc.c:323: failed opening UDF image /media/HTPC/MediaCenter/_inWork/Serie/Mord mit Aussicht/Season 01/Mord mit Aussicht - S01E03 - Fingerübungen.mkv
disc.c:424: error opening file BDMV/index.bdmv
disc.c:424: error opening file BDMV/BACKUP/index.bdmv
[10:31:53] bd: not a bd - trying as a stream/file instead
libdvdnav: Using dvdnav version 5.0.3
libdvdread: Encrypted DVD support unavailable.
libdvdread:DVDOpenFileUDF:UDFFindFile /VIDEO_TS/VIDEO_TS.IFO failed
libdvdread:DVDOpenFileUDF:UDFFindFile /VIDEO_TS/VIDEO_TS.BUP failed
libdvdread: Can't open file VIDEO_TS.IFO.
libdvdnav: vm: failed to read VIDEO_TS.IFO
[10:31:53] dvd: not a dvd - trying as a stream/file instead
Input #0, matroska,webm, from '/media/HTPC/MediaCenter/_inWork/Serie/Mord mit Aussicht/Season 01/Mord mit Aussicht - S01E03 - Fingerübungen.mkv':
  Metadata:
    title           : Mord mit Aussicht Staffel 1.1
    encoder         : libmakemkv v1.12.2 (1.3.5/1.4.7) win(x64-release)
    creation_time   : 2018-06-10T13:08:20.000000Z
  Duration: 00:47:36.04, start: 0.000000, bitrate: 18543 kb/s
    Stream #0:0(eng): Video: h264 (High), yuv420p(tv, bt709, top first), 1920x1080 [SAR 1:1 DAR 16:9], 25 fps, 25 tbr, 1k tbn, 50 tbc
    Metadata:
      BPS-eng         : 17001459
      DURATION-eng    : 00:47:36.040000000
      NUMBER_OF_FRAMES-eng: 142802
      NUMBER_OF_BYTES-eng: 6069605927
      SOURCE_ID-eng   : 001011
      _STATISTICS_WRITING_APP-eng: MakeMKV v1.12.2 win(x64-release)
      _STATISTICS_WRITING_DATE_UTC-eng: 2018-06-10 13:08:20
      _STATISTICS_TAGS-eng: BPS DURATION NUMBER_OF_FRAMES NUMBER_OF_BYTES SOURCE_ID
    Stream #0:1(ger): Audio: pcm_s16le, 48000 Hz, 2 channels, s16, 1536 kb/s (default)
    Metadata:
      title           : Stereo
      BPS-eng         : 1536000
      DURATION-eng    : 00:47:36.040000000
      NUMBER_OF_FRAMES-eng: 85682
      NUMBER_OF_BYTES-eng: 548359680
      SOURCE_ID-eng   : 001100
      _STATISTICS_WRITING_APP-eng: MakeMKV v1.12.2 win(x64-release)
      _STATISTICS_WRITING_DATE_UTC-eng: 2018-06-10 13:08:20
      _STATISTICS_TAGS-eng: BPS DURATION NUMBER_OF_FRAMES NUMBER_OF_BYTES SOURCE_ID
    Stream #0:2: Video: mjpeg, yuvj444p(pc, bt470bg/unknown/unknown), 640x360, 90k tbr, 90k tbn, 90k tbc
    Metadata:
      filename        : cover.jpg
      mimetype        : image/jpeg
[10:31:53] scan: decoding previews for title 1
[10:31:53] scan: audio 0x1: pcm_s16le, rate=48000Hz, bitrate=1536000 Deutsch (pcm_s16le) (2.0 ch)
[10:31:54] scan: 10 previews, 1920x1080, 25,000 fps, autocrop = 4/4/4/0, aspect 16:9, PAR 1:1
[10:31:54] libhb: scan thread found 1 valid title(s)
[10:31:54] starting job
[10:31:54] decomb filter thread started for segment 0
[10:31:54] decomb filter thread started for segment 1
[10:31:54] decomb filter thread started for segment 2
[10:31:54] decomb filter thread started for segment 3
[10:31:54] decomb filter thread started for segment 4
[10:31:54] decomb filter thread started for segment 6
[10:31:54] decomb filter thread started for segment 5
[10:31:54] mask erode thread started for segment 1
[10:31:54] mask erode thread started for segment 3
[10:31:54] decomb check thread started for segment 6
[10:31:54] mask filter thread started for segment 7
[10:31:54] decomb check thread started for segment 7
[10:31:54] decomb check thread started for segment 2
[10:31:54] mask dilate thread started for segment 0
[10:31:54] decomb check thread started for segment 3
[10:31:54] decomb check thread started for segment 4
[10:31:54] mask dilate thread started for segment 1
[10:31:54] mask erode thread started for segment 4
[10:31:54] decomb check thread started for segment 5
[10:31:54] mask filter thread started for segment 5
[10:31:54] mask filter thread started for segment 6
[10:31:54] mask dilate thread started for segment 5
[10:31:54] mask dilate thread started for segment 6
[10:31:54] mask erode thread started for segment 6
[10:31:54] decomb check thread started for segment 0
[10:31:54] mask filter thread started for segment 1
[10:31:54] mask dilate thread started for segment 4
[10:31:54] decomb check thread started for segment 1
[10:31:54] yadif thread started for segment 0
[10:31:54] yadif thread started for segment 1
[10:31:54] mask erode thread started for segment 0
[10:31:54] mask filter thread started for segment 3
[10:31:54] yadif thread started for segment 5
[10:31:54] mask erode thread started for segment 5
[10:31:54] yadif thread started for segment 2
[10:31:54] decomb filter thread started for segment 7
[10:31:54] mask dilate thread started for segment 3
[10:31:54] mask filter thread started for segment 0
[10:31:54] mask filter thread started for segment 2
[10:31:54] yadif thread started for segment 7
[10:31:54] mask dilate thread started for segment 2
[10:31:54] job configuration:
[10:31:54]  * source
[10:31:54]    + /media/HTPC/MediaCenter/_inWork/Serie/Mord mit Aussicht/Season 01/Mord mit Aussicht - S01E03 - Fingerübungen.mkv
[10:31:54]    + title 1, chapter(s) 1 to 1
[10:31:54]    + container: matroska,webm
[10:31:54]    + data rate: 18543 kbps
[10:31:54]  * destination
[10:31:54]    + /media/HTPC/MediaCenter/_inWork/Serie/Mord mit Aussicht/Season 01/Mord mit Aussicht - S01E03 - Fingerübungen - H.264.mkv
[10:31:54]    + container: Matroska (libavformat)
[10:31:54]  * video track
[10:31:54]    + decoder: h264
[10:31:54]    + filters
[10:31:54]      + Comb Detect (mode=3:spatial-metric=2:motion-thresh=1:spatial-thresh=1:filter-mode=2:block-thresh=40:block-width=16:block-height=16)
[10:31:54]      + Decomb (mode=39)
[10:31:54]      + Framerate Shaper (mode=0)
[10:31:54]        + frame rate: same as source (around 25,000 fps)
[10:31:54]      + Crop and Scale (width=1916:height=1072:crop-top=4:crop-bottom=4:crop-left=4:crop-right=0)
[10:31:54]        + source: 1920 * 1080, crop (4/4/4/0): 1916 * 1072, scale: 1916 * 1072
[10:31:54]    + Output geometry
[10:31:54]      + storage dimensions: 1916 x 1072
[10:31:54]      + pixel aspect ratio: 1 : 1
[10:31:54]      + display dimensions: 1916 x 1072
[10:31:54]    + encoder: H.264 (libx264)
[10:31:54]      + preset:  slower
[10:31:54]      + tune:    film
[10:31:54]      + profile: auto
[10:31:54]      + level:   auto
[10:31:54]      + bitrate: 8000 kbps, pass: 1
[10:31:54]  * audio track 1
[10:31:54]    + decoder: Deutsch (pcm_s16le) (2.0 ch) (track 1, id 0x1)
[10:31:54]      + bitrate: 1536 kbps, samplerate: 48000 Hz
[10:31:54]    + mixdown: Stereo
[10:31:54]    + encoder: AAC (libavcodec)
[10:31:54]      + bitrate: 160 kbps, samplerate: 48000 Hz
[10:31:54]  * audio track 2
[10:31:54]    + decoder: Deutsch (pcm_s16le) (2.0 ch) (track 1, id 0x1)
[10:31:54]      + bitrate: 1536 kbps, samplerate: 48000 Hz
[10:31:54]    + mixdown: Stereo
[10:31:54]    + encoder: AAC (libavcodec)
[10:31:54]      + bitrate: 160 kbps, samplerate: 48000 Hz
[10:31:54] yadif thread started for segment 4
[10:31:54] yadif thread started for segment 6
[10:31:54] yadif thread started for segment 3
[10:31:54] mask dilate thread started for segment 7
[10:31:54] mask filter thread started for segment 4
[10:31:54] mask erode thread started for segment 2
[10:31:54] mask erode thread started for segment 7
[10:31:54] sync: expecting 71401 video frames
[10:31:54] encavcodecaInit: Unknown avcodec option stereo_mode
[10:31:54] encavcodecaInit: Unknown avcodec option stereo_mode
[10:31:54] encx264: encoding at average bitrate 8000
[10:31:54] encx264: unparsed options: ref=8:b-adapt=2:direct=auto:deblock=-1,-1:analyse=all:me=umh:subme=9:trellis=2:psy-rd=1,0,15:rc-lookahead=60
x264 [info]: using SAR=1/1
x264 [info]: using cpu capabilities: MMX2 SSE2Fast SSSE3 SSE4.2 AVX
x264 [info]: profile High, level 5.0
[10:31:55] sync: first pts video is 0
[10:31:55] sync: Chapter 1 at frame 1 time 0
[10:31:55] sync: first pts audio 0x1 is 0
[10:31:55] sync: first pts audio 0x1 is 0
[13:35:47] reader: done. 1 scr changes
[13:36:12] work: average encoding speed for job is 6,466815 fps
[13:36:12] comb detect: heavy 10228 | light 14742 | uncombed 46431 | total 71401
[13:36:12] decomb: deinterlaced 10228 | blended 14742 | unfiltered 46431 | total 71401
[13:36:12] vfr: lost time: 0 (0 frames)
[13:36:12] vfr: gained time: 0 (0 frames) (0 not accounted for)
[13:36:13] pcm_s16le-decoder done: 85682 frames, 0 decoder errors
[13:36:13] pcm_s16le-decoder done: 85682 frames, 0 decoder errors
[13:36:13] h264-decoder done: 71401 frames, 0 decoder errors
[13:36:13] sync: got 71401 frames, 71401 expected
[13:36:13] sync: framerate min 25,000 fps, max 25,000 fps, avg 25,000 fps
x264 [info]: frame I:634   Avg QP:16,31  size:214857
x264 [info]: frame P:20100 Avg QP:18,34  size: 71015
x264 [info]: frame B:50667 Avg QP:20,36  size: 25179
x264 [info]: consecutive B-frames:  1,6%  3,5% 23,6% 71,3%
x264 [info]: mb I  I16..4:  5,9% 76,8% 17,3%
x264 [info]: mb P  I16..4:  2,8% 22,6%  1,8%  P16..4: 44,0% 16,1%  8,4%  0,2%  0,1%    skip: 4,0%
x264 [info]: mb B  I16..4:  0,5%  3,2%  0,2%  B16..8: 36,1%  6,9%  1,4%  direct:13,3%  skip:38,4%  L0:42,7% L1:48,1% BI: 9,1%
x264 [info]: final ratefactor: 18,18
x264 [info]: 8x8 transform intra:82,5% inter:57,3%
x264 [info]: direct mvs  spatial:100,0% temporal:0,0%
x264 [info]: coded y,uvDC,uvAC intra: 85,5% 64,3% 37,1% inter: 31,9% 27,7% 1,6%
x264 [info]: i16 v,h,dc,p: 26% 21% 16% 38%
x264 [info]: i8 v,h,dc,ddl,ddr,vr,hd,vl,hu: 13% 11% 10%  7% 11% 12% 12% 12% 14%
x264 [info]: i4 v,h,dc,ddl,ddr,vr,hd,vl,hu: 12% 11%  7%  8% 13% 14% 13% 10% 12%
x264 [info]: i8c dc,h,v,p: 39% 27% 23% 11%
x264 [info]: Weighted P-Frames: Y:0,8% UV:0,2%
x264 [info]: ref P L0: 48,6% 10,4% 19,7%  5,8%  5,7%  3,6%  4,0%  2,3%  0,0%  0,0%
x264 [info]: ref B L0: 85,7%  8,1%  2,9%  1,3%  0,9%  0,6%  0,4%
x264 [info]: ref B L1: 97,7%  2,3%
x264 [info]: kb/s:7953,38
[13:36:13] starting job
[13:36:13] decomb filter thread started for segment 0
[13:36:13] decomb filter thread started for segment 3
[13:36:13] decomb filter thread started for segment 1
[13:36:13] decomb filter thread started for segment 2
[13:36:13] decomb filter thread started for segment 4
[13:36:13] decomb filter thread started for segment 5
[13:36:13] decomb filter thread started for segment 7
[13:36:13] decomb filter thread started for segment 6
[13:36:13] decomb check thread started for segment 0
[13:36:13] decomb check thread started for segment 3
[13:36:13] mask erode thread started for segment 0
[13:36:13] mask erode thread started for segment 2
[13:36:13] mask dilate thread started for segment 1
[13:36:13] decomb check thread started for segment 6
[13:36:13] decomb check thread started for segment 4
[13:36:13] decomb check thread started for segment 1
[13:36:13] mask dilate thread started for segment 4
[13:36:13] yadif thread started for segment 0
[13:36:13] mask filter thread started for segment 4
[13:36:13] yadif thread started for segment 1
[13:36:13] yadif thread started for segment 4
[13:36:13] mask filter thread started for segment 5
[13:36:13] yadif thread started for segment 2
[13:36:13] mask filter thread started for segment 1
[13:36:13] mask filter thread started for segment 0
[13:36:13] mask erode thread started for segment 3
[13:36:13] mask erode thread started for segment 5
[13:36:13] mask dilate thread started for segment 7
[13:36:13] mask filter thread started for segment 3
[13:36:13] mask filter thread started for segment 2
[13:36:13] decomb check thread started for segment 2
[13:36:13] decomb check thread started for segment 5
[13:36:13] mask erode thread started for segment 4
[13:36:13] mask dilate thread started for segment 2
[13:36:13] mask dilate thread started for segment 3
[13:36:13] decomb check thread started for segment 7
[13:36:13] mask filter thread started for segment 7
[13:36:13] mask dilate thread started for segment 5
[13:36:13] mask dilate thread started for segment 6
[13:36:13] mask erode thread started for segment 1
[13:36:13] job configuration:
[13:36:13]  * source
[13:36:13]    + /media/HTPC/MediaCenter/_inWork/Serie/Mord mit Aussicht/Season 01/Mord mit Aussicht - S01E03 - Fingerübungen.mkv
[13:36:13]    + title 1, chapter(s) 1 to 1
[13:36:13]    + container: matroska,webm
[13:36:13]    + data rate: 18543 kbps
[13:36:13]  * destination
[13:36:13]    + /media/HTPC/MediaCenter/_inWork/Serie/Mord mit Aussicht/Season 01/Mord mit Aussicht - S01E03 - Fingerübungen - H.264.mkv
[13:36:13]    + container: Matroska (libavformat)
[13:36:13]  * video track
[13:36:13]    + decoder: h264
[13:36:13]    + filters
[13:36:13]      + Comb Detect (mode=3:spatial-metric=2:motion-thresh=1:spatial-thresh=1:filter-mode=2:block-thresh=40:block-width=16:block-height=16)
[13:36:13]      + Decomb (mode=39)
[13:36:13]      + Framerate Shaper (mode=0)
[13:36:13]        + frame rate: same as source (around 25,000 fps)
[13:36:13]      + Crop and Scale (width=1916:height=1072:crop-top=4:crop-bottom=4:crop-left=4:crop-right=0)
[13:36:13]        + source: 1920 * 1080, crop (4/4/4/0): 1916 * 1072, scale: 1916 * 1072
[13:36:13]    + Output geometry
[13:36:13]      + storage dimensions: 1916 x 1072
[13:36:13]      + pixel aspect ratio: 1 : 1
[13:36:13]      + display dimensions: 1916 x 1072
[13:36:13]    + encoder: H.264 (libx264)
[13:36:13]      + preset:  slower
[13:36:13]      + tune:    film
[13:36:13]      + profile: auto
[13:36:13]      + level:   auto
[13:36:13]      + bitrate: 8000 kbps, pass: 2
[13:36:13]  * audio track 1
[13:36:13]    + decoder: Deutsch (pcm_s16le) (2.0 ch) (track 1, id 0x1)
[13:36:13]      + bitrate: 1536 kbps, samplerate: 48000 Hz
[13:36:13]    + mixdown: Stereo
[13:36:13]    + encoder: AAC (libavcodec)
[13:36:13]      + bitrate: 160 kbps, samplerate: 48000 Hz
[13:36:13]  * audio track 2
[13:36:13]    + decoder: Deutsch (pcm_s16le) (2.0 ch) (track 1, id 0x1)
[13:36:13]      + bitrate: 1536 kbps, samplerate: 48000 Hz
[13:36:13]    + mixdown: Stereo
[13:36:13]    + encoder: AAC (libavcodec)
[13:36:13]      + bitrate: 160 kbps, samplerate: 48000 Hz
[13:36:13] yadif thread started for segment 6
[13:36:13] mask filter thread started for segment 6
[13:36:13] mask erode thread started for segment 6
[13:36:13] mask erode thread started for segment 7
[13:36:13] mask dilate thread started for segment 0
[13:36:13] yadif thread started for segment 3
[13:36:13] yadif thread started for segment 5
[13:36:13] yadif thread started for segment 7
[13:36:13] sync: expecting 71401 video frames
[13:36:13] encavcodecaInit: Unknown avcodec option stereo_mode
[13:36:13] encavcodecaInit: Unknown avcodec option stereo_mode
[13:36:13] encx264: encoding at average bitrate 8000
[13:36:13] encx264: unparsed options: ref=8:b-adapt=2:direct=auto:deblock=-1,-1:analyse=all:me=umh:subme=9:trellis=2:psy-rd=1,0,15:rc-lookahead=60
x264 [info]: using SAR=1/1
x264 [info]: using cpu capabilities: MMX2 SSE2Fast SSSE3 SSE4.2 AVX
x264 [info]: profile High, level 5.0
[13:36:16] sync: first pts video is 0
[13:36:16] sync: Chapter 1 at frame 1 time 0
[13:36:16] sync: first pts audio 0x1 is 0
[13:36:16] sync: first pts audio 0x1 is 0
[16:32:32] reader: done. 1 scr changes
[16:32:48] work: average encoding speed for job is 6,746789 fps
[16:32:48] comb detect: heavy 10228 | light 14742 | uncombed 46431 | total 71401
[16:32:48] decomb: deinterlaced 10228 | blended 14742 | unfiltered 46431 | total 71401
[16:32:48] vfr: lost time: 0 (0 frames)
[16:32:48] vfr: gained time: 0 (0 frames) (0 not accounted for)
[16:32:48] pcm_s16le-decoder done: 85682 frames, 0 decoder errors
[16:32:48] pcm_s16le-decoder done: 85682 frames, 0 decoder errors
[16:32:48] h264-decoder done: 71401 frames, 0 decoder errors
[16:32:48] sync: got 71401 frames, 71401 expected
[16:32:48] sync: framerate min 25,000 fps, max 25,000 fps, avg 25,000 fps
x264 [info]: frame I:634   Avg QP:16,69  size:202185
x264 [info]: frame P:20100 Avg QP:18,37  size: 70105
x264 [info]: frame B:50667 Avg QP:20,39  size: 26016
x264 [info]: consecutive B-frames:  1,6%  3,5% 23,6% 71,3%
x264 [info]: mb I  I16..4:  4,3% 80,4% 15,3%
x264 [info]: mb P  I16..4:  2,8% 23,1%  1,7%  P16..4: 43,8% 15,6%  8,4%  0,1%  0,0%    skip: 4,4%
x264 [info]: mb B  I16..4:  0,5%  3,5%  0,2%  B16..8: 35,6%  6,9%  1,4%  direct:13,4%  skip:38,4%  L0:42,5% L1:48,1% BI: 9,4%
x264 [info]: 8x8 transform intra:83,6% inter:57,4%
x264 [info]: direct mvs  spatial:99,4% temporal:0,6%
x264 [info]: coded y,uvDC,uvAC intra: 86,3% 64,8% 36,7% inter: 32,1% 27,6% 1,3%
x264 [info]: i16 v,h,dc,p: 26% 21% 15% 38%
x264 [info]: i8 v,h,dc,ddl,ddr,vr,hd,vl,hu: 13% 11%  9%  7% 11% 12% 12% 12% 14%
x264 [info]: i4 v,h,dc,ddl,ddr,vr,hd,vl,hu: 11% 10%  6%  8% 14% 14% 14% 10% 12%
x264 [info]: i8c dc,h,v,p: 38% 27% 23% 12%
x264 [info]: Weighted P-Frames: Y:0,8% UV:0,2%
x264 [info]: ref P L0: 50,8%  8,6% 16,8%  8,1%  5,8%  4,4%  3,4%  2,1%  0,0%  0,0%
x264 [info]: ref B L0: 85,1%  8,8%  2,9%  1,4%  0,9%  0,6%  0,3%
x264 [info]: ref B L1: 97,6%  2,4%
x264 [info]: kb/s:7998,32
[16:32:48] mux: track 0, 71401 frames, 2855415752 bytes, 7998,14 kbps, fifo 1024
[16:32:48] mux: track 1, 133877 frames, 57335966 bytes, 160,60 kbps, fifo 2048
[16:32:48] mux: track 2, 133877 frames, 57335966 bytes, 160,60 kbps, fifo 2048
[16:32:48] libhb: work result = 0
[16:32:49] gtkgui: Custom Preset: /General/BD
[16:32:49] 1 job(s) to process
[16:32:49] json job:
{
    "Audio": {
        "AudioList": [
            {
                "Bitrate": 160,
                "CompressionLevel": -1.0,
                "DRC": 0.0,
                "DitherMethod": "auto",
                "Encoder": "av_aac",
                "Gain": 0.0,
                "Mixdown": "stereo",
                "NormalizeMixLevel": false,
                "PresetEncoder": "av_aac",
                "Quality": -3.0,
                "Samplerate": 0,
                "Track": 0
            },
            {
                "Bitrate": 160,
                "CompressionLevel": -1.0,
                "DRC": 0.0,
                "DitherMethod": "auto",
                "Encoder": "av_aac",
                "Gain": 0.0,
                "Mixdown": "stereo",
                "NormalizeMixLevel": false,
                "PresetEncoder": "copy",
                "Quality": -3.0,
                "Samplerate": 0,
                "Track": 0
            }
        ],
        "CopyMask": [
            "copy:mp3",
            "copy:aac",
            "copy:ac3",
            "copy:dts",
            "copy:dtshd",
            "copy:eac3",
            "copy:flac",
            "copy:truehd"
        ],
        "FallbackEncoder": "av_aac"
    },
    "Destination": {
        "AlignAVStart": false,
        "ChapterList": [
            {
                "Name": ""
            }
        ],
        "ChapterMarkers": false,
        "File": "/media/HTPC/MediaCenter/_inWork/Serie/Mord mit Aussicht/Season 01/Mord mit Aussicht - S01E04 - Marienfeuer - H.264.mkv",
        "InlineParameterSets": false,
        "Mp4Options": {
            "IpodAtom": false,
            "Mp4Optimize": false
        },
        "Mux": "mkv"
    },
    "Filters": {
        "FilterList": [
            {
                "ID": 3,
                "Settings": {
                    "block-height": "16",
                    "block-thresh": "40",
                    "block-width": "16",
                    "filter-mode": "2",
                    "mode": "3",
                    "motion-thresh": "1",
                    "spatial-metric": "2",
                    "spatial-thresh": "1"
                }
            },
            {
                "ID": 4,
                "Settings": {
                    "mode": "7"
                }
            },
            {
                "ID": 6,
                "Settings": {
                    "mode": 0
                }
            },
            {
                "ID": 11,
                "Settings": {
                    "crop-bottom": 4,
                    "crop-left": 0,
                    "crop-right": 0,
                    "crop-top": 4,
                    "height": 1072,
                    "width": 1920
                }
            }
        ]
    },
    "Metadata": {
        "Name": "Mord mit Aussicht Staffel 1.1"
    },
    "PAR": {
        "Den": 1,
        "Num": 1
    },
    "SequenceID": 0,
    "Source": {
        "Angle": 0,
        "Path": "/media/HTPC/MediaCenter/_inWork/Serie/Mord mit Aussicht/Season 01/Mord mit Aussicht - S01E04 - Marienfeuer.mkv",
        "Range": {
            "End": 1,
            "Start": 1,
            "Type": "chapter"
        },
        "Title": 1
    },
    "Subtitle": {
        "Search": {
            "Burn": true,
            "Default": false,
            "Enable": false,
            "Forced": false
        },
        "SubtitleList": []
    },
    "Video": {
        "Bitrate": 8000,
        "ColorMatrixCode": 0,
        "Encoder": "x264",
        "Level": "auto",
        "Options": "",
        "Preset": "slower",
        "Profile": "auto",
        "QSV": {
            "AsyncDepth": 4,
            "Decode": false
        },
        "Tune": "film",
        "Turbo": false,
        "TwoPass": true
    }
}
[16:32:49] CPU: Intel(R) Core(TM) i7-2600 CPU @ 3.40GHz
[16:32:49]  - Intel microarchitecture Sandy Bridge
[16:32:49]  - logical processor count: 8
[16:32:49] hb_scan: path=/media/HTPC/MediaCenter/_inWork/Serie/Mord mit Aussicht/Season 01/Mord mit Aussicht - S01E04 - Marienfeuer.mkv, title_index=1
udfread ERROR: ECMA 167 Volume Recognition failed
disc.c:323: failed opening UDF image /media/HTPC/MediaCenter/_inWork/Serie/Mord mit Aussicht/Season 01/Mord mit Aussicht - S01E04 - Marienfeuer.mkv
disc.c:424: error opening file BDMV/index.bdmv
disc.c:424: error opening file BDMV/BACKUP/index.bdmv
[16:32:49] bd: not a bd - trying as a stream/file instead
libdvdnav: Using dvdnav version 5.0.3
libdvdread: Encrypted DVD support unavailable.
libdvdread:DVDOpenFileUDF:UDFFindFile /VIDEO_TS/VIDEO_TS.IFO failed
libdvdread:DVDOpenFileUDF:UDFFindFile /VIDEO_TS/VIDEO_TS.BUP failed
libdvdread: Can't open file VIDEO_TS.IFO.
libdvdnav: vm: failed to read VIDEO_TS.IFO
[16:32:49] dvd: not a dvd - trying as a stream/file instead
Input #0, matroska,webm, from '/media/HTPC/MediaCenter/_inWork/Serie/Mord mit Aussicht/Season 01/Mord mit Aussicht - S01E04 - Marienfeuer.mkv':
  Metadata:
    title           : Mord mit Aussicht Staffel 1.1
    encoder         : libmakemkv v1.12.2 (1.3.5/1.4.7) win(x64-release)
    creation_time   : 2018-06-10T13:26:50.000000Z
  Duration: 00:47:33.04, start: 0.000000, bitrate: 18540 kb/s
    Stream #0:0(eng): Video: h264 (High), yuv420p(tv, bt709, top first), 1920x1080 [SAR 1:1 DAR 16:9], 25 fps, 25 tbr, 1k tbn, 50 tbc
    Metadata:
      BPS-eng         : 16998608
      DURATION-eng    : 00:47:33.040000000
      NUMBER_OF_FRAMES-eng: 142652
      NUMBER_OF_BYTES-eng: 6062213636
      SOURCE_ID-eng   : 001011
      _STATISTICS_WRITING_APP-eng: MakeMKV v1.12.2 win(x64-release)
      _STATISTICS_WRITING_DATE_UTC-eng: 2018-06-10 13:26:50
      _STATISTICS_TAGS-eng: BPS DURATION NUMBER_OF_FRAMES NUMBER_OF_BYTES SOURCE_ID
    Stream #0:1(ger): Audio: pcm_s16le, 48000 Hz, 2 channels, s16, 1536 kb/s (default)
    Metadata:
      title           : Stereo
      BPS-eng         : 1536000
      DURATION-eng    : 00:47:33.040000000
      NUMBER_OF_FRAMES-eng: 85592
      NUMBER_OF_BYTES-eng: 547783680
      SOURCE_ID-eng   : 001100
      _STATISTICS_WRITING_APP-eng: MakeMKV v1.12.2 win(x64-release)
      _STATISTICS_WRITING_DATE_UTC-eng: 2018-06-10 13:26:50
      _STATISTICS_TAGS-eng: BPS DURATION NUMBER_OF_FRAMES NUMBER_OF_BYTES SOURCE_ID
    Stream #0:2: Video: mjpeg, yuvj444p(pc, bt470bg/unknown/unknown), 640x360, 90k tbr, 90k tbn, 90k tbc
    Metadata:
      filename        : cover.jpg
      mimetype        : image/jpeg
[16:32:49] scan: decoding previews for title 1
[16:32:49] scan: audio 0x1: pcm_s16le, rate=48000Hz, bitrate=1536000 Deutsch (pcm_s16le) (2.0 ch)
[16:32:50] scan: 10 previews, 1920x1080, 25,000 fps, autocrop = 4/4/0/0, aspect 16:9, PAR 1:1
[16:32:50] libhb: scan thread found 1 valid title(s)
[16:32:50] starting job
[16:32:50] decomb filter thread started for segment 0
[16:32:50] decomb filter thread started for segment 1
[16:32:50] decomb filter thread started for segment 2
[16:32:50] decomb filter thread started for segment 3
[16:32:50] decomb filter thread started for segment 4
[16:32:50] decomb filter thread started for segment 5
[16:32:50] decomb filter thread started for segment 7
[16:32:50] decomb check thread started for segment 1
[16:32:50] decomb check thread started for segment 2
[16:32:50] decomb check thread started for segment 3
[16:32:50] decomb check thread started for segment 4
[16:32:50] decomb check thread started for segment 5
[16:32:50] decomb filter thread started for segment 6
[16:32:50] mask filter thread started for segment 5
[16:32:50] mask erode thread started for segment 5
[16:32:50] mask erode thread started for segment 1
[16:32:50] mask filter thread started for segment 7
[16:32:50] mask filter thread started for segment 0
[16:32:50] decomb check thread started for segment 7
[16:32:50] mask filter thread started for segment 2
[16:32:50] mask erode thread started for segment 2
[16:32:50] mask dilate thread started for segment 7
[16:32:50] mask erode thread started for segment 6
[16:32:50] mask erode thread started for segment 4
[16:32:50] mask filter thread started for segment 3
[16:32:50] mask filter thread started for segment 1
[16:32:50] mask filter thread started for segment 4
[16:32:50] mask erode thread started for segment 0
[16:32:50] mask dilate thread started for segment 1
[16:32:50] decomb check thread started for segment 0
[16:32:50] yadif thread started for segment 0
[16:32:50] job configuration:
[16:32:50] mask erode thread started for segment 3
[16:32:50]  * source
[16:32:50] mask erode thread started for segment 7
[16:32:50] yadif thread started for segment 7
[16:32:50] yadif thread started for segment 6
[16:32:50] mask filter thread started for segment 6
[16:32:50] mask dilate thread started for segment 0
[16:32:50] yadif thread started for segment 4
[16:32:50] yadif thread started for segment 2
[16:32:50] mask dilate thread started for segment 4
[16:32:50] mask dilate thread started for segment 5
[16:32:50]    + /media/HTPC/MediaCenter/_inWork/Serie/Mord mit Aussicht/Season 01/Mord mit Aussicht - S01E04 - Marienfeuer.mkv
[16:32:50]    + title 1, chapter(s) 1 to 1
[16:32:50]    + container: matroska,webm
[16:32:50]    + data rate: 18540 kbps
[16:32:50] decomb check thread started for segment 6
[16:32:50] yadif thread started for segment 1
[16:32:50] mask dilate thread started for segment 2
[16:32:50]  * destination
[16:32:50]    + /media/HTPC/MediaCenter/_inWork/Serie/Mord mit Aussicht/Season 01/Mord mit Aussicht - S01E04 - Marienfeuer - H.264.mkv
[16:32:50]    + container: Matroska (libavformat)
[16:32:50]  * video track
[16:32:50]    + decoder: h264
[16:32:50] yadif thread started for segment 3
[16:32:50] mask dilate thread started for segment 3
[16:32:50]    + filters
[16:32:50]      + Comb Detect (mode=3:spatial-metric=2:motion-thresh=1:spatial-thresh=1:filter-mode=2:block-thresh=40:block-width=16:block-height=16)
[16:32:50]      + Decomb (mode=39)
[16:32:50]      + Framerate Shaper (mode=0)
[16:32:50]        + frame rate: same as source (around 25,000 fps)
[16:32:50]      + Crop and Scale (width=1920:height=1072:crop-top=4:crop-bottom=4:crop-left=0:crop-right=0)
[16:32:50]        + source: 1920 * 1080, crop (4/4/0/0): 1920 * 1072, scale: 1920 * 1072
[16:32:50]    + Output geometry
[16:32:50]      + storage dimensions: 1920 x 1072
[16:32:50]      + pixel aspect ratio: 1 : 1
[16:32:50]      + display dimensions: 1920 x 1072
[16:32:50]    + encoder: H.264 (libx264)
[16:32:50]      + preset:  slower
[16:32:50]      + tune:    film
[16:32:50]      + profile: auto
[16:32:50]      + level:   auto
[16:32:50]      + bitrate: 8000 kbps, pass: 1
[16:32:50]  * audio track 1
[16:32:50]    + decoder: Deutsch (pcm_s16le) (2.0 ch) (track 1, id 0x1)
[16:32:50]      + bitrate: 1536 kbps, samplerate: 48000 Hz
[16:32:50]    + mixdown: Stereo
[16:32:50]    + encoder: AAC (libavcodec)
[16:32:50]      + bitrate: 160 kbps, samplerate: 48000 Hz
[16:32:50]  * audio track 2
[16:32:50]    + decoder: Deutsch (pcm_s16le) (2.0 ch) (track 1, id 0x1)
[16:32:50]      + bitrate: 1536 kbps, samplerate: 48000 Hz
[16:32:50]    + mixdown: Stereo
[16:32:50]    + encoder: AAC (libavcodec)
[16:32:50]      + bitrate: 160 kbps, samplerate: 48000 Hz
[16:32:50] mask dilate thread started for segment 6
[16:32:50] yadif thread started for segment 5
[16:32:50] sync: expecting 71326 video frames
[16:32:50] encavcodecaInit: Unknown avcodec option stereo_mode
[16:32:50] encavcodecaInit: Unknown avcodec option stereo_mode
[16:32:50] encx264: encoding at average bitrate 8000
[16:32:50] encx264: unparsed options: ref=8:b-adapt=2:direct=auto:deblock=-1,-1:analyse=all:me=umh:subme=9:trellis=2:psy-rd=1,0,15:rc-lookahead=60
x264 [info]: using SAR=1/1
x264 [info]: using cpu capabilities: MMX2 SSE2Fast SSSE3 SSE4.2 AVX
x264 [info]: profile High, level 5.0
[16:32:51] sync: first pts video is 0
[16:32:51] sync: Chapter 1 at frame 1 time 0
[16:32:51] sync: first pts audio 0x1 is 0
[16:32:51] sync: first pts audio 0x1 is 0
Last edited by Rodeo on Mon Jun 11, 2018 6:39 pm, edited 1 time in total.
Reason: Logs in [code][/code] blocks please

Post Reply