"You must first scan a source" - What's wrong?

HandBrake for Windows support
Forum rules
An Activity Log is required for support requests. Please read How-to get an activity log? for details on how and why this should be provided.
Post Reply
Colt3n
Posts: 3
Joined: Tue Nov 04, 2014 11:30 pm

"You must first scan a source" - What's wrong?

Post by Colt3n » Fri Nov 07, 2014 4:13 am

Hey guys,

I tried to upload my problem thread before but i got denied because of i didn't have the activity log posted in it so here it is:

Code: Select all

-i "D:\Capture\csgo 2014-11-07 05-01-04-299.avi" -t0  --min-duration=10 -v 
[05:02:07] hb_init: starting libhb thread
HandBrake 0.9.9 (2013052900) - MinGW x86_64 - http://handbrake.fr
4 CPUs detected
Opening D:\Capture\csgo 2014-11-07 05-01-04-299.avi...
[05:02:07] hb_scan: path=D:\Capture\csgo 2014-11-07 05-01-04-299.avi, title_index=0
libbluray/bdnav/index_parse.c:162: indx_parse(): error opening D:\Capture\csgo 2014-11-07 05-01-04-299.avi/BDMV/index.bdmv
libbluray/bdnav/index_parse.c:162: indx_parse(): error opening D:\Capture\csgo 2014-11-07 05-01-04-299.avi/BDMV/BACKUP/index.bdmv
libbluray/bluray.c:1725: nav_get_title_list(D:\Capture\csgo 2014-11-07 05-01-04-299.avi) failed (0000000001CD89E0)
[05:02:07] bd: not a bd - trying as a stream/file instead
libdvdnav: Using dvdnav version 4.1.3
libdvdread: Encrypted DVD support unavailable.
libdvdnav:DVDOpenFileUDF:UDFFindFile /VIDEO_TS/VIDEO_TS.IFO failed
libdvdnav:DVDOpenFileUDF:UDFFindFile /VIDEO_TS/VIDEO_TS.BUP failed
libdvdread: Can't open file VIDEO_TS.IFO.
libdvdnav: vm: failed to read VIDEO_TS.IFO
[05:02:07] dvd: not a dvd - trying as a stream/file instead
Input #0, avi, from 'D:\Capture\csgo 2014-11-07 05-01-04-299.avi':
  Metadata:
    encoder         : DxtoryCore ver2.0.0.128
    ISRC            : Video:RGB24 Audio0:Högtalare (Realtek High Definition Audio) Audio1:Mikrofon (Realtek High Definition Audio)
  Duration: 00:00:27.73, start: 0.000000, bitrate: 666642 kb/s
    Stream #0.0: Video: dxtory, yuv420p, 1280x720, 30 tbr, 30 tbn
    Stream #0.1: Audio: pcm_s16le, 48000 Hz, 2 channels, s16, 1536 kb/s
    Stream #0.2: Audio: pcm_s16le, 48000 Hz, 2 channels, s16, 1536 kb/s
[05:02:07] scan: decoding previews for title 1
[05:02:07] scan: audio 0x1: pcm_s16le, rate=48000Hz, bitrate=1536000 Unknown (pcm_s16le) (2.0 ch)
[05:02:07] scan: audio 0x2: pcm_s16le, rate=48000Hz, bitrate=1536000 Unknown (pcm_s16le) (2.0 ch)
[05:02:31] libhb: scan thread found 0 valid title(s)
No title found.
HandBrake has exited.
My problem is that i can't convert videos from avi to mkv files. Im using Dxtory screenrecording software for my gaming gaming scenarios that i want to upload on Youtube. When I'm trying to convert my videos a popup shows up and says "You must first scan a source". I've tried to scan a file and folder, doesn't work at all.

I had Handbrake for like 2 months ago and then it was just drag-and-drop and convert, easy as hell, but now it's impossible.

Can anyone please help me? Really love Handbrake, it has always worked for me. What can I do to fix this?

Cheers!
Last edited by TedJ on Fri Nov 07, 2014 12:51 pm, edited 1 time in total.
Reason: Activity logs should be enclosed in [code] blocks.

TedJ
Veteran User
Posts: 5388
Joined: Wed Feb 20, 2008 11:25 pm

Re: "You must first scan a source" - What's wrong?

Post by TedJ » Fri Nov 07, 2014 12:50 pm

This is where a forum search before posting can save a lot of time...

Colt3n
Posts: 3
Joined: Tue Nov 04, 2014 11:30 pm

Re: "You must first scan a source" - What's wrong?

Post by Colt3n » Sat Nov 08, 2014 1:29 am

So everyone who's using Dxtory aren't able to use Handbrake? What software should i use instead of this one then? Someone that's similar to Handbrake (easy-use and awesome product).

Or is there a fix out there for this?

TedJ
Veteran User
Posts: 5388
Joined: Wed Feb 20, 2008 11:25 pm

Re: "You must first scan a source" - What's wrong?

Post by TedJ » Sat Nov 08, 2014 1:50 am

The solution is in one of the threads linked to in the search, above.

mduell
Veteran User
Posts: 6670
Joined: Sat Apr 21, 2007 8:54 pm

Re: "You must first scan a source" - What's wrong?

Post by mduell » Sat Nov 08, 2014 4:16 am

tl;dr USE SOMETHING NEWER THAN THE YEAR+ OLD RELEASE

vid.user
Posts: 28
Joined: Tue Dec 18, 2012 9:36 am

Re: "You must first scan a source" - What's wrong?

Post by vid.user » Sat Nov 08, 2014 5:06 am

'Dxtory' captures work fine will a more modern Handbrake.

Code: Select all

HandBrake svn6468 (Nightly Build) - 64bit Version
OS: Microsoft Windows NT 6.2.9200.0 - 64bit
CPU: Intel(R) Core(TM) i3-2330M CPU @ 2.20GHz
Ram: 8104 MB, 
GPU Information:
  Intel(R) HD Graphics 3000 - 9.17.10.3347
Screen: 1366x768
Temp Dir: C:\Users\User\AppData\Local\Temp\
Install Dir: C:\Program Files\Handbrake
Data Dir: C:\Users\User\AppData\Roaming\HandBrake\HandBrake\0.0.0.6468

-------------------------------------------

CLI Query:  -i "C:\Video\Game 2014-11-08 12-55-30-582.avi" -t 1 --angle 1 -c 1 -o "C:\Video\test.mp4"  -f mp4  -w 1366 --crop 0:0:0:0 --loose-anamorphic  --modulus 2 -e x264 -q 20 --vfr -a 1 -E av_aac -6 dpl2 -R Auto -B 160 -D 0 --gain 0 --audio-fallback ac3 --markers="C:\Users\User\AppData\Local\Temp\test-1-chapters.csv" --encoder-preset=veryfast  --encoder-level="4.0"  --encoder-profile=main  --verbose=1

[13:00:23] hb_init: starting libhb thread
HandBrake svn6468 (2014102501) - MinGW x86_64 - http://handbrake.fr
4 CPUs detected
Opening C:\Video\Game 2014-11-08 12-55-30-582.avi...
[13:00:23] CPU: Intel(R) Core(TM) i3-2330M CPU @ 2.20GHz
[13:00:23]  - Intel microarchitecture Sandy Bridge
[13:00:23]  - logical processor count: 4
[13:00:23] Intel Quick Sync Video support: yes
[13:00:23]  - Intel Media SDK hardware: API 1.4 (minimum: 1.3)
[13:00:23]  - H.264 encoder: yes
[13:00:23]     - preferred implementation: hardware (any)
[13:00:23]  - H.265 encoder: no
[13:00:23] hb_scan: path=C:\Video\Game 2014-11-08 12-55-30-582.avi, title_index=1
libbluray/bdnav/index_parse.c:162: indx_parse(): error opening C:\Video\Game 2014-11-08 12-55-30-582.avi/BDMV/index.bdmv
libbluray/bdnav/index_parse.c:162: indx_parse(): error opening C:\Video\Game 2014-11-08 12-55-30-582.avi/BDMV/BACKUP/index.bdmv
libbluray/bluray.c:2182: nav_get_title_list(C:\Video\Game 2014-11-08 12-55-30-582.avi) failed
[13:00:23] bd: not a bd - trying as a stream/file instead
libdvdnav: Using dvdnav version 5.0.1
libdvdread: Encrypted DVD support unavailable.
libdvdread:DVDOpenFileUDF:UDFFindFile /VIDEO_TS/VIDEO_TS.IFO failed
libdvdread:DVDOpenFileUDF:UDFFindFile /VIDEO_TS/VIDEO_TS.BUP failed
libdvdread: Can't open file VIDEO_TS.IFO.
libdvdnav: vm: failed to read VIDEO_TS.IFO
[13:00:23] dvd: not a dvd - trying as a stream/file instead
Input #0, avi, from 'C:\Video\Game 2014-11-08 12-55-30-582.avi':
  Metadata:
    encoder         : DxtoryCore ver2.0.0.128
    ISRC            : Video:RGB24 Audio:Speakers (Realtek High Definition Audio)
  Duration: 00:00:56.00, start: 0.000000, bitrate: 397213 kb/s
    Stream #0.0: Video: dxtory, bgr24, 1366x768, 30 tbn
    Stream #0.1: Audio: pcm_s16le, 48000 Hz, 2 channels, s16, 1536 kb/s
[13:00:23] dxva2:DxFindVideoServiceConversion failed
[13:00:23] scan: decoding previews for title 1
Input #0, avi, from 'C:\Video\Game 2014-11-08 12-55-30-582.avi':
  Metadata:
    encoder         : DxtoryCore ver2.0.0.128
    ISRC            : Video:RGB24 Audio:Speakers (Realtek High Definition Audio)
  Duration: 00:00:56.00, start: 0.000000, bitrate: 397213 kb/s
    Stream #0.0: Video: dxtory, bgr24, 1366x768, 30 tbn
    Stream #0.1: Audio: pcm_s16le, 48000 Hz, 2 channels, s16, 1536 kb/s
[13:00:23] scan: audio 0x1: pcm_s16le, rate=48000Hz, bitrate=1536000 Unknown (pcm_s16le) (2.0 ch)
Scanning title 1 of 1, preview 10, 100.00 %[13:00:23] scan: 10 previews, 1366x768, 30.000 fps, autocrop = 0/0/0/0, aspect 16:9, PAR 1:1
[13:00:23] libhb: scan thread found 1 valid title(s)
+ title 1:
  + stream: C:\Video\Game 2014-11-08 12-55-30-582.avi
  + duration: 00:00:56
  + size: 1366x768, pixel aspect: 1/1, display aspect: 1.78, 30.000 fps
  + autocrop: 0/0/0/0
  + support opencl: no
  + support hwd: no
  + chapters:
    + 1: cells 0->0, 0 blocks, duration 00:00:56
  + audio tracks:
    + 1, Unknown (pcm_s16le) (2.0 ch) (iso639-2: und)
  + subtitle tracks:
Reading chapter markers from file C:\Users\User\AppData\Local\Temp\test-1-chapters.csv
[13:00:23] 1 job(s) to process
[13:00:23] starting job
[13:00:23] work: sanitizing track 1 mixdown Dolby Pro Logic II to Stereo
[13:00:23] sync: expecting 1680 video frames
[13:00:23] work: only 1 chapter, disabling chapter markers
[13:00:23] job configuration:
[13:00:23]  * source
[13:00:23]    + C:\Video\Game 2014-11-08 12-55-30-582.avi
[13:00:23]    + title 1, chapter(s) 1 to 1
[13:00:23]    + container: avi
[13:00:23]    + data rate: 397213 kbps
[13:00:23]  * destination
[13:00:23]    + C:\Video\test.mp4
[13:00:23]    + container: MPEG-4 (libavformat)
[13:00:23]  * video track
[13:00:23]    + decoder: dxtory
[13:00:23]    + filters
[13:00:23]      + Framerate Shaper (0:27000000:900000)
[13:00:23]        + frame rate: same as source (around 30.000 fps)
[13:00:23]      + Crop and Scale (1366:768:0:0:0:0)
[13:00:23]        + source: 1366 * 768, crop (0/0/0/0): 1366 * 768, scale: 1366 * 768
[13:00:23]    + loose anamorphic
[13:00:23]      + storage dimensions: 1366 * 768, mod 2
[13:00:23]      + pixel aspect ratio: 1 / 1
[13:00:23]      + display dimensions: 1366 * 768
[13:00:23]    + encoder: H.264 (libx264)
[13:00:23]      + preset:  veryfast
[13:00:23]      + profile: main
[13:00:23]      + level:   4.0
[13:00:23]      + quality: 20.00 (RF)
[13:00:23]  * audio track 1
[13:00:23]    + decoder: Unknown (pcm_s16le) (2.0 ch) (track 1, id 0x1)
[13:00:23]      + bitrate: 1536 kbps, samplerate: 48000 Hz
[13:00:23]    + mixdown: Stereo
[13:00:23]    + encoder: AAC (libavcodec)
[13:00:23]      + bitrate: 160 kbps, samplerate: 48000 Hz
[13:00:23] encx264: min-keyint: 30, keyint: 300
[13:00:23] encx264: encoding at constant RF 20.000000
[13:00:23] encx264: unparsed options: level=4.0:ref=1:8x8dct=0:weightp=1:subme=2:mixed-refs=0:trellis=0:vbv-bufsize=25000:vbv-maxrate=20000:rc-lookahead=10
x264 [info]: using SAR=1/1
x264 [info]: using cpu capabilities: MMX2 SSE2Fast SSSE3 SSE4.2 AVX
[13:00:23] reader: first SCR 0 id 0x0 DTS 0
x264 [info]: profile Main, level 4.0
[13:00:52] reader: done. 1 scr changes
[13:00:52] work: average encoding speed for job is 31.014669 fps
[13:00:52] sync: got 880 frames, 1680 expected
[13:00:52] render: lost time: 0 (0 frames)
[13:00:52] render: gained time: 0 (0 frames) (0 not accounted for)
[13:00:52] dxtory-decoder done: 880 frames, 800 decoder errors, 0 drops
x264 [info]: frame I:5     Avg QP:18.34  size:158859
x264 [info]: frame P:726   Avg QP:21.73  size: 56440
x264 [info]: frame B:149   Avg QP:25.56  size:  9601
x264 [info]: consecutive B-frames: 73.5% 11.6%  0.3% 14.5%
x264 [info]: mb I  I16..4: 11.9%  0.0% 88.1%
x264 [info]: mb P  I16..4:  6.7%  0.0% 10.8%  P16..4: 19.3% 32.7% 15.6%  0.0%  0.0%    skip:15.0%
x264 [info]: mb B  I16..4:  0.8%  0.0%  0.6%  B16..8: 10.0% 14.1%  1.5%  direct: 3.1%  skip:69.9%  L0:35.4% L1:38.8% BI:25.8%
x264 [info]: coded y,uvDC,uvAC intra: 75.2% 78.6% 56.4% inter: 45.6% 41.0% 9.2%
x264 [info]: i16 v,h,dc,p: 18% 63% 14%  5%
x264 [info]: i4 v,h,dc,ddl,ddr,vr,hd,vl,hu:  9% 39% 13%  5%  6%  3% 11%  3% 10%
x264 [info]: i8c dc,h,v,p: 36% 45% 11%  7%
x264 [info]: Weighted P-Frames: Y:0.0% UV:0.0%
x264 [info]: kb/s:6167.82
[13:00:53] pcm_s16le-decoder done: 0 frames, 0 decoder errors, 0 drops
[13:00:53] mux: track 0, 880 frames, 43200215 bytes, 6138.57 kbps, fifo 512
[13:00:53] mux: track 1, 2640 frames, 1127460 bytes, 160.21 kbps, fifo 2048
[13:00:53] libhb: work result = 0
Encode done!
HandBrake has exited.

Post Reply