Handbrake not compressing w/ OSX 10.9.3 now.

HandBrake for Mac support
Forum rules
An Activity Log is required for support requests. Please read How-to get an activity log? for details on how and why this should be provided.
Post Reply
magentawave
Posts: 19
Joined: Sun Jun 15, 2014 1:57 am

Handbrake not compressing w/ OSX 10.9.3 now.

Post by magentawave »

Handbrake 0.9.9 with OSX 10.9.3

Handbrake is doing weird stuff and I'm pretty sure it started after I updated OSX to 10.9.3.

I can take a 15mb MP4 or M4A file and try compressing and within a few seconds it says its already done and the video is now only 10 seconds long for a video that should be 1 minute and 20 seconds long.

Regardless of what file I choose to compress, Handbrake keeps saying: "File already exists. Do you want to overwrite XXXX.mp4?"

I have cleared the Queue, closed and restarted Handbrake, renamed the file and even changed the extension from MP4 to M4V and I still have the same problem.

This is a bummer because I really need to compress a ton of video files. :(

Any ideas for how I can get Handbrake working again?

Thanks

HERE IS THE ACTIVITY LOG INFORMATION:

[18:22:41] hb_init: starting libhb thread
[18:22:41] macgui: Handbrake Version: 0.9.9 x86_64 (2013051800)
[18:22:41] hb_init: starting libhb thread
[18:22:41] hb_init: starting libhb thread
[18:22:41] macgui: hbInstances path to this instance: /Applications/HandBrake.app
[18:22:41] macgui: hbInstance found instance pidnum:37786 at path: /Applications/HandBrake.app
[18:22:41] macgui: hbInstance MATCH FOUND, our pidnum is:37786
[18:22:41] macgui: Pid for this instance:37786
[18:22:41] macgui: HBQueueController : My Pidnum is 37786
[18:23:01] macgui: trying to open video_ts folder (parent directory chosen)
[18:23:01] macgui: scanning titles with a duration of 10 seconds or more
[18:23:01] hb_scan: path=/Users/MBP17/Desktop/IC-50-SampleOfContent.mp4, title_index=0
libbluray/bdnav/index_parse.c:162: indx_parse(): error opening /Users/MBP17/Desktop/IC-50-SampleOfContent.mp4/BDMV/index.bdmv
libbluray/bdnav/index_parse.c:162: indx_parse(): error opening /Users/MBP17/Desktop/IC-50-SampleOfContent.mp4/BDMV/BACKUP/index.bdmv
libbluray/bluray.c:1725: nav_get_title_list(/Users/MBP17/Desktop/IC-50-SampleOfContent.mp4) failed (0x102911600)
[18:23:01] bd: not a bd - trying as a stream/file instead
libdvdnav: Using dvdnav version 4.1.3
libdvdread: Encrypted DVD support unavailable.
libdvdnav:DVDOpenFileUDF:UDFFindFile /VIDEO_TS/VIDEO_TS.IFO failed
libdvdnav:DVDOpenFileUDF:UDFFindFile /VIDEO_TS/VIDEO_TS.BUP failed
libdvdread: Can't open file VIDEO_TS.IFO.
libdvdnav: vm: failed to read VIDEO_TS.IFO
[18:23:01] dvd: not a dvd - trying as a stream/file instead
Input #0, mov,mp4,m4a,3gp,3g2,mj2, from '/Users/MBP17/Desktop/IC-50-SampleOfContent.mp4':
Metadata:
major_brand : mp42
minor_version : 0
compatible_brands: mp42isomavc1
creation_time : 2014-06-15 01:03:15
encoder : HandBrake 0.9.9 2013051800
Duration: 00:00:01.53, start: 0.000000, bitrate: 267 kb/s
Stream #0.0(und): Video: h264 (Main), yuv420p, 640x320, 232 kb/s, 15 fps, 15 tbr, 90k tbn, 180k tbc
Metadata:
creation_time : 2014-06-15 01:03:15
Stream #0.1(und): Audio: aac, 44100 Hz, stereo, fltp, 36 kb/s
Metadata:
creation_time : 2014-06-15 01:03:15
[18:23:02] scan: decoding previews for title 1
[18:23:02] scan: audio 0x1: aac, rate=44100Hz, bitrate=36443 Unknown (aac) (2.0 ch)
[18:23:02] scan: 10 previews, 640x320, 15.000 fps, autocrop = 0/0/0/0, aspect 2.00:1, PAR 1:1
[18:23:02] libhb: scan thread found 1 valid title(s)
[18:23:02] macgui: showNewScan: This is a new source item scan
[18:23:13] macgui: Rip: Pending queue count is 0
Woodstock
Veteran User
Posts: 3789
Joined: Tue Aug 27, 2013 6:39 am

Re: Handbrake not compressing w/ OSX 10.9.3 now.

Post by Woodstock »

Have you tried this with one of the much more recent Nightly Build versions of Handbrake?

viewtopic.php?f=5&t=15901
magentawave
Posts: 19
Joined: Sun Jun 15, 2014 1:57 am

Re: Handbrake not compressing w/ OSX 10.9.3 now.

Post by magentawave »

Thank you. They don't explain on the nightly build page how to install them. I opened the dmg and was able to successfully compress a file but does opening and using that automatically update the version of Handbrake I had before that wasn't working?
TedJ
Veteran User
Posts: 5388
Joined: Wed Feb 20, 2008 11:25 pm

Re: Handbrake not compressing w/ OSX 10.9.3 now.

Post by TedJ »

You install a nightly build under OS X the same way as a stable release: Open the DMG and drag the HandBrake icon to your Applications folder, replacing the copy you have installed.
Post Reply