What's Resulting Audio for Apple 1080p60 Surround Preset?

Discuss encoding for devices and presets.
Forum rules
An Activity Log is required for support requests. Please read How-to get an activity log? for details on how and why this should be provided.
Post Reply
jobmans
Posts: 1
Joined: Mon Jan 23, 2023 9:29 pm

What's Resulting Audio for Apple 1080p60 Surround Preset?

Post by jobmans »

My source file is an mkv with 7.1 surround audio. When I use the Apple 1080p60 Surround setting the Finder says that the resulting file is just "stereo". When I play the file through my Apple TV is it actually surround or just stereo? I realize that I can change the audio output settings in Handbrake but I'm just trying to figure out if the default for this preset actually gives me surround audio.









HandBrake version (e.g., 1.0.0): 1.6.0




Operating system and version (e.g., Ubuntu 16.04 LTS, macOS 10.13 High Sierra, Windows 10 Creators Update): Ventura 13.0.1




[12:41:19] macgui: Handbrake Version: 1.6.0 (2022122800)
[12:41:19] Compile-time hardening features are enabled
[12:41:19] hb_init: starting libhb thread
[12:41:19] macgui: Error domain: NSCocoaErrorDomain
[12:41:19] macgui: Error code: 4
[12:41:19] macgui: Error description: The file doesn’t exist.
[12:41:19] macgui: Error debug description: Error Domain=NSCocoaErrorDomain Code=4 "The file doesn’t exist."
[12:41:23] macgui: ScanCore scanning titles with a duration of 10 seconds or more
[12:41:23] CPU:
[12:41:23] - logical processor count: 8
[12:41:23] hb_scan: path=/Volumes/Movies/Star Wars- The Rise of Skywalker_t00.mkv, title_index=0
udfread ERROR: ECMA 167 Volume Recognition failed
disc.c:333: failed opening UDF image /Volumes/Movies/Star Wars- The Rise of Skywalker_t00.mkv
disc.c:437: error opening file BDMV/index.bdmv
disc.c:437: error opening file BDMV/BACKUP/index.bdmv
[12:41:23] bd: not a bd - trying as a stream/file instead
libdvdread: DVDOpenFileUDF:UDFFindFile /VIDEO_TS/VIDEO_TS.IFO failed
libdvdnav: vm: vm: failed to read VIDEO_TS.IFO
[12:41:23] dvd: not a dvd - trying as a stream/file instead
Input #0, matroska,webm, from '/Volumes/Movies/Star Wars- The Rise of Skywalker_t00.mkv':
Metadata:
title : Star Wars: The Rise of Skywalker
encoder : libmakemkv v1.17.1 (1.3.10/1.5.2) darwin(arm64-release)
creation_time : 2023-01-23T19:10:20.000000Z
Duration: 02:21:53.00, start: 0.000000, bitrate: 39837 kb/s
Chapters:
Chapter #0:0: start 0.000000, end 9.092417
Metadata:
title : Chapter 01
Chapter #0:1: start 9.092417, end 101.017583
Metadata:
title : Chapter 02
Chapter #0:2: start 101.017583, end 227.810917
Metadata:
title : Chapter 03
Chapter #0:3: start 227.810917, end 402.944208
Metadata:
title : Chapter 04
Chapter #0:4: start 402.944208, end 506.714542
Metadata:
title : Chapter 05
Chapter #0:5: start 506.714542, end 604.770833
Metadata:
title : Chapter 06
Chapter #0:6: start 604.770833, end 768.142375
Metadata:
title : Chapter 07
Chapter #0:7: start 768.142375, end 833.999833
Metadata:
title : Chapter 08
Chapter #0:8: start 833.999833, end 917.416500
Metadata:
title : Chapter 09
Chapter #0:9: start 917.416500, end 1033.157125
Metadata:
title : Chapter 10
Chapter #0:10: start 1033.157125, end 1165.497667
Metadata:
title : Chapter 11
Chapter #0:11: start 1165.497667, end 1288.578958
Metadata:
title : Chapter 12
Chapter #0:12: start 1288.578958, end 1527.692833
Metadata:
title : Chapter 13
Chapter #0:13: start 1527.692833, end 1634.883250
Metadata:
title : Chapter 14
Chapter #0:14: start 1634.883250, end 1841.548042
Metadata:
title : Chapter 15
Chapter #0:15: start 1841.548042, end 2149.063583
Metadata:
title : Chapter 16
Chapter #0:16: start 2149.063583, end 2497.661833
Metadata:
title : Chapter 17
Chapter #0:17: start 2497.661833, end 2595.259333
Metadata:
title : Chapter 18
Chapter #0:18: start 2595.259333, end 2728.350625
Metadata:
title : Chapter 19
Chapter #0:19: start 2728.350625, end 2904.276375
Metadata:
title : Chapter 20
Chapter #0:20: start 2904.276375, end 3277.565958
Metadata:
title : Chapter 21
Chapter #0:21: start 3277.565958, end 3529.192333
Metadata:
title : Chapter 22
Chapter #0:22: start 3529.192333, end 3774.771000
Metadata:
title : Chapter 23
Chapter #0:23: start 3774.771000, end 3982.979000
Metadata:
title : Chapter 24
Chapter #0:24: start 3982.979000, end 4194.607083
Metadata:
title : Chapter 25
Chapter #0:25: start 4194.607083, end 4387.383000
Metadata:
title : Chapter 26
Chapter #0:26: start 4387.383000, end 4703.615583
Metadata:
title : Chapter 27
Chapter #0:27: start 4703.615583, end 5021.224542
Metadata:
title : Chapter 28
Chapter #0:28: start 5021.224542, end 5222.550667
Metadata:
title : Chapter 29
Chapter #0:29: start 5222.550667, end 5423.126042
Metadata:
title : Chapter 30
Chapter #0:30: start 5423.126042, end 5700.820125
Metadata:
title : Chapter 31
Chapter #0:31: start 5700.820125, end 5927.880292
Metadata:
title : Chapter 32
Chapter #0:32: start 5927.880292, end 6036.280250
Metadata:
title : Chapter 33
Chapter #0:33: start 6036.280250, end 6183.135292
Metadata:
title : Chapter 34
Chapter #0:34: start 6183.135292, end 6327.863208
Metadata:
title : Chapter 35
Chapter #0:35: start 6327.863208, end 6528.480292
Metadata:
title : Chapter 36
Chapter #0:36: start 6528.480292, end 6807.634167
Metadata:
title : Chapter 37
Chapter #0:37: start 6807.634167, end 6930.757167
Metadata:
title : Chapter 38
Chapter #0:38: start 6930.757167, end 7142.760625
Metadata:
title : Chapter 39
Chapter #0:39: start 7142.760625, end 7297.748792
Metadata:
title : Chapter 40
Chapter #0:40: start 7297.748792, end 7520.429583
Metadata:
title : Chapter 41
Chapter #0:41: start 7520.429583, end 7783.233792
Metadata:
title : Chapter 42
Chapter #0:42: start 7783.233792, end 7945.979708
Metadata:
title : Chapter 43
Chapter #0:43: start 7945.979708, end 8513.004500
Metadata:
title : Chapter 44
Stream #0:0(eng): Video: h264 (High), yuv420p(progressive), 1920x1080 [SAR 1:1 DAR 16:9], 23.98 fps, 23.98 tbr, 1k tbn
Metadata:
BPS-eng : 33326726
DURATION-eng : 02:21:53.004500000
NUMBER_OF_FRAMES-eng: 204108
NUMBER_OF_BYTES-eng: 35463819207
SOURCE_ID-eng : 001011
_STATISTICS_WRITING_APP-eng: MakeMKV v1.17.1 darwin(arm64-release)
_STATISTICS_WRITING_DATE_UTC-eng: 2023-01-23 19:10:20
_STATISTICS_TAGS-eng: BPS DURATION NUMBER_OF_FRAMES NUMBER_OF_BYTES SOURCE_ID
Stream #0:1(eng): Audio: dts (DTS-HD MA), 48000 Hz, 7.1, s32p (24 bit) (default)
Metadata:
title : Surround 7.1
BPS-eng : 4997003
DURATION-eng : 02:21:53.013333333
NUMBER_OF_FRAMES-eng: 798095
NUMBER_OF_BYTES-eng: 5317444348
SOURCE_ID-eng : 001100
_STATISTICS_WRITING_APP-eng: MakeMKV v1.17.1 darwin(arm64-release)
_STATISTICS_WRITING_DATE_UTC-eng: 2023-01-23 19:10:20
_STATISTICS_TAGS-eng: BPS DURATION NUMBER_OF_FRAMES NUMBER_OF_BYTES SOURCE_ID
Stream #0:2(eng): Audio: dts (DTS), 48000 Hz, 5.1(side), fltp, 1536 kb/s
Metadata:
title : Surround 5.1
BPS-eng : 1509000
DURATION-eng : 02:21:53.013333333
NUMBER_OF_FRAMES-eng: 798095
NUMBER_OF_BYTES-eng: 1605767140
SOURCE_ID-eng : 001100
_STATISTICS_WRITING_APP-eng: MakeMKV v1.17.1 darwin(arm64-release)
_STATISTICS_WRITING_DATE_UTC-eng: 2023-01-23 19:10:20
_STATISTICS_TAGS-eng: BPS DURATION NUMBER_OF_FRAMES NUMBER_OF_BYTES SOURCE_ID
[12:41:23] scan: decoding previews for title 1
[12:41:23] scan: audio 0x1: dca, rate=48000Hz, bitrate=1 English (DTS-HD MA) (7.1 ch)
[12:41:23] scan: audio 0x2: dca, rate=48000Hz, bitrate=1536000 English (DTS) (5.1 ch) (1536 kbps)
[12:41:24] scan: 10 previews, 1920x1080, 23.976 fps, autocrop = 138/138/0/0, aspect 16:9, PAR 1:1, color profile: 1-1-1, chroma location: left
[12:41:24] libhb: scan thread found 1 valid title(s)
[12:41:24] macgui: ScanCore scan done
[12:46:54] macgui: ScanCore scanning titles with a duration of 10 seconds or more
[12:46:54] CPU:
[12:46:54] - logical processor count: 8
[12:46:54] hb_scan: path=/Volumes/Movies/Star Wars- The Rise of Skywalker_t00.mkv, title_index=0
udfread ERROR: ECMA 167 Volume Recognition failed
disc.c:333: failed opening UDF image /Volumes/Movies/Star Wars- The Rise of Skywalker_t00.mkv
disc.c:437: error opening file BDMV/index.bdmv
disc.c:437: error opening file BDMV/BACKUP/index.bdmv
[12:46:54] bd: not a bd - trying as a stream/file instead
libdvdread: DVDOpenFileUDF:UDFFindFile /VIDEO_TS/VIDEO_TS.IFO failed
libdvdnav: vm: vm: failed to read VIDEO_TS.IFO
[12:46:54] dvd: not a dvd - trying as a stream/file instead
Input #0, matroska,webm, from '/Volumes/Movies/Star Wars- The Rise of Skywalker_t00.mkv':
Metadata:
title : Star Wars: The Rise of Skywalker
encoder : libmakemkv v1.17.1 (1.3.10/1.5.2) darwin(arm64-release)
creation_time : 2023-01-23T19:10:20.000000Z
Duration: 02:21:53.00, start: 0.000000, bitrate: 39837 kb/s
Chapters:
Chapter #0:0: start 0.000000, end 9.092417
Metadata:
title : Chapter 01
Chapter #0:1: start 9.092417, end 101.017583
Metadata:
title : Chapter 02
Chapter #0:2: start 101.017583, end 227.810917
Metadata:
title : Chapter 03
Chapter #0:3: start 227.810917, end 402.944208
Metadata:
title : Chapter 04
Chapter #0:4: start 402.944208, end 506.714542
Metadata:
title : Chapter 05
Chapter #0:5: start 506.714542, end 604.770833
Metadata:
title : Chapter 06
Chapter #0:6: start 604.770833, end 768.142375
Metadata:
title : Chapter 07
Chapter #0:7: start 768.142375, end 833.999833
Metadata:
title : Chapter 08
Chapter #0:8: start 833.999833, end 917.416500
Metadata:
title : Chapter 09
Chapter #0:9: start 917.416500, end 1033.157125
Metadata:
title : Chapter 10
Chapter #0:10: start 1033.157125, end 1165.497667
Metadata:
title : Chapter 11
Chapter #0:11: start 1165.497667, end 1288.578958
Metadata:
title : Chapter 12
Chapter #0:12: start 1288.578958, end 1527.692833
Metadata:
title : Chapter 13
Chapter #0:13: start 1527.692833, end 1634.883250
Metadata:
title : Chapter 14
Chapter #0:14: start 1634.883250, end 1841.548042
Metadata:
title : Chapter 15
Chapter #0:15: start 1841.548042, end 2149.063583
Metadata:
title : Chapter 16
Chapter #0:16: start 2149.063583, end 2497.661833
Metadata:
title : Chapter 17
Chapter #0:17: start 2497.661833, end 2595.259333
Metadata:
title : Chapter 18
Chapter #0:18: start 2595.259333, end 2728.350625
Metadata:
title : Chapter 19
Chapter #0:19: start 2728.350625, end 2904.276375
Metadata:
title : Chapter 20
Chapter #0:20: start 2904.276375, end 3277.565958
Metadata:
title : Chapter 21
Chapter #0:21: start 3277.565958, end 3529.192333
Metadata:
title : Chapter 22
Chapter #0:22: start 3529.192333, end 3774.771000
Metadata:
title : Chapter 23
Chapter #0:23: start 3774.771000, end 3982.979000
Metadata:
title : Chapter 24
Chapter #0:24: start 3982.979000, end 4194.607083
Metadata:
title : Chapter 25
Chapter #0:25: start 4194.607083, end 4387.383000
Metadata:
title : Chapter 26
Chapter #0:26: start 4387.383000, end 4703.615583
Metadata:
title : Chapter 27
Chapter #0:27: start 4703.615583, end 5021.224542
Metadata:
title : Chapter 28
Chapter #0:28: start 5021.224542, end 5222.550667
Metadata:
title : Chapter 29
Chapter #0:29: start 5222.550667, end 5423.126042
Metadata:
title : Chapter 30
Chapter #0:30: start 5423.126042, end 5700.820125
Metadata:
title : Chapter 31
Chapter #0:31: start 5700.820125, end 5927.880292
Metadata:
title : Chapter 32
Chapter #0:32: start 5927.880292, end 6036.280250
Metadata:
title : Chapter 33
Chapter #0:33: start 6036.280250, end 6183.135292
Metadata:
title : Chapter 34
Chapter #0:34: start 6183.135292, end 6327.863208
Metadata:
title : Chapter 35
Chapter #0:35: start 6327.863208, end 6528.480292
Metadata:
title : Chapter 36
Chapter #0:36: start 6528.480292, end 6807.634167
Metadata:
title : Chapter 37
Chapter #0:37: start 6807.634167, end 6930.757167
Metadata:
title : Chapter 38
Chapter #0:38: start 6930.757167, end 7142.760625
Metadata:
title : Chapter 39
Chapter #0:39: start 7142.760625, end 7297.748792
Metadata:
title : Chapter 40
Chapter #0:40: start 7297.748792, end 7520.429583
Metadata:
title : Chapter 41
Chapter #0:41: start 7520.429583, end 7783.233792
Metadata:
title : Chapter 42
Chapter #0:42: start 7783.233792, end 7945.979708
Metadata:
title : Chapter 43
Chapter #0:43: start 7945.979708, end 8513.004500
Metadata:
title : Chapter 44
Stream #0:0(eng): Video: h264 (High), yuv420p(progressive), 1920x1080 [SAR 1:1 DAR 16:9], 23.98 fps, 23.98 tbr, 1k tbn
Metadata:
BPS-eng : 33326726
DURATION-eng : 02:21:53.004500000
NUMBER_OF_FRAMES-eng: 204108
NUMBER_OF_BYTES-eng: 35463819207
SOURCE_ID-eng : 001011
_STATISTICS_WRITING_APP-eng: MakeMKV v1.17.1 darwin(arm64-release)
_STATISTICS_WRITING_DATE_UTC-eng: 2023-01-23 19:10:20
_STATISTICS_TAGS-eng: BPS DURATION NUMBER_OF_FRAMES NUMBER_OF_BYTES SOURCE_ID
Stream #0:1(eng): Audio: dts (DTS-HD MA), 48000 Hz, 7.1, s32p (24 bit) (default)
Metadata:
title : Surround 7.1
BPS-eng : 4997003
DURATION-eng : 02:21:53.013333333
NUMBER_OF_FRAMES-eng: 798095
NUMBER_OF_BYTES-eng: 5317444348
SOURCE_ID-eng : 001100
_STATISTICS_WRITING_APP-eng: MakeMKV v1.17.1 darwin(arm64-release)
_STATISTICS_WRITING_DATE_UTC-eng: 2023-01-23 19:10:20
_STATISTICS_TAGS-eng: BPS DURATION NUMBER_OF_FRAMES NUMBER_OF_BYTES SOURCE_ID
Stream #0:2(eng): Audio: dts (DTS), 48000 Hz, 5.1(side), fltp, 1536 kb/s
Metadata:
title : Surround 5.1
BPS-eng : 1509000
DURATION-eng : 02:21:53.013333333
NUMBER_OF_FRAMES-eng: 798095
NUMBER_OF_BYTES-eng: 1605767140
SOURCE_ID-eng : 001100
_STATISTICS_WRITING_APP-eng: MakeMKV v1.17.1 darwin(arm64-release)
_STATISTICS_WRITING_DATE_UTC-eng: 2023-01-23 19:10:20
_STATISTICS_TAGS-eng: BPS DURATION NUMBER_OF_FRAMES NUMBER_OF_BYTES SOURCE_ID
[12:46:54] scan: decoding previews for title 1
[12:46:54] scan: audio 0x1: dca, rate=48000Hz, bitrate=1 English (DTS-HD MA) (7.1 ch)
[12:46:54] scan: audio 0x2: dca, rate=48000Hz, bitrate=1536000 English (DTS) (5.1 ch) (1536 kbps)
[12:46:55] scan: 10 previews, 1920x1080, 23.976 fps, autocrop = 138/138/0/0, aspect 16:9, PAR 1:1, color profile: 1-1-1, chroma location: left
[12:46:55] libhb: scan thread found 1 valid title(s)
[12:46:56] macgui: ScanCore scan done
[12:48:25] Compile-time hardening features are enabled
[12:48:25] hb_init: starting libhb thread
[12:48:25] macgui: fr.handbrake.HandBrakeXPCService scanning specifically for title: 1
[12:48:25] CPU:
[12:48:25] - logical processor count: 8
[12:48:25] hb_scan: path=/Volumes/Movies/Star Wars- The Rise of Skywalker_t00.mkv, title_index=1
udfread ERROR: ECMA 167 Volume Recognition failed
disc.c:333: failed opening UDF image /Volumes/Movies/Star Wars- The Rise of Skywalker_t00.mkv
disc.c:437: error opening file BDMV/index.bdmv
disc.c:437: error opening file BDMV/BACKUP/index.bdmv
[12:48:25] bd: not a bd - trying as a stream/file instead
libdvdread: DVDOpenFileUDF:UDFFindFile /VIDEO_TS/VIDEO_TS.IFO failed
libdvdnav: vm: vm: failed to read VIDEO_TS.IFO
[12:48:25] dvd: not a dvd - trying as a stream/file instead
Input #0, matroska,webm, from '/Volumes/Movies/Star Wars- The Rise of Skywalker_t00.mkv':
Metadata:
title : Star Wars: The Rise of Skywalker
encoder : libmakemkv v1.17.1 (1.3.10/1.5.2) darwin(arm64-release)
creation_time : 2023-01-23T19:10:20.000000Z
Duration: 02:21:53.00, start: 0.000000, bitrate: 39837 kb/s
Chapters:
Chapter #0:0: start 0.000000, end 9.092417
Metadata:
title : Chapter 01
Chapter #0:1: start 9.092417, end 101.017583
Metadata:
title : Chapter 02
Chapter #0:2: start 101.017583, end 227.810917
Metadata:
title : Chapter 03
Chapter #0:3: start 227.810917, end 402.944208
Metadata:
title : Chapter 04
Chapter #0:4: start 402.944208, end 506.714542
Metadata:
title : Chapter 05
Chapter #0:5: start 506.714542, end 604.770833
Metadata:
title : Chapter 06
Chapter #0:6: start 604.770833, end 768.142375
Metadata:
title : Chapter 07
Chapter #0:7: start 768.142375, end 833.999833
Metadata:
title : Chapter 08
Chapter #0:8: start 833.999833, end 917.416500
Metadata:
title : Chapter 09
Chapter #0:9: start 917.416500, end 1033.157125
Metadata:
title : Chapter 10
Chapter #0:10: start 1033.157125, end 1165.497667
Metadata:
title : Chapter 11
Chapter #0:11: start 1165.497667, end 1288.578958
Metadata:
title : Chapter 12
Chapter #0:12: start 1288.578958, end 1527.692833
Metadata:
title : Chapter 13
Chapter #0:13: start 1527.692833, end 1634.883250
Metadata:
title : Chapter 14
Chapter #0:14: start 1634.883250, end 1841.548042
Metadata:
title : Chapter 15
Chapter #0:15: start 1841.548042, end 2149.063583
Metadata:
title : Chapter 16
Chapter #0:16: start 2149.063583, end 2497.661833
Metadata:
title : Chapter 17
Chapter #0:17: start 2497.661833, end 2595.259333
Metadata:
title : Chapter 18
Chapter #0:18: start 2595.259333, end 2728.350625
Metadata:
title : Chapter 19
Chapter #0:19: start 2728.350625, end 2904.276375
Metadata:
title : Chapter 20
Chapter #0:20: start 2904.276375, end 3277.565958
Metadata:
title : Chapter 21
Chapter #0:21: start 3277.565958, end 3529.192333
Metadata:
title : Chapter 22
Chapter #0:22: start 3529.192333, end 3774.771000
Metadata:
title : Chapter 23
Chapter #0:23: start 3774.771000, end 3982.979000
Metadata:
title : Chapter 24
Chapter #0:24: start 3982.979000, end 4194.607083
Metadata:
title : Chapter 25
Chapter #0:25: start 4194.607083, end 4387.383000
Metadata:
title : Chapter 26
Chapter #0:26: start 4387.383000, end 4703.615583
Metadata:
title : Chapter 27
Chapter #0:27: start 4703.615583, end 5021.224542
Metadata:
title : Chapter 28
Chapter #0:28: start 5021.224542, end 5222.550667
Metadata:
title : Chapter 29
Chapter #0:29: start 5222.550667, end 5423.126042
Metadata:
title : Chapter 30
Chapter #0:30: start 5423.126042, end 5700.820125
Metadata:
title : Chapter 31
Chapter #0:31: start 5700.820125, end 5927.880292
Metadata:
title : Chapter 32
Chapter #0:32: start 5927.880292, end 6036.280250
Metadata:
title : Chapter 33
Chapter #0:33: start 6036.280250, end 6183.135292
Metadata:
title : Chapter 34
Chapter #0:34: start 6183.135292, end 6327.863208
Metadata:
title : Chapter 35
Chapter #0:35: start 6327.863208, end 6528.480292
Metadata:
title : Chapter 36
Chapter #0:36: start 6528.480292, end 6807.634167
Metadata:
title : Chapter 37
Chapter #0:37: start 6807.634167, end 6930.757167
Metadata:
title : Chapter 38
Chapter #0:38: start 6930.757167, end 7142.760625
Metadata:
title : Chapter 39
Chapter #0:39: start 7142.760625, end 7297.748792
Metadata:
title : Chapter 40
Chapter #0:40: start 7297.748792, end 7520.429583
Metadata:
title : Chapter 41
Chapter #0:41: start 7520.429583, end 7783.233792
Metadata:
title : Chapter 42
Chapter #0:42: start 7783.233792, end 7945.979708
Metadata:
title : Chapter 43
Chapter #0:43: start 7945.979708, end 8513.004500
Metadata:
title : Chapter 44
Stream #0:0(eng): Video: h264 (High), yuv420p(progressive), 1920x1080 [SAR 1:1 DAR 16:9], 23.98 fps, 23.98 tbr, 1k tbn
Metadata:
BPS-eng : 33326726
DURATION-eng : 02:21:53.004500000
NUMBER_OF_FRAMES-eng: 204108
NUMBER_OF_BYTES-eng: 35463819207
SOURCE_ID-eng : 001011
_STATISTICS_WRITING_APP-eng: MakeMKV v1.17.1 darwin(arm64-release)
_STATISTICS_WRITING_DATE_UTC-eng: 2023-01-23 19:10:20
_STATISTICS_TAGS-eng: BPS DURATION NUMBER_OF_FRAMES NUMBER_OF_BYTES SOURCE_ID
Stream #0:1(eng): Audio: dts (DTS-HD MA), 48000 Hz, 7.1, s32p (24 bit) (default)
Metadata:
title : Surround 7.1
BPS-eng : 4997003
DURATION-eng : 02:21:53.013333333
NUMBER_OF_FRAMES-eng: 798095
NUMBER_OF_BYTES-eng: 5317444348
SOURCE_ID-eng : 001100
_STATISTICS_WRITING_APP-eng: MakeMKV v1.17.1 darwin(arm64-release)
_STATISTICS_WRITING_DATE_UTC-eng: 2023-01-23 19:10:20
_STATISTICS_TAGS-eng: BPS DURATION NUMBER_OF_FRAMES NUMBER_OF_BYTES SOURCE_ID
Stream #0:2(eng): Audio: dts (DTS), 48000 Hz, 5.1(side), fltp, 1536 kb/s
Metadata:
title : Surround 5.1
BPS-eng : 1509000
DURATION-eng : 02:21:53.013333333
NUMBER_OF_FRAMES-eng: 798095
NUMBER_OF_BYTES-eng: 1605767140
SOURCE_ID-eng : 001100
_STATISTICS_WRITING_APP-eng: MakeMKV v1.17.1 darwin(arm64-release)
_STATISTICS_WRITING_DATE_UTC-eng: 2023-01-23 19:10:20
_STATISTICS_TAGS-eng: BPS DURATION NUMBER_OF_FRAMES NUMBER_OF_BYTES SOURCE_ID
[12:48:25] scan: decoding previews for title 1
[12:48:25] scan: audio 0x1: dca, rate=48000Hz, bitrate=1 English (DTS-HD MA) (7.1 ch)
[12:48:25] scan: audio 0x2: dca, rate=48000Hz, bitrate=1536000 English (DTS) (5.1 ch) (1536 kbps)
[12:48:27] scan: 10 previews, 1920x1080, 23.976 fps, autocrop = 138/138/0/0, aspect 16:9, PAR 1:1, color profile: 1-1-1, chroma location: left
[12:48:27] libhb: scan thread found 1 valid title(s)
[12:48:27] macgui: fr.handbrake.HandBrakeXPCService scan done
[12:48:27] Starting work at: Mon Jan 23 12:48:27 2023

[12:48:27] 1 job(s) to process
[12:48:27] Starting Task: Encoding Pass
[12:48:27] macgui: fr.handbrake.HandBrakeXPCService started encoding Star Wars- The Rise of Skywalker_t00.mp4
[12:48:27] macgui: fr.handbrake.HandBrakeXPCService with preset Apple 1080p60 Surround
[12:48:27] job configuration:
[12:48:27] * source
[12:48:27] + /Volumes/Movies/Star Wars- The Rise of Skywalker_t00.mkv
[12:48:27] + title 1, chapter(s) 1 to 44
[12:48:27] + container: matroska,webm
[12:48:27] + data rate: 39837 kbps
[12:48:27] * destination
[12:48:27] + /Users/simonjobman/Desktop/Star Wars- The Rise of Skywalker_t00.mp4
[12:48:27] + container: MPEG-4 (libavformat)
[12:48:27] + chapter markers
[12:48:27] * video track
[12:48:27] + decoder: h264 8-bit (yuv420p)
[12:48:27] + filters
[12:48:27] + Comb Detect (mode=3:spatial-metric=2:motion-thresh=1:spatial-thresh=1:filter-mode=2:block-thresh=40:block-width=16:block-height=16)
[12:48:27] + Decomb (mode=39)
[12:48:27] + Framerate Shaper (mode=2:rate=27000000/450000)
[12:48:27] + frame rate: 23.976 fps -> peak rate limited to 60.000 fps
[12:48:27] + Crop and Scale (width=1920:height=804:crop-top=138:crop-bottom=138:crop-left=0:crop-right=0)
[12:48:27] + source: 1920 * 1080, crop (138/138/0/0): 1920 * 804, scale: 1920 * 804
[12:48:27] + Output geometry
[12:48:27] + storage dimensions: 1920 x 804
[12:48:27] + pixel aspect ratio: 1 : 1
[12:48:27] + display dimensions: 1920 x 804
[12:48:27] + encoder: H.264 (libx264)
[12:48:27] + preset: medium
[12:48:27] + profile: high
[12:48:27] + level: 4.2
[12:48:27] + quality: 22.00 (RF)
[12:48:27] + color profile: 1-1-1
[12:48:27] + chroma location: left
[12:48:27] * audio track 1
[12:48:27] + name: Surround 7.1
[12:48:27] + decoder: English (DTS-HD MA) (7.1 ch) (track 1, id 0x1)
[12:48:27] + samplerate: 48000 Hz
[12:48:27] + mixdown: 5.1 Channels
[12:48:27] + encoder: AAC (Apple AudioToolbox)
[12:48:27] + bitrate: 640 kbps, samplerate: 48000 Hz
[12:48:27] * audio track 2
[12:48:27] + name: Surround 7.1
[12:48:27] + decoder: English (DTS-HD MA) (7.1 ch) (track 1, id 0x1)
[12:48:27] + samplerate: 48000 Hz
[12:48:27] + mixdown: 5.1 Channels
[12:48:27] + encoder: AC3 (libavcodec)
[12:48:27] + bitrate: 640 kbps, samplerate: 48000 Hz
[12:48:27] sync: expecting 204107 video frames
[12:48:27] encx264: min-keyint: 24, keyint: 240
[12:48:27] encx264: encoding at constant RF 22.000000
[12:48:27] encx264: unparsed options: level=4.2:vbv-bufsize=78125:vbv-maxrate=62500
x264 [info]: using SAR=1/1
x264 [info]: using cpu capabilities: ARMv8 NEON
x264 [info]: profile High, level 4.2, 4:2:0, 8-bit
[12:48:27] sync: first pts video is 0
[12:48:27] sync: "Chapter 1" (1) at frame 1 time 0
[12:48:27] sync: first pts audio 0x1 is 0
[12:48:27] sync: first pts audio 0x1 is 0
[12:48:29] sync: "Chapter 2" (2) at frame 222 time 829578
[12:49:02] sync: "Chapter 3" (3) at frame 2423 time 9091582
[12:50:04] sync: "Chapter 4" (4) at frame 5463 time 20502982
[12:51:33] sync: "Chapter 5" (5) at frame 9664 time 36272486
[12:52:23] sync: "Chapter 6" (6) at frame 12150 time 45604308
[12:53:22] sync: "Chapter 7" (7) at frame 14501 time 54429375
[12:54:55] sync: "Chapter 8" (8) at frame 18421 time 69144075
[12:55:27] sync: "Chapter 9" (9) at frame 19997 time 75059985
[12:56:11] sync: "Chapter 10" (10) at frame 21997 time 82567485
[12:57:01] sync: "Chapter 11" (11) at frame 24774 time 92991648
[12:58:02] sync: "Chapter 12" (12) at frame 27945 time 104894790
[12:58:54] sync: "Chapter 13" (13) at frame 30896 time 115972106
[13:01:04] sync: "Chapter 14" (14) at frame 36629 time 137492355
[13:02:04] sync: "Chapter 15" (15) at frame 39202 time 147150753
[13:04:04] sync: "Chapter 16" (16) at frame 44157 time 165750585
[13:06:27] sync: "Chapter 17" (17) at frame 51527 time 193415722
[13:09:23] sync: "Chapter 18" (18) at frame 59885 time 224789565
[13:10:06] sync: "Chapter 19" (19) at frame 62228 time 233584601
[13:11:09] sync: "Chapter 20" (20) at frame 65416 time 245551556
[13:12:45] sync: "Chapter 21" (21) at frame 69637 time 261396135
[13:15:40] sync: "Chapter 22" (22) at frame 78584 time 294980936
[13:17:58] sync: "Chapter 23" (23) at frame 84620 time 317638571
[13:20:22] sync: "Chapter 24" (24) at frame 90505 time 339729390
[13:22:05] sync: "Chapter 25" (25) at frame 95497 time 358468110
[13:23:43] sync: "Chapter 26" (26) at frame 100573 time 377522145
[13:25:23] sync: "Chapter 27" (27) at frame 105193 time 394864470
[13:27:55] sync: "Chapter 28" (28) at frame 112775 time 423325402
[13:31:07] sync: "Chapter 29" (29) at frame 120390 time 451910208
[13:32:32] sync: "Chapter 30" (30) at frame 125217 time 470029560
[13:34:05] sync: "Chapter 31" (31) at frame 130028 time 488088851
[13:36:26] sync: "Chapter 32" (32) at frame 136686 time 513081318
[13:38:17] sync: "Chapter 33" (33) at frame 142130 time 533516733
[13:39:17] sync: "Chapter 34" (34) at frame 144730 time 543276483
[13:40:38] sync: "Chapter 35" (35) at frame 148251 time 556493437
[13:41:47] sync: "Chapter 36" (36) at frame 151720 time 569515196
[13:43:39] sync: "Chapter 37" (37) at frame 156531 time 587574487
[13:46:11] sync: "Chapter 38" (38) at frame 163223 time 612694582
[13:47:23] sync: "Chapter 39" (39) at frame 166175 time 623775652
[13:49:21] sync: "Chapter 40" (40) at frame 171256 time 642848456
[13:51:08] sync: "Chapter 41" (41) at frame 174972 time 656797391
[13:52:58] sync: "Chapter 42" (42) at frame 180311 time 676838662
[13:55:22] sync: "Chapter 43" (43) at frame 186612 time 700491041
[13:56:43] sync: "Chapter 44" (44) at frame 190514 time 715138173
[14:00:07] reader: done. 1 scr changes
[14:00:08] work: average encoding speed for job is 47.449516 fps
[14:00:08] comb detect: heavy 1837 | light 17789 | uncombed 184482 | total 204108
[14:00:08] decomb: deinterlaced 1837 | blended 17789 | unfiltered 184482 | total 204108
[14:00:08] vfr: 204108 frames output, 0 dropped and 0 duped for CFR/PFR
[14:00:08] vfr: lost time: 0 (0 frames)
[14:00:08] vfr: gained time: 0 (0 frames) (0 not accounted for)
[14:00:08] dca-decoder done: 798095 frames, 0 decoder errors
[14:00:08] dca-decoder done: 798095 frames, 0 decoder errors
[14:00:08] h264-decoder done: 204108 frames, 0 decoder errors
[14:00:08] sync: got 204108 frames, 204107 expected
[14:00:08] sync: framerate min 23.976 fps, max 23.976 fps, avg 23.976 fps
x264 [info]: frame I:3794 Avg QP:20.23 size:109401
x264 [info]: frame P:84667 Avg QP:22.65 size: 30387
x264 [info]: frame B:115647 Avg QP:23.80 size: 13865
x264 [info]: consecutive B-frames: 22.6% 3.9% 4.7% 68.7%
x264 [info]: mb I I16..4: 9.4% 81.9% 8.7%
x264 [info]: mb P I16..4: 3.0% 15.5% 1.3% P16..4: 40.8% 8.8% 6.9% 0.0% 0.0% skip:23.6%
x264 [info]: mb B I16..4: 0.3% 1.8% 0.2% B16..8: 49.4% 3.8% 0.7% direct: 3.5% skip:40.3% L0:46.9% L1:49.5% BI: 3.6%
x264 [info]: 8x8 transform intra:78.8% inter:83.0%
x264 [info]: coded y,uvDC,uvAC intra: 65.2% 73.1% 26.1% inter: 20.1% 29.5% 0.7%
x264 [info]: i16 v,h,dc,p: 21% 21% 6% 52%
x264 [info]: i8 v,h,dc,ddl,ddr,vr,hd,vl,hu: 14% 13% 31% 6% 7% 7% 7% 6% 7%
x264 [info]: i4 v,h,dc,ddl,ddr,vr,hd,vl,hu: 27% 17% 17% 6% 8% 7% 7% 5% 4%
x264 [info]: i8c dc,h,v,p: 52% 21% 19% 8%
x264 [info]: Weighted P-Frames: Y:7.0% UV:5.3%
x264 [info]: ref P L0: 56.1% 13.6% 20.7% 9.0% 0.7%
x264 [info]: ref B L0: 85.4% 11.8% 2.8%
x264 [info]: ref B L1: 94.2% 5.8%
x264 [info]: kb/s:4314.60
[14:00:08] mux: track 0, 204108 frames, 4591166663 bytes, 4314.48 kbps, fifo 2048
[14:00:08] mux: track 1, 399050 frames, 727528335 bytes, 683.68 kbps, fifo 4096
[14:00:08] mux: track 2, 266031 frames, 681039360 bytes, 640.00 kbps, fifo 2048
[14:00:08] Finished work at: Mon Jan 23 14:00:08 2023

[14:00:08] libhb: work result = 0
[14:00:09] macgui: Queue Done, there are no more pending encodes
[14:00:09] macgui: fr.handbrake.HandBrakeXPCService work done
[14:34:24] macgui: ScanCore scanning titles with a duration of 10 seconds or more
[14:34:24] CPU:
[14:34:24] - logical processor count: 8
[14:34:24] hb_scan: path=/Volumes/Movies/Star Wars- The Rise of Skywalker_t00.mkv, title_index=0
udfread ERROR: ECMA 167 Volume Recognition failed
disc.c:333: failed opening UDF image /Volumes/Movies/Star Wars- The Rise of Skywalker_t00.mkv
disc.c:437: error opening file BDMV/index.bdmv
disc.c:437: error opening file BDMV/BACKUP/index.bdmv
[14:34:24] bd: not a bd - trying as a stream/file instead
libdvdread: DVDOpenFileUDF:UDFFindFile /VIDEO_TS/VIDEO_TS.IFO failed
libdvdnav: vm: vm: failed to read VIDEO_TS.IFO
[14:34:24] dvd: not a dvd - trying as a stream/file instead
Input #0, matroska,webm, from '/Volumes/Movies/Star Wars- The Rise of Skywalker_t00.mkv':
Metadata:
title : Star Wars: The Rise of Skywalker
encoder : libmakemkv v1.17.1 (1.3.10/1.5.2) darwin(arm64-release)
creation_time : 2023-01-23T19:10:20.000000Z
Duration: 02:21:53.00, start: 0.000000, bitrate: 39837 kb/s
Chapters:
Chapter #0:0: start 0.000000, end 9.092417
Metadata:
title : Chapter 01
Chapter #0:1: start 9.092417, end 101.017583
Metadata:
title : Chapter 02
Chapter #0:2: start 101.017583, end 227.810917
Metadata:
title : Chapter 03
Chapter #0:3: start 227.810917, end 402.944208
Metadata:
title : Chapter 04
Chapter #0:4: start 402.944208, end 506.714542
Metadata:
title : Chapter 05
Chapter #0:5: start 506.714542, end 604.770833
Metadata:
title : Chapter 06
Chapter #0:6: start 604.770833, end 768.142375
Metadata:
title : Chapter 07
Chapter #0:7: start 768.142375, end 833.999833
Metadata:
title : Chapter 08
Chapter #0:8: start 833.999833, end 917.416500
Metadata:
title : Chapter 09
Chapter #0:9: start 917.416500, end 1033.157125
Metadata:
title : Chapter 10
Chapter #0:10: start 1033.157125, end 1165.497667
Metadata:
title : Chapter 11
Chapter #0:11: start 1165.497667, end 1288.578958
Metadata:
title : Chapter 12
Chapter #0:12: start 1288.578958, end 1527.692833
Metadata:
title : Chapter 13
Chapter #0:13: start 1527.692833, end 1634.883250
Metadata:
title : Chapter 14
Chapter #0:14: start 1634.883250, end 1841.548042
Metadata:
title : Chapter 15
Chapter #0:15: start 1841.548042, end 2149.063583
Metadata:
title : Chapter 16
Chapter #0:16: start 2149.063583, end 2497.661833
Metadata:
title : Chapter 17
Chapter #0:17: start 2497.661833, end 2595.259333
Metadata:
title : Chapter 18
Chapter #0:18: start 2595.259333, end 2728.350625
Metadata:
title : Chapter 19
Chapter #0:19: start 2728.350625, end 2904.276375
Metadata:
title : Chapter 20
Chapter #0:20: start 2904.276375, end 3277.565958
Metadata:
title : Chapter 21
Chapter #0:21: start 3277.565958, end 3529.192333
Metadata:
title : Chapter 22
Chapter #0:22: start 3529.192333, end 3774.771000
Metadata:
title : Chapter 23
Chapter #0:23: start 3774.771000, end 3982.979000
Metadata:
title : Chapter 24
Chapter #0:24: start 3982.979000, end 4194.607083
Metadata:
title : Chapter 25
Chapter #0:25: start 4194.607083, end 4387.383000
Metadata:
title : Chapter 26
Chapter #0:26: start 4387.383000, end 4703.615583
Metadata:
title : Chapter 27
Chapter #0:27: start 4703.615583, end 5021.224542
Metadata:
title : Chapter 28
Chapter #0:28: start 5021.224542, end 5222.550667
Metadata:
title : Chapter 29
Chapter #0:29: start 5222.550667, end 5423.126042
Metadata:
title : Chapter 30
Chapter #0:30: start 5423.126042, end 5700.820125
Metadata:
title : Chapter 31
Chapter #0:31: start 5700.820125, end 5927.880292
Metadata:
title : Chapter 32
Chapter #0:32: start 5927.880292, end 6036.280250
Metadata:
title : Chapter 33
Chapter #0:33: start 6036.280250, end 6183.135292
Metadata:
title : Chapter 34
Chapter #0:34: start 6183.135292, end 6327.863208
Metadata:
title : Chapter 35
Chapter #0:35: start 6327.863208, end 6528.480292
Metadata:
title : Chapter 36
Chapter #0:36: start 6528.480292, end 6807.634167
Metadata:
title : Chapter 37
Chapter #0:37: start 6807.634167, end 6930.757167
Metadata:
title : Chapter 38
Chapter #0:38: start 6930.757167, end 7142.760625
Metadata:
title : Chapter 39
Chapter #0:39: start 7142.760625, end 7297.748792
Metadata:
title : Chapter 40
Chapter #0:40: start 7297.748792, end 7520.429583
Metadata:
title : Chapter 41
Chapter #0:41: start 7520.429583, end 7783.233792
Metadata:
title : Chapter 42
Chapter #0:42: start 7783.233792, end 7945.979708
Metadata:
title : Chapter 43
Chapter #0:43: start 7945.979708, end 8513.004500
Metadata:
title : Chapter 44
Stream #0:0(eng): Video: h264 (High), yuv420p(progressive), 1920x1080 [SAR 1:1 DAR 16:9], 23.98 fps, 23.98 tbr, 1k tbn
Metadata:
BPS-eng : 33326726
DURATION-eng : 02:21:53.004500000
NUMBER_OF_FRAMES-eng: 204108
NUMBER_OF_BYTES-eng: 35463819207
SOURCE_ID-eng : 001011
_STATISTICS_WRITING_APP-eng: MakeMKV v1.17.1 darwin(arm64-release)
_STATISTICS_WRITING_DATE_UTC-eng: 2023-01-23 19:10:20
_STATISTICS_TAGS-eng: BPS DURATION NUMBER_OF_FRAMES NUMBER_OF_BYTES SOURCE_ID
Stream #0:1(eng): Audio: dts (DTS-HD MA), 48000 Hz, 7.1, s32p (24 bit) (default)
Metadata:
title : Surround 7.1
BPS-eng : 4997003
DURATION-eng : 02:21:53.013333333
NUMBER_OF_FRAMES-eng: 798095
NUMBER_OF_BYTES-eng: 5317444348
SOURCE_ID-eng : 001100
_STATISTICS_WRITING_APP-eng: MakeMKV v1.17.1 darwin(arm64-release)
_STATISTICS_WRITING_DATE_UTC-eng: 2023-01-23 19:10:20
_STATISTICS_TAGS-eng: BPS DURATION NUMBER_OF_FRAMES NUMBER_OF_BYTES SOURCE_ID
Stream #0:2(eng): Audio: dts (DTS), 48000 Hz, 5.1(side), fltp, 1536 kb/s
Metadata:
title : Surround 5.1
BPS-eng : 1509000
DURATION-eng : 02:21:53.013333333
NUMBER_OF_FRAMES-eng: 798095
NUMBER_OF_BYTES-eng: 1605767140
SOURCE_ID-eng : 001100
_STATISTICS_WRITING_APP-eng: MakeMKV v1.17.1 darwin(arm64-release)
_STATISTICS_WRITING_DATE_UTC-eng: 2023-01-23 19:10:20
_STATISTICS_TAGS-eng: BPS DURATION NUMBER_OF_FRAMES NUMBER_OF_BYTES SOURCE_ID
[14:34:24] scan: decoding previews for title 1
[14:34:24] scan: audio 0x1: dca, rate=48000Hz, bitrate=1 English (DTS-HD MA) (7.1 ch)
[14:34:24] scan: audio 0x2: dca, rate=48000Hz, bitrate=1536000 English (DTS) (5.1 ch) (1536 kbps)
[14:34:25] scan: 10 previews, 1920x1080, 23.976 fps, autocrop = 138/138/0/0, aspect 16:9, PAR 1:1, color profile: 1-1-1, chroma location: left
[14:34:25] libhb: scan thread found 1 valid title(s)
[14:34:25] macgui: ScanCore scan done
(see How-to get an activity log)

Code: Select all

Please replace this text with the contents of your log file between the two code tags - OR -  provide a pastebin URL in place of these 3 lines.
If you are unable to do so, please state why so we can help you.
User avatar
Rodeo
HandBrake Team
Posts: 13047
Joined: Tue Mar 03, 2009 8:55 pm

Re: What's Resulting Audio for Apple 1080p60 Surround Preset?

Post by Rodeo »

The Apple presets encode the source audio twice, once as AAC Stereo, and once as Dolby Digital 5.1 Surround.
Post Reply