MKV from HandBrake is larger and has less readable metadata.

General questions or discussion about HandBrake, Video and/or audio transcoding, trends etc.
Post Reply
Boris911
Posts: 8
Joined: Sat Apr 23, 2022 10:59 am

MKV from HandBrake is larger and has less readable metadata.

Post by Boris911 »

Description of problem or question:
Hi, I noticed one interesting thing about the resulting MKV files from HandBrake. The resulting MKV files are slightly larger and display less information in MediaInfo (e.g. missing bitrate information) than when I then re-mix the resulting file with MKVToolNix. This is strange.

The MKV from HandBrake takes up 2.09 GB (2,249,225,773 bytes).
The MKV remixed via MKVToolNix takes up 2.06 GB (2,213,075,283 bytes).

MediaInfo loads the following information for my MKV from HandBrake (missing bitrate information for video, audio and subtitles):

Code: Select all

General
Unique ID                                : 147519589700987642934534114694168329648 (0x6EFB3D511C12456BE0EBF64A66503DB0)
Complete name                            : 
Format                                   : Matroska
Format version                           : Version 4
File size                                : 2.09 GiB
Duration                                 : 1 h 35 min
Overall bit rate                         : 3 152 kb/s
Movie name                               : 
Encoded date                             : UTC 2022-06-20 20:05:16
Writing application                      : HandBrake 1.5.1 2022062000
Writing library                          : Lavf58.76.100
ErrorDetectionType                       : Per level 1

Video
ID                                       : 1
Format                                   : HEVC
Format/Info                              : High Efficiency Video Coding
Format profile                           : Main 10@L4.1@High
Codec ID                                 : V_MPEGH/ISO/HEVC
Duration                                 : 1 h 35 min
Width                                    : 1 920 pixels
Height                                   : 804 pixels
Display aspect ratio                     : 2.40:1
Frame rate mode                          : Constant
Frame rate                               : 25.000 FPS
Color space                              : YUV
Chroma subsampling                       : 4:2:0 (Type 0)
Bit depth                                : 10 bits
Writing library                          : x265 3.5+1-f0c1022b6:[Linux][GCC 11.2.0][64 bit] 10bit
Encoding settings                        : cpuid=1111039 / frame-threads=4 / wpp / pmode / no-pme / no-psnr / no-ssim / log-level=2 / input-csp=1 / input-res=1920x804 / interlace=0 / total-frames=0 / level-idc=41 / high-tier=1 / uhd-bd=0 / ref=5 / no-allow-non-conformance / no-repeat-headers / annexb / no-aud / no-hrd / info / hash=0 / no-temporal-layers / open-gop / min-keyint=25 / keyint=250 / gop-lookahead=0 / bframes=8 / b-adapt=2 / b-pyramid / bframe-bias=0 / rc-lookahead=80 / lookahead-slices=0 / scenecut=40 / hist-scenecut=0 / radl=0 / no-splice / no-intra-refresh / ctu=64 / min-cu-size=8 / rect / amp / max-tu-size=32 / tu-inter-depth=4 / tu-intra-depth=4 / limit-tu=0 / rdoq-level=2 / dynamic-rd=0.00 / no-ssim-rd / signhide / tskip / nr-intra=0 / nr-inter=0 / no-constrained-intra / strong-intra-smoothing / max-merge=5 / limit-refs=0 / no-limit-modes / me=3 / subme=7 / merange=48 / temporal-mvp / no-frame-dup / hme / Level / merange / L0,L1,L2=16,32,48 / weightp / weightb / analyze-src-pics / deblock=-1:-1 / sao / no-sao-non-deblock / rd=6 / selective-sao=4 / no-early-skip / no-rskip / no-fast-intra / no-tskip-fast / no-cu-lossless / b-intra / no-splitrd-skip / rdpenalty=0 / psy-rd=2.00 / psy-rdoq=1.00 / no-rd-refine / no-lossless / cbqpoffs=0 / crqpoffs=0 / rc=crf / crf=22.0 / qcomp=0.65 / qpstep=4 / stats-write=0 / stats-read=0 / vbv-maxrate=50000 / vbv-bufsize=50000 / vbv-init=0.9 / min-vbv-fullness=50.0 / max-vbv-fullness=80.0 / crf-max=0.0 / crf-min=0.0 / ipratio=1.40 / pbratio=1.30 / aq-mode=3 / aq-strength=0.80 / cutree / zone-count=0 / no-strict-cbr / qg-size=16 / no-rc-grain / qpmax=45 / qpmin=0 / no-const-vbv / sar=1 / overscan=0 / videoformat=5 / range=0 / colorprim=1 / transfer=1 / colormatrix=1 / chromaloc=1 / chromaloc-top=0 / chromaloc-bottom=0 / display-window=0 / cll=0,0 / min-luma=0 / max-luma=1023 / log2-max-poc-lsb=8 / vui-timing-info / vui-hrd-info / slices=1 / no-opt-qp-pps / no-opt-ref-list-length-pps / no-multi-pass-opt-rps / scenecut-bias=0.05 / hist-threshold=0.03 / no-opt-cu-delta-qp / no-aq-motion / no-hdr10 / no-hdr10-opt / no-dhdr10-opt / no-idr-recovery-sei / analysis-reuse-level=0 / analysis-save-reuse-level=0 / analysis-load-reuse-level=0 / scale-factor=0 / refine-intra=0 / refine-inter=0 / refine-mv=1 / refine-ctu-distortion=0 / no-limit-sao / ctu-info=0 / no-lowpass-dct / refine-analysis-type=0 / copy-pic=1 / max-ausize-factor=1.0 / no-dynamic-refine / no-single-sei / no-hevc-aq / no-svt / no-field / qp-adaptation-range=1.00 / scenecut-aware-qp=0conformance-window-offsets / right=0 / bottom=0 / decoder-max-rate=0 / no-vbv-live-multi-pass
Default                                  : Yes
Forced                                   : No
Color range                              : Limited
Color primaries                          : BT.709
Transfer characteristics                 : BT.709
Matrix coefficients                      : BT.709

Audio
ID                                       : 2
Format                                   : AAC LC
Format/Info                              : Advanced Audio Codec Low Complexity
Codec ID                                 : A_AAC-2
Duration                                 : 1 h 35 min
Channel(s)                               : 6 channels
Channel layout                           : C L R Ls Rs LFE
Sampling rate                            : 48.0 kHz
Frame rate                               : 46.875 FPS (1024 SPF)
Compression mode                         : Lossy
Delay relative to video                  : -43 ms
Title                                    : Surround 5.1
Language                                 : Czech
Default                                  : Yes
Forced                                   : No

Text #1
ID                                       : 3
Format                                   : PGS
Codec ID                                 : S_HDMV/PGS
Codec ID/Info                            : Picture based subtitle format used on BDs/HD-DVDs
Duration                                 : 1 h 35 min
Language                                 : Czech
Default                                  : No
Forced                                   : No

Text #2
ID                                       : 4
Format                                   : PGS
Codec ID                                 : S_HDMV/PGS
Codec ID/Info                            : Picture based subtitle format used on BDs/HD-DVDs
Duration                                 : 1 h 31 min
Language                                 : English
Default                                  : No
Forced                                   : No

Menu
00:00:00.000                             : :Chapter 1
00:05:40.160                             : :Chapter 2
00:16:25.680                             : :Chapter 3
00:27:29.520                             : :Chapter 4
00:36:44.960                             : :Chapter 5
00:46:06.920                             : :Chapter 6
00:53:23.360                             : :Chapter 7
00:58:55.680                             : :Chapter 8
01:06:11.560                             : :Chapter 9
01:12:25.680                             : :Chapter 10
01:17:15.320                             : :Chapter 11
01:24:39.480                             : :Chapter 12

But the remuxed MKV takes up less and the missing data is displayed in InfoMedia:

Code: Select all

General
Unique ID                                : 252479481660556972931035785126696894377 (0xBDF1C7873D5A6F0F2F13FEBD292EBFA9)
Complete name                            : D:\MakeMKV\VPS\Videos\PRIBEH_KMOTRA.mkv
Format                                   : Matroska
Format version                           : Version 4
File size                                : 2.06 GiB
Duration                                 : 1 h 35 min
Overall bit rate                         : 3 101 kb/s
Movie name                               : PRIBEH_KMOTRA
Encoded date                             : UTC 2022-06-23 07:19:36
Writing application                      : mkvmerge v68.0.0 ('The Curtain') 64-bit
Writing library                          : libebml v1.4.2 + libmatroska v1.6.4 / Lavf58.76.100

Video
ID                                       : 1
Format                                   : HEVC
Format/Info                              : High Efficiency Video Coding
Format profile                           : Main 10@L4.1@High
Codec ID                                 : V_MPEGH/ISO/HEVC
Duration                                 : 1 h 35 min
Bit rate                                 : 2 310 kb/s
Width                                    : 1 920 pixels
Height                                   : 804 pixels
Display aspect ratio                     : 2.40:1
Frame rate mode                          : Constant
Frame rate                               : 25.000 FPS
Color space                              : YUV
Chroma subsampling                       : 4:2:0 (Type 0)
Bit depth                                : 10 bits
Bits/(Pixel*Frame)                       : 0.060
Stream size                              : 1.54 GiB (75%)
Writing library                          : x265 3.5+1-f0c1022b6:[Linux][GCC 11.2.0][64 bit] 10bit
Encoding settings                        : cpuid=1111039 / frame-threads=4 / wpp / pmode / no-pme / no-psnr / no-ssim / log-level=2 / input-csp=1 / input-res=1920x804 / interlace=0 / total-frames=0 / level-idc=41 / high-tier=1 / uhd-bd=0 / ref=5 / no-allow-non-conformance / no-repeat-headers / annexb / no-aud / no-hrd / info / hash=0 / no-temporal-layers / open-gop / min-keyint=25 / keyint=250 / gop-lookahead=0 / bframes=8 / b-adapt=2 / b-pyramid / bframe-bias=0 / rc-lookahead=80 / lookahead-slices=0 / scenecut=40 / hist-scenecut=0 / radl=0 / no-splice / no-intra-refresh / ctu=64 / min-cu-size=8 / rect / amp / max-tu-size=32 / tu-inter-depth=4 / tu-intra-depth=4 / limit-tu=0 / rdoq-level=2 / dynamic-rd=0.00 / no-ssim-rd / signhide / tskip / nr-intra=0 / nr-inter=0 / no-constrained-intra / strong-intra-smoothing / max-merge=5 / limit-refs=0 / no-limit-modes / me=3 / subme=7 / merange=48 / temporal-mvp / no-frame-dup / hme / Level / merange / L0,L1,L2=16,32,48 / weightp / weightb / analyze-src-pics / deblock=-1:-1 / sao / no-sao-non-deblock / rd=6 / selective-sao=4 / no-early-skip / no-rskip / no-fast-intra / no-tskip-fast / no-cu-lossless / b-intra / no-splitrd-skip / rdpenalty=0 / psy-rd=2.00 / psy-rdoq=1.00 / no-rd-refine / no-lossless / cbqpoffs=0 / crqpoffs=0 / rc=crf / crf=22.0 / qcomp=0.65 / qpstep=4 / stats-write=0 / stats-read=0 / vbv-maxrate=50000 / vbv-bufsize=50000 / vbv-init=0.9 / min-vbv-fullness=50.0 / max-vbv-fullness=80.0 / crf-max=0.0 / crf-min=0.0 / ipratio=1.40 / pbratio=1.30 / aq-mode=3 / aq-strength=0.80 / cutree / zone-count=0 / no-strict-cbr / qg-size=16 / no-rc-grain / qpmax=45 / qpmin=0 / no-const-vbv / sar=1 / overscan=0 / videoformat=5 / range=0 / colorprim=1 / transfer=1 / colormatrix=1 / chromaloc=1 / chromaloc-top=0 / chromaloc-bottom=0 / display-window=0 / cll=0,0 / min-luma=0 / max-luma=1023 / log2-max-poc-lsb=8 / vui-timing-info / vui-hrd-info / slices=1 / no-opt-qp-pps / no-opt-ref-list-length-pps / no-multi-pass-opt-rps / scenecut-bias=0.05 / hist-threshold=0.03 / no-opt-cu-delta-qp / no-aq-motion / no-hdr10 / no-hdr10-opt / no-dhdr10-opt / no-idr-recovery-sei / analysis-reuse-level=0 / analysis-save-reuse-level=0 / analysis-load-reuse-level=0 / scale-factor=0 / refine-intra=0 / refine-inter=0 / refine-mv=1 / refine-ctu-distortion=0 / no-limit-sao / ctu-info=0 / no-lowpass-dct / refine-analysis-type=0 / copy-pic=1 / max-ausize-factor=1.0 / no-dynamic-refine / no-single-sei / no-hevc-aq / no-svt / no-field / qp-adaptation-range=1.00 / scenecut-aware-qp=0conformance-window-offsets / right=0 / bottom=0 / decoder-max-rate=0 / no-vbv-live-multi-pass
Default                                  : Yes
Forced                                   : No
Color range                              : Limited
Color primaries                          : BT.709
Transfer characteristics                 : BT.709
Matrix coefficients                      : BT.709

Audio
ID                                       : 2
Format                                   : AAC LC
Format/Info                              : Advanced Audio Codec Low Complexity
Codec ID                                 : A_AAC-2
Duration                                 : 1 h 35 min
Bit rate                                 : 768 kb/s
Channel(s)                               : 6 channels
Channel layout                           : C L R Ls Rs LFE
Sampling rate                            : 48.0 kHz
Frame rate                               : 46.875 FPS (1024 SPF)
Compression mode                         : Lossy
Delay relative to video                  : -43 ms
Stream size                              : 523 MiB (25%)
Title                                    : Surround 5.1
Language                                 : Czech
Default                                  : Yes
Forced                                   : No

Text #1
ID                                       : 3
Format                                   : PGS
Muxing mode                              : zlib
Codec ID                                 : S_HDMV/PGS
Codec ID/Info                            : Picture based subtitle format used on BDs/HD-DVDs
Duration                                 : 1 h 33 min
Bit rate                                 : 35.8 kb/s
Count of elements                        : 2214
Stream size                              : 24.0 MiB (1%)
Language                                 : Czech
Default                                  : No
Forced                                   : No

Text #2
ID                                       : 4
Format                                   : PGS
Muxing mode                              : zlib
Codec ID                                 : S_HDMV/PGS
Codec ID/Info                            : Picture based subtitle format used on BDs/HD-DVDs
Duration                                 : 1 h 30 min
Bit rate                                 : 35.5 kb/s
Count of elements                        : 2026
Stream size                              : 23.0 MiB (1%)
Language                                 : English
Default                                  : No
Forced                                   : No

Menu
00:00:00.000                             : :Chapter 1
00:05:40.160                             : :Chapter 2
00:16:25.680                             : :Chapter 3
00:27:29.520                             : :Chapter 4
00:36:44.960                             : :Chapter 5
00:46:06.920                             : :Chapter 6
00:53:23.360                             : :Chapter 7
00:58:55.680                             : :Chapter 8
01:06:11.560                             : :Chapter 9
01:12:25.680                             : :Chapter 10
01:17:15.320                             : :Chapter 11
01:24:39.480                             : :Chapter 12

Thank you very much in advance for clearing up the mystery of why the MKV file from HandBrake is strange compared to when I then remux it via MKVToolNix.




Steps to reproduce the problem (If Applicable):




HandBrake version (e.g., 1.0.0):
1.5.1



Operating system and version (e.g., Ubuntu 16.04 LTS, macOS 10.13 High Sierra, Windows 10 Creators Update):
All Ubuntu 22.04 TLS, Windows 10 Professional and Windows 11 Professional.
rollin_eng
Veteran User
Posts: 4378
Joined: Wed May 04, 2011 11:06 pm

Re: MKV from HandBrake is larger and has less readable metadata.

Post by rollin_eng »

Could you please post your HB logs, instructions can be found here:

https://handbrake.fr/docs/en/latest/hel ... y-log.html
Boris911
Posts: 8
Joined: Sat Apr 23, 2022 10:59 am

Re: MKV from HandBrake is larger and has less readable metadata.

Post by Boris911 »

rollin_eng wrote: Thu Jun 23, 2022 11:01 am Could you please post your HB logs, instructions can be found here:

https://handbrake.fr/docs/en/latest/hel ... y-log.html

Code: Select all

Handbrake Version: 1.5.1 (2022062000)

(ghb:1842): Gtk-WARNING **: 22:05:15.336: Calling org.xfce.Session.Manager.Inhibit failed: GDBus.Error:org.freedesktop.DBus.Error.UnknownMethod: No such method “Inhibit”
[22:05:15] gtkgui: Modified Custom Preset: /Matroska/H.265 MKV FDK-AAC Boris911
[22:05:15] Starting work at: Mon Jun 20 22:05:15 2022

[22:05:15] 1 job(s) to process
[22:05:15] json job:
{
    "Audio": {
        "AudioList": [
            {
                "Bitrate": 768,
                "CompressionLevel": -1.0,
                "DRC": 0.0,
                "DitherMethod": "auto",
                "Encoder": "fdk_aac",
                "Gain": 0.0,
                "Mixdown": "5point1",
                "Name": "Surround 5.1",
                "NormalizeMixLevel": false,
                "PresetEncoder": "fdk_aac",
                "Quality": -3.0,
                "Samplerate": 0,
                "Track": 0
            }
        ],
        "CopyMask": [],
        "FallbackEncoder": "fdk_aac"
    },
    "Destination": {
        "AlignAVStart": false,
        "ChapterList": [
            {
                "Duration": {
                    "Hours": 0,
                    "Minutes": 5,
                    "Seconds": 40,
                    "Ticks": 30614400
                },
                "Name": "Chapter 1"
            },
            {
                "Duration": {
                    "Hours": 0,
                    "Minutes": 10,
                    "Seconds": 46,
                    "Ticks": 58096800
                },
                "Name": "Chapter 2"
            },
            {
                "Duration": {
                    "Hours": 0,
                    "Minutes": 11,
                    "Seconds": 4,
                    "Ticks": 59745600
                },
                "Name": "Chapter 3"
            },
            {
                "Duration": {
                    "Hours": 0,
                    "Minutes": 9,
                    "Seconds": 15,
                    "Ticks": 49989600
                },
                "Name": "Chapter 4"
            },
            {
                "Duration": {
                    "Hours": 0,
                    "Minutes": 9,
                    "Seconds": 22,
                    "Ticks": 50576400
                },
                "Name": "Chapter 5"
            },
            {
                "Duration": {
                    "Hours": 0,
                    "Minutes": 7,
                    "Seconds": 16,
                    "Ticks": 39279600
                },
                "Name": "Chapter 6"
            },
            {
                "Duration": {
                    "Hours": 0,
                    "Minutes": 5,
                    "Seconds": 32,
                    "Ticks": 29908800
                },
                "Name": "Chapter 7"
            },
            {
                "Duration": {
                    "Hours": 0,
                    "Minutes": 7,
                    "Seconds": 16,
                    "Ticks": 39229200
                },
                "Name": "Chapter 8"
            },
            {
                "Duration": {
                    "Hours": 0,
                    "Minutes": 6,
                    "Seconds": 14,
                    "Ticks": 33670800
                },
                "Name": "Chapter 9"
            },
            {
                "Duration": {
                    "Hours": 0,
                    "Minutes": 4,
                    "Seconds": 50,
                    "Ticks": 26067600
                },
                "Name": "Chapter 10"
            },
            {
                "Duration": {
                    "Hours": 0,
                    "Minutes": 7,
                    "Seconds": 24,
                    "Ticks": 39974400
                },
                "Name": "Chapter 11"
            },
            {
                "Duration": {
                    "Hours": 0,
                    "Minutes": 10,
                    "Seconds": 30,
                    "Ticks": 56700180
                },
                "Name": "Chapter 12"
            }
        ],
        "ChapterMarkers": true,
        "File": "/home/boris911/Videos/PRIBEH_KMOTRA_t00.mkv",
        "InlineParameterSets": false,
        "Mp4Options": {
            "IpodAtom": false,
            "Mp4Optimize": false
        },
        "Mux": "mkv"
    },
    "Filters": {
        "FilterList": [
            {
                "ID": 3,
                "Settings": {
                    "block-height": "16",
                    "block-thresh": "40",
                    "block-width": "16",
                    "filter-mode": "2",
                    "mode": "3",
                    "motion-thresh": "1",
                    "spatial-metric": "2",
                    "spatial-thresh": "1"
                }
            },
            {
                "ID": 4,
                "Settings": {
                    "mode": "15"
                }
            },
            {
                "ID": 6,
                "Settings": {
                    "mode": 1
                }
            },
            {
                "ID": 13,
                "Settings": {
                    "crop-bottom": 138,
                    "crop-left": 0,
                    "crop-right": 0,
                    "crop-top": 138,
                    "height": 804,
                    "width": 1920
                }
            }
        ]
    },
    "Metadata": {
        "Name": "PRIBEH_KMOTRA"
    },
    "PAR": {
        "Den": 1,
        "Num": 1
    },
    "SequenceID": 0,
    "Source": {
        "Angle": 0,
        "Path": "/home/boris911/MakeMKV/PRIBEH_KMOTRA_t00.mkv",
        "Range": {
            "End": 12,
            "Start": 1,
            "Type": "chapter"
        },
        "Title": 1
    },
    "Subtitle": {
        "Search": {
            "Burn": true,
            "Default": false,
            "Enable": false,
            "Forced": false
        },
        "SubtitleList": [
            {
                "Burn": false,
                "Default": false,
                "Forced": false,
                "Track": 0
            },
            {
                "Burn": false,
                "Default": false,
                "Forced": false,
                "Track": 1
            }
        ]
    },
    "Video": {
        "ChromaLocation": 1,
        "ColorInputFormat": 0,
        "ColorMatrix": 1,
        "ColorOutputFormat": 0,
        "ColorPrimaries": 1,
        "ColorRange": 1,
        "ColorTransfer": 1,
        "Encoder": "x265_10bit",
        "Level": "4.1",
        "Options": "aq-mode=3:qg-size=16:aq-strength=0.8:qcomp=0.65:weightb=1:qpmax=45:subme=7:analyze-src-pics=1:bframes=8:rc-lookahead=80:ref=5:keyint=250:pmode=1:deblock=-1,-1:hme=1:hme-search=star,star,star",
        "Preset": "placebo",
        "Profile": "main10",
        "QSV": {
            "AdapterIndex": 0,
            "AsyncDepth": 0,
            "Decode": false
        },
        "Quality": 22.0,
        "Tune": "",
        "Turbo": false,
        "TwoPass": false
    }
}
[22:05:15] CPU: 
[22:05:15]  - logical processor count: 16
[22:05:15] hb_scan: path=/home/boris911/MakeMKV/PRIBEH_KMOTRA_t00.mkv, title_index=1
udfread ERROR: ECMA 167 Volume Recognition failed
disc.c:333: failed opening UDF image /home/boris911/MakeMKV/PRIBEH_KMOTRA_t00.mkv
disc.c:437: error opening file BDMV/index.bdmv
disc.c:437: error opening file BDMV/BACKUP/index.bdmv
bluray.c:2646: nav_get_title_list(/home/boris911/MakeMKV/PRIBEH_KMOTRA_t00.mkv/) failed
[22:05:15] bd: not a bd - trying as a stream/file instead
libdvdread: DVDOpenFileUDF:UDFFindFile /VIDEO_TS/VIDEO_TS.IFO failed
libdvdnav: vm: vm: failed to read VIDEO_TS.IFO
[22:05:15] dvd: not a dvd - trying as a stream/file instead
Input #0, matroska,webm, from '/home/boris911/MakeMKV/PRIBEH_KMOTRA_t00.mkv':
  Metadata:
    title           : PRIBEH_KMOTRA
    encoder         : libmakemkv v1.16.7 (1.3.10/1.5.2) win(x64-release)
    creation_time   : 2022-06-20T08:21:24.000000Z
  Duration: 01:35:09.48, start: 0.000000, bitrate: 31849 kb/s
  Chapters:
    Chapter #0:0: start 0.000000, end 340.160000
      Metadata:
        title           : Chapter 01
    Chapter #0:1: start 340.160000, end 985.680000
      Metadata:
        title           : Chapter 02
    Chapter #0:2: start 985.680000, end 1649.520000
      Metadata:
        title           : Chapter 03
    Chapter #0:3: start 1649.520000, end 2204.960000
      Metadata:
        title           : Chapter 04
    Chapter #0:4: start 2204.960000, end 2766.920000
      Metadata:
        title           : Chapter 05
    Chapter #0:5: start 2766.920000, end 3203.360000
      Metadata:
        title           : Chapter 06
    Chapter #0:6: start 3203.360000, end 3535.680000
      Metadata:
        title           : Chapter 07
    Chapter #0:7: start 3535.680000, end 3971.560000
      Metadata:
        title           : Chapter 08
    Chapter #0:8: start 3971.560000, end 4345.680000
      Metadata:
        title           : Chapter 09
    Chapter #0:9: start 4345.680000, end 4635.320000
      Metadata:
        title           : Chapter 10
    Chapter #0:10: start 4635.320000, end 5079.480000
      Metadata:
        title           : Chapter 11
    Chapter #0:11: start 5079.480000, end 5709.482667
      Metadata:
        title           : Chapter 12
  Stream #0:0(eng): Video: h264 (High), yuv420p(tv, bt709, top first), 1920x1080 [SAR 1:1 DAR 16:9], 25 fps, 25 tbr, 1k tbn, 50 tbc
    Metadata:
      BPS-eng         : 29965265
      DURATION-eng    : 01:35:09.480000000
      NUMBER_OF_FRAMES-eng: 142737
      NUMBER_OF_BYTES-eng: 21385760191
      SOURCE_ID-eng   : 001011
      _STATISTICS_WRITING_APP-eng: MakeMKV v1.16.7 win(x64-release)
      _STATISTICS_WRITING_DATE_UTC-eng: 2022-06-20 08:21:24
      _STATISTICS_TAGS-eng: BPS DURATION NUMBER_OF_FRAMES NUMBER_OF_BYTES SOURCE_ID
  Stream #0:1(ces): Audio: dts (DTS-HD MA), 48000 Hz, 5.1(side), s16p (default)
    Metadata:
      title           : Surround 5.1
      BPS-eng         : 1811474
      DURATION-eng    : 01:35:09.482666666
      NUMBER_OF_FRAMES-eng: 535264
      NUMBER_OF_BYTES-eng: 1292822920
      SOURCE_ID-eng   : 001100
      _STATISTICS_WRITING_APP-eng: MakeMKV v1.16.7 win(x64-release)
      _STATISTICS_WRITING_DATE_UTC-eng: 2022-06-20 08:21:24
      _STATISTICS_TAGS-eng: BPS DURATION NUMBER_OF_FRAMES NUMBER_OF_BYTES SOURCE_ID
  Stream #0:2(ces): Subtitle: hdmv_pgs_subtitle
    Metadata:
      BPS-eng         : 35758
      DURATION-eng    : 01:33:50.900000000
      NUMBER_OF_FRAMES-eng: 2214
      NUMBER_OF_BYTES-eng: 25168968
      SOURCE_ID-eng   : 001201
      _STATISTICS_WRITING_APP-eng: MakeMKV v1.16.7 win(x64-release)
      _STATISTICS_WRITING_DATE_UTC-eng: 2022-06-20 08:21:24
      _STATISTICS_TAGS-eng: BPS DURATION NUMBER_OF_FRAMES NUMBER_OF_BYTES SOURCE_ID
  Stream #0:3(eng): Subtitle: hdmv_pgs_subtitle
    Metadata:
      BPS-eng         : 35524
      DURATION-eng    : 01:30:34.020000000
      NUMBER_OF_FRAMES-eng: 2026
      NUMBER_OF_BYTES-eng: 24130236
      SOURCE_ID-eng   : 001200
      _STATISTICS_WRITING_APP-eng: MakeMKV v1.16.7 win(x64-release)
      _STATISTICS_WRITING_DATE_UTC-eng: 2022-06-20 08:21:24
      _STATISTICS_TAGS-eng: BPS DURATION NUMBER_OF_FRAMES NUMBER_OF_BYTES SOURCE_ID
[22:05:15] scan: decoding previews for title 1
[22:05:15] scan: audio 0x1: dca, rate=48000Hz, bitrate=1 čeština (DTS-HD MA) (5.1 ch)
[22:05:16] scan: 10 previews, 1920x1080, 25.000 fps, autocrop = 138/138/0/0, aspect 16:9, PAR 1:1, color profile: 1-1-1, chroma location: left
[22:05:16] libhb: scan thread found 1 valid title(s)
[22:05:16] Starting Task: Encoding Pass
[22:05:16] job configuration:
[22:05:16]  * source
[22:05:16]    + /home/boris911/MakeMKV/PRIBEH_KMOTRA_t00.mkv
[22:05:16]    + title 1, chapter(s) 1 to 12
[22:05:16]    + container: matroska,webm
[22:05:16]    + data rate: 31849 kbps
[22:05:16]  * destination
[22:05:16]    + /home/boris911/Videos/PRIBEH_KMOTRA_t00.mkv
[22:05:16]    + container: Matroska (libavformat)
[22:05:16]      + chapter markers
[22:05:16]  * video track
[22:05:16]    + decoder: h264 8-bit (yuv420p)
[22:05:16]    + filters
[22:05:16]      + Comb Detect (mode=3:spatial-metric=2:motion-thresh=1:spatial-thresh=1:filter-mode=2:block-thresh=40:block-width=16:block-height=16)
[22:05:16]      + Decomb (mode=47)
[22:05:16]      + Framerate Shaper (mode=1)
[22:05:16]        + frame rate: 25.000 fps -> constant 25.000 fps
[22:05:16]      + Crop and Scale (width=1920:height=804:crop-top=138:crop-bottom=138:crop-left=0:crop-right=0)
[22:05:16]        + source: 1920 * 1080, crop (138/138/0/0): 1920 * 804, scale: 1920 * 804
[22:05:16]    + Output geometry
[22:05:16]      + storage dimensions: 1920 x 804
[22:05:16]      + pixel aspect ratio: 1 : 1
[22:05:16]      + display dimensions: 1920 x 804
[22:05:16]    + encoder: H.265 10-bit (libx265)
[22:05:16]      + preset:  placebo
[22:05:16]      + options: aq-mode=3:qg-size=16:aq-strength=0.8:qcomp=0.65:weightb=1:qpmax=45:subme=7:analyze-src-pics=1:bframes=8:rc-lookahead=80:ref=5:keyint=250:pmode=1:deblock=-1,-1:hme=1:hme-search=star,star,star
[22:05:16]      + profile: main10
[22:05:16]      + level:   4.1
[22:05:16]      + quality: 22.00 (RF)
[22:05:16]      + color profile: 1-1-1
[22:05:16]      + chroma location: left
[22:05:16]  * subtitle track 1, čeština [PGS] (track 0, id 0x2, Picture) -> Passthrough
[22:05:16]  * subtitle track 2, English [PGS] (track 1, id 0x3, Picture) -> Passthrough
[22:05:16]  * audio track 1
[22:05:16]    + name: Surround 5.1
[22:05:16]    + decoder: čeština (DTS-HD MA) (5.1 ch) (track 1, id 0x1)
[22:05:16]      + samplerate: 48000 Hz
[22:05:16]    + mixdown: 5.1 Channels
[22:05:16]    + encoder: AAC (libfdk_aac)
[22:05:16]      + bitrate: 768 kbps, samplerate: 48000 Hz
[22:05:16] sync: expecting 142737 video frames
x265 [info]: HEVC encoder version 3.5+1-f0c1022b6
x265 [info]: build info [Linux][GCC 11.2.0][64 bit] 10bit
x265 [info]: using cpu capabilities: MMX2 SSE2Fast LZCNT SSSE3 SSE4.2 AVX FMA3 BMI2 AVX2
x265 [warning]: Specifying a decoder level with constant rate factor rate-control requires
x265 [warning]: enabling VBV with vbv-bufsize=50000kb vbv-maxrate=50000kbps. VBV outputs are non-deterministic!
x265 [info]: Main 10 profile, Level-4.1 (High tier)
x265 [info]: Thread pool created using 16 threads
x265 [info]: Slices                              : 1
x265 [info]: frame threads / pool features       : 4 / wpp(13 rows)+pmode
x265 [info]: Coding QT: max CU size, min CU size : 64 / 8
x265 [info]: Residual QT: max TU size, max depth : 32 / 4 inter / 4 intra
x265 [info]: HME L0,1,2 / range / subpel / merge : star, star, star / 48 / 7 / 5
x265 [info]: Keyframe min / max / scenecut / bias  : 25 / 250 / 40 / 5.00 
x265 [info]: Lookahead / bframes / badapt        : 80 / 8 / 2
x265 [info]: b-pyramid / weightp / weightb       : 1 / 1 / 1
x265 [info]: References / ref-limit  cu / depth  : 5 / off / off
x265 [info]: AQ: mode / str / qg-size / cu-tree  : 3 / 0.8 / 16 / 1
x265 [info]: Rate Control / qCompress            : CRF-22.0 / 0.65
x265 [info]: VBV/HRD buffer / max-rate / init    : 50000 / 50000 / 0.900
x265 [info]: tools: rect amp rd=6 psy-rd=2.00 rdoq=2 psy-rdoq=1.00 tskip
x265 [info]: tools: signhide tmvp b-intra strong-intra-smoothing
x265 [info]: tools: deblock(tC=-1:B=-1) sao
[22:05:16] sync: first pts video is 0
[22:05:16] sync: "Chapter 1" (1) at frame 1 time 0
[22:05:16] sync: first pts audio 0x1 is 0
[22:05:40] decomb: deinterlaced 1 | blended 0 | unfiltered 0 | total 1
[22:05:41] decomb: deinterlaced 1 | blended 0 | unfiltered 0 | total 1
[22:16:03] sync: first pts subtitle 0x3 is 3600000
[22:45:41] sync: first pts subtitle 0x2 is 7002000
[23:04:36] CPU: 
[23:04:36]  - logical processor count: 16
[23:04:36] hb_scan: path=/home/boris911/MakeMKV/Advokátka Věra.mkv, title_index=0
udfread ERROR: ECMA 167 Volume Recognition failed
disc.c:333: failed opening UDF image /home/boris911/MakeMKV/Advokátka Věra.mkv
disc.c:437: error opening file BDMV/index.bdmv
disc.c:437: error opening file BDMV/BACKUP/index.bdmv
bluray.c:2646: nav_get_title_list(/home/boris911/MakeMKV/Advokátka Věra.mkv/) failed
[23:04:36] bd: not a bd - trying as a stream/file instead
libdvdread: DVDOpenFileUDF:UDFFindFile /VIDEO_TS/VIDEO_TS.IFO failed
libdvdnav: vm: vm: failed to read VIDEO_TS.IFO
[23:04:36] dvd: not a dvd - trying as a stream/file instead
Input #0, matroska,webm, from '/home/boris911/MakeMKV/Advokátka Věra.mkv':
  Metadata:
    encoder         : libmakemkv v1.16.7 (1.3.10/1.5.2) win(x64-release)
    creation_time   : 2022-06-18T15:30:08.000000Z
  Duration: 01:18:43.00, start: 0.000000, bitrate: 6244 kb/s
  Chapters:
    Chapter #0:0: start 0.000000, end 390.000000
      Metadata:
        title           : Chapter 01
    Chapter #0:1: start 390.000000, end 778.760000
      Metadata:
        title           : Chapter 02
    Chapter #0:2: start 778.760000, end 1397.680000
      Metadata:
        title           : Chapter 03
    Chapter #0:3: start 1397.680000, end 1761.920000
      Metadata:
        title           : Chapter 04
    Chapter #0:4: start 1761.920000, end 2345.760000
      Metadata:
        title           : Chapter 05
    Chapter #0:5: start 2345.760000, end 2758.720000
      Metadata:
        title           : Chapter 06
    Chapter #0:6: start 2758.720000, end 3133.760000
      Metadata:
        title           : Chapter 07
    Chapter #0:7: start 3133.760000, end 3578.800000
      Metadata:
        title           : Chapter 08
    Chapter #0:8: start 3578.800000, end 4109.880000
      Metadata:
        title           : Chapter 09
    Chapter #0:9: start 4109.880000, end 4723.000000
      Metadata:
        title           : Chapter 10
  Stream #0:0(eng): Video: mpeg2video (Main), yuv420p(tv, top first), 720x576 [SAR 16:15 DAR 4:3], 25 fps, 25 tbr, 1k tbn, 50 tbc
    Metadata:
      BPS-eng         : 6009820
      DURATION-eng    : 01:18:43.000000000
      NUMBER_OF_FRAMES-eng: 118075
      NUMBER_OF_BYTES-eng: 3548047548
      SOURCE_ID-eng   : 0100E0
      _STATISTICS_WRITING_APP-eng: MakeMKV v1.16.7 win(x64-release)
      _STATISTICS_WRITING_DATE_UTC-eng: 2022-06-18 15:30:08
      _STATISTICS_TAGS-eng: BPS DURATION NUMBER_OF_FRAMES NUMBER_OF_BYTES SOURCE_ID
    Side data:
      cpb: bitrate max/min/avg: 9800000/0/0 buffer size: 1835008 vbv_delay: N/A
  Stream #0:1(cze): Audio: ac3, 48000 Hz, stereo, fltp, 224 kb/s (default)
    Metadata:
      title           : Stereo
      BPS-eng         : 224000
      DURATION-eng    : 01:18:42.976000000
      NUMBER_OF_FRAMES-eng: 147593
      NUMBER_OF_BYTES-eng: 132243328
      SOURCE_ID-eng   : 0180BD
      _STATISTICS_WRITING_APP-eng: MakeMKV v1.16.7 win(x64-release)
      _STATISTICS_WRITING_DATE_UTC-eng: 2022-06-18 15:30:08
      _STATISTICS_TAGS-eng: BPS DURATION NUMBER_OF_FRAMES NUMBER_OF_BYTES SOURCE_ID
  Stream #0:2(cze): Subtitle: dvd_subtitle, 720x576 (default)
    Metadata:
      BPS-eng         : 5106
      DURATION-eng    : 01:18:28.473422222
      NUMBER_OF_FRAMES-eng: 803
      NUMBER_OF_BYTES-eng: 3005616
      SOURCE_ID-eng   : 0120BD
      _STATISTICS_WRITING_APP-eng: MakeMKV v1.16.7 win(x64-release)
      _STATISTICS_WRITING_DATE_UTC-eng: 2022-06-18 15:30:08
      _STATISTICS_TAGS-eng: BPS DURATION NUMBER_OF_FRAMES NUMBER_OF_BYTES SOURCE_ID
[23:04:36] scan: decoding previews for title 1
[23:04:36] scan: audio 0x1: ac3, rate=48000Hz, bitrate=224000 čeština (AC3) (2.0 ch) (224 kbps)
[23:04:36] scan: 10 previews, 720x576, 25.000 fps, autocrop = 0/0/0/0, aspect 4:3, PAR 16:15, color profile: 5-1-6, chroma location: left
[23:04:36] libhb: scan thread found 1 valid title(s)
[23:04:36] decomb: deinterlaced 1 | blended 0 | unfiltered 0 | total 1
[23:04:36] decomb: deinterlaced 1 | blended 0 | unfiltered 0 | total 1
[23:04:36] decomb: deinterlaced 1 | blended 0 | unfiltered 0 | total 1
[23:04:46] decomb: deinterlaced 1 | blended 0 | unfiltered 0 | total 1
[23:06:20] CPU: 
[23:06:20]  - logical processor count: 16
[23:06:20] hb_scan: path=/home/boris911/MakeMKV/Kristian.mkv, title_index=0
udfread ERROR: ECMA 167 Volume Recognition failed
disc.c:333: failed opening UDF image /home/boris911/MakeMKV/Kristian.mkv
disc.c:437: error opening file BDMV/index.bdmv
disc.c:437: error opening file BDMV/BACKUP/index.bdmv
bluray.c:2646: nav_get_title_list(/home/boris911/MakeMKV/Kristian.mkv/) failed
[23:06:20] bd: not a bd - trying as a stream/file instead
libdvdread: DVDOpenFileUDF:UDFFindFile /VIDEO_TS/VIDEO_TS.IFO failed
libdvdnav: vm: vm: failed to read VIDEO_TS.IFO
[23:06:20] dvd: not a dvd - trying as a stream/file instead
Input #0, matroska,webm, from '/home/boris911/MakeMKV/Kristian.mkv':
  Metadata:
    encoder         : libmakemkv v1.16.7 (1.3.10/1.5.2) win(x64-release)
    creation_time   : 2022-06-18T16:09:10.000000Z
  Duration: 01:34:32.64, start: 0.000000, bitrate: 3710 kb/s
  Chapters:
    Chapter #0:0: start 0.000000, end 219.200000
      Metadata:
        title           : Chapter 01
    Chapter #0:1: start 219.200000, end 772.480000
      Metadata:
        title           : Chapter 02
    Chapter #0:2: start 772.480000, end 1246.240000
      Metadata:
        title           : Chapter 03
    Chapter #0:3: start 1246.240000, end 1579.720000
      Metadata:
        title           : Chapter 04
    Chapter #0:4: start 1579.720000, end 1853.400000
      Metadata:
        title           : Chapter 05
    Chapter #0:5: start 1853.400000, end 2194.120000
      Metadata:
        title           : Chapter 06
    Chapter #0:6: start 2194.120000, end 2585.560000
      Metadata:
        title           : Chapter 07
    Chapter #0:7: start 2585.560000, end 2836.920000
      Metadata:
        title           : Chapter 08
    Chapter #0:8: start 2836.920000, end 3212.640000
      Metadata:
        title           : Chapter 09
    Chapter #0:9: start 3212.640000, end 3761.040000
      Metadata:
        title           : Chapter 10
    Chapter #0:10: start 3761.040000, end 4137.640000
      Metadata:
        title           : Chapter 11
    Chapter #0:11: start 4137.640000, end 4615.280000
      Metadata:
        title           : Chapter 12
    Chapter #0:12: start 4615.280000, end 4730.320000
      Metadata:
        title           : Chapter 13
    Chapter #0:13: start 4730.320000, end 5088.600000
      Metadata:
        title           : Chapter 14
    Chapter #0:14: start 5088.600000, end 5459.840000
      Metadata:
        title           : Chapter 15
    Chapter #0:15: start 5459.840000, end 5672.640000
      Metadata:
        title           : Chapter 16
  Stream #0:0(eng): Video: mpeg2video (Main), yuv420p(tv, smpte170m/bt470bg/bt470bg, top first), 720x576 [SAR 16:15 DAR 4:3], 25 fps, 25 tbr, 1k tbn, 50 tbc
    Metadata:
      BPS-eng         : 3503294
      DURATION-eng    : 01:34:32.640000000
      NUMBER_OF_FRAMES-eng: 141816
      NUMBER_OF_BYTES-eng: 2484116248
      SOURCE_ID-eng   : 0100E0
      _STATISTICS_WRITING_APP-eng: MakeMKV v1.16.7 win(x64-release)
      _STATISTICS_WRITING_DATE_UTC-eng: 2022-06-18 16:09:10
      _STATISTICS_TAGS-eng: BPS DURATION NUMBER_OF_FRAMES NUMBER_OF_BYTES SOURCE_ID
    Side data:
      cpb: bitrate max/min/avg: 8200000/0/0 buffer size: 1835008 vbv_delay: N/A
  Stream #0:1(cze): Audio: ac3, 48000 Hz, stereo, fltp, 192 kb/s (default)
    Metadata:
      title           : Stereo
      BPS-eng         : 192000
      DURATION-eng    : 01:34:32.672000000
      NUMBER_OF_FRAMES-eng: 177271
      NUMBER_OF_BYTES-eng: 136144128
      SOURCE_ID-eng   : 0180BD
      _STATISTICS_WRITING_APP-eng: MakeMKV v1.16.7 win(x64-release)
      _STATISTICS_WRITING_DATE_UTC-eng: 2022-06-18 16:09:10
      _STATISTICS_TAGS-eng: BPS DURATION NUMBER_OF_FRAMES NUMBER_OF_BYTES SOURCE_ID
  Stream #0:2(cze): Subtitle: dvd_subtitle, 720x576 (default)
    Metadata:
      BPS-eng         : 5860
      DURATION-eng    : 01:32:13.438933333
      NUMBER_OF_FRAMES-eng: 1324
      NUMBER_OF_BYTES-eng: 4053296
      SOURCE_ID-eng   : 0120BD
      _STATISTICS_WRITING_APP-eng: MakeMKV v1.16.7 win(x64-release)
      _STATISTICS_WRITING_DATE_UTC-eng: 2022-06-18 16:09:10
      _STATISTICS_TAGS-eng: BPS DURATION NUMBER_OF_FRAMES NUMBER_OF_BYTES SOURCE_ID
  Stream #0:3(eng): Subtitle: dvd_subtitle, 720x576
    Metadata:
      BPS-eng         : 4410
      DURATION-eng    : 01:34:25.398755555
      NUMBER_OF_FRAMES-eng: 1323
      NUMBER_OF_BYTES-eng: 3123152
      SOURCE_ID-eng   : 0121BD
      _STATISTICS_WRITING_APP-eng: MakeMKV v1.16.7 win(x64-release)
      _STATISTICS_WRITING_DATE_UTC-eng: 2022-06-18 16:09:10
      _STATISTICS_TAGS-eng: BPS DURATION NUMBER_OF_FRAMES NUMBER_OF_BYTES SOURCE_ID
[23:06:20] scan: decoding previews for title 1
[23:06:20] scan: audio 0x1: ac3, rate=48000Hz, bitrate=192000 čeština (AC3) (2.0 ch) (192 kbps)
[23:06:20] scan: 10 previews, 720x576, 25.000 fps, autocrop = 0/0/14/8, aspect 4:3, PAR 16:15, color profile: 5-5-6, chroma location: left
[23:06:20] libhb: scan thread found 1 valid title(s)
[23:06:20] decomb: deinterlaced 1 | blended 0 | unfiltered 0 | total 1
[23:06:20] decomb: deinterlaced 1 | blended 0 | unfiltered 0 | total 1
[23:06:29] decomb: deinterlaced 1 | blended 0 | unfiltered 0 | total 1
[23:06:29] decomb: deinterlaced 1 | blended 0 | unfiltered 0 | total 1
[23:06:59] CPU: 
[23:06:59]  - logical processor count: 16
[23:06:59] hb_scan: path=/home/boris911/MakeMKV/Largo Winch.mkv, title_index=0
udfread ERROR: ECMA 167 Volume Recognition failed
disc.c:333: failed opening UDF image /home/boris911/MakeMKV/Largo Winch.mkv
disc.c:437: error opening file BDMV/index.bdmv
disc.c:437: error opening file BDMV/BACKUP/index.bdmv
bluray.c:2646: nav_get_title_list(/home/boris911/MakeMKV/Largo Winch.mkv/) failed
[23:06:59] bd: not a bd - trying as a stream/file instead
libdvdread: DVDOpenFileUDF:UDFFindFile /VIDEO_TS/VIDEO_TS.IFO failed
libdvdnav: vm: vm: failed to read VIDEO_TS.IFO
[23:06:59] dvd: not a dvd - trying as a stream/file instead
Input #0, matroska,webm, from '/home/boris911/MakeMKV/Largo Winch.mkv':
  Metadata:
    encoder         : libmakemkv v1.16.7 (1.3.10/1.5.2) win(x64-release)
    creation_time   : 2022-06-19T16:47:01.000000Z
  Duration: 01:44:22.00, start: 0.000000, bitrate: 7918 kb/s
  Chapters:
    Chapter #0:0: start 0.000000, end 734.440000
      Metadata:
        title           : Chapter 01
    Chapter #0:1: start 734.440000, end 1190.880000
      Metadata:
        title           : Chapter 02
    Chapter #0:2: start 1190.880000, end 1842.800000
      Metadata:
        title           : Chapter 03
    Chapter #0:3: start 1842.800000, end 2319.440000
      Metadata:
        title           : Chapter 04
    Chapter #0:4: start 2319.440000, end 2824.080000
      Metadata:
        title           : Chapter 05
    Chapter #0:5: start 2824.080000, end 3299.840000
      Metadata:
        title           : Chapter 06
    Chapter #0:6: start 3299.840000, end 3874.280000
      Metadata:
        title           : Chapter 07
    Chapter #0:7: start 3874.280000, end 4342.040000
      Metadata:
        title           : Chapter 08
    Chapter #0:8: start 4342.040000, end 5098.560000
      Metadata:
        title           : Chapter 09
    Chapter #0:9: start 5098.560000, end 5616.800000
      Metadata:
        title           : Chapter 10
    Chapter #0:10: start 5616.800000, end 5908.880000
      Metadata:
        title           : Chapter 11
    Chapter #0:11: start 5908.880000, end 6262.000000
      Metadata:
        title           : Chapter 12
  Stream #0:0(eng): Video: mpeg2video (Main), yuv420p(tv, top first), 720x576 [SAR 64:45 DAR 16:9], 25 fps, 25 tbr, 1k tbn, 50 tbc
    Metadata:
      BPS-eng         : 7013901
      DURATION-eng    : 01:44:22.000000000
      NUMBER_OF_FRAMES-eng: 156550
      NUMBER_OF_BYTES-eng: 5490131504
      SOURCE_ID-eng   : 0100E0
      _STATISTICS_WRITING_APP-eng: MakeMKV v1.16.7 win(x64-release)
      _STATISTICS_WRITING_DATE_UTC-eng: 2022-06-19 16:47:01
      _STATISTICS_TAGS-eng: BPS DURATION NUMBER_OF_FRAMES NUMBER_OF_BYTES SOURCE_ID
    Side data:
      cpb: bitrate max/min/avg: 9800000/0/0 buffer size: 1835008 vbv_delay: N/A
  Stream #0:1(cze): Audio: ac3, 48000 Hz, 5.1(side), fltp, 448 kb/s (default)
    Metadata:
      title           : Surround 5.1
      BPS-eng         : 448000
      DURATION-eng    : 01:44:21.952000000
      NUMBER_OF_FRAMES-eng: 195686
      NUMBER_OF_BYTES-eng: 350669312
      SOURCE_ID-eng   : 0180BD
      _STATISTICS_WRITING_APP-eng: MakeMKV v1.16.7 win(x64-release)
      _STATISTICS_WRITING_DATE_UTC-eng: 2022-06-19 16:47:01
      _STATISTICS_TAGS-eng: BPS DURATION NUMBER_OF_FRAMES NUMBER_OF_BYTES SOURCE_ID
  Stream #0:2(eng): Audio: ac3, 48000 Hz, 5.1(side), fltp, 448 kb/s
    Metadata:
      title           : Surround 5.1
      BPS-eng         : 448000
      DURATION-eng    : 01:44:21.952000000
      NUMBER_OF_FRAMES-eng: 195686
      NUMBER_OF_BYTES-eng: 350669312
      SOURCE_ID-eng   : 0181BD
      _STATISTICS_WRITING_APP-eng: MakeMKV v1.16.7 win(x64-release)
      _STATISTICS_WRITING_DATE_UTC-eng: 2022-06-19 16:47:01
      _STATISTICS_TAGS-eng: BPS DURATION NUMBER_OF_FRAMES NUMBER_OF_BYTES SOURCE_ID
  Stream #0:3(cze): Subtitle: dvd_subtitle, 720x576 (default)
    Metadata:
      BPS-eng         : 3142
      DURATION-eng    : 01:38:02.474844444
      NUMBER_OF_FRAMES-eng: 754
      NUMBER_OF_BYTES-eng: 2311040
      SOURCE_ID-eng   : 0121BD
      _STATISTICS_WRITING_APP-eng: MakeMKV v1.16.7 win(x64-release)
      _STATISTICS_WRITING_DATE_UTC-eng: 2022-06-19 16:47:01
      _STATISTICS_TAGS-eng: BPS DURATION NUMBER_OF_FRAMES NUMBER_OF_BYTES SOURCE_ID
[23:06:59] scan: decoding previews for title 1
[23:06:59] scan: audio 0x1: ac3, rate=48000Hz, bitrate=448000 čeština (AC3) (5.1 ch) (448 kbps)
[23:06:59] scan: audio 0x2: ac3, rate=48000Hz, bitrate=448000 English (AC3) (5.1 ch) (448 kbps)
[23:06:59] scan: 10 previews, 720x576, 25.000 fps, autocrop = 12/12/0/0, aspect 16:9, PAR 64:45, color profile: 5-1-6, chroma location: left
[23:06:59] libhb: scan thread found 1 valid title(s)
[23:07:00] decomb: deinterlaced 1 | blended 0 | unfiltered 0 | total 1
[23:07:00] decomb: deinterlaced 1 | blended 0 | unfiltered 0 | total 1
[23:07:01] decomb: deinterlaced 1 | blended 0 | unfiltered 0 | total 1
[23:07:14] decomb: deinterlaced 1 | blended 0 | unfiltered 0 | total 1
[23:07:42] decomb: deinterlaced 1 | blended 0 | unfiltered 0 | total 1
[23:07:43] decomb: deinterlaced 1 | blended 0 | unfiltered 0 | total 1

(ghb:1842): Gtk-CRITICAL **: 23:08:04.625: gtk_image_set_from_gicon: assertion 'GTK_IS_IMAGE (image)' failed
[23:08:06] CPU: 
[23:08:06]  - logical processor count: 16
[23:08:06] hb_scan: path=/home/boris911/MakeMKV/Largo Winch 2.mkv, title_index=0
udfread ERROR: ECMA 167 Volume Recognition failed
disc.c:333: failed opening UDF image /home/boris911/MakeMKV/Largo Winch 2.mkv
disc.c:437: error opening file BDMV/index.bdmv
disc.c:437: error opening file BDMV/BACKUP/index.bdmv
bluray.c:2646: nav_get_title_list(/home/boris911/MakeMKV/Largo Winch 2.mkv/) failed
[23:08:06] bd: not a bd - trying as a stream/file instead
libdvdread: DVDOpenFileUDF:UDFFindFile /VIDEO_TS/VIDEO_TS.IFO failed
libdvdnav: vm: vm: failed to read VIDEO_TS.IFO
[23:08:06] dvd: not a dvd - trying as a stream/file instead
Input #0, matroska,webm, from '/home/boris911/MakeMKV/Largo Winch 2.mkv':
  Metadata:
    encoder         : libmakemkv v1.16.7 (1.3.10/1.5.2) win(x64-release)
    creation_time   : 2022-06-19T16:56:47.000000Z
  Duration: 01:53:33.00, start: 0.000000, bitrate: 7719 kb/s
  Chapters:
    Chapter #0:0: start 0.000000, end 564.600000
      Metadata:
        title           : Chapter 01
    Chapter #0:1: start 564.600000, end 1191.440000
      Metadata:
        title           : Chapter 02
    Chapter #0:2: start 1191.440000, end 1796.000000
      Metadata:
        title           : Chapter 03
    Chapter #0:3: start 1796.000000, end 2445.840000
      Metadata:
        title           : Chapter 04
    Chapter #0:4: start 2445.840000, end 2995.800000
      Metadata:
        title           : Chapter 05
    Chapter #0:5: start 2995.800000, end 3652.040000
      Metadata:
        title           : Chapter 06
    Chapter #0:6: start 3652.040000, end 4192.680000
      Metadata:
        title           : Chapter 07
    Chapter #0:7: start 4192.680000, end 4791.440000
      Metadata:
        title           : Chapter 08
    Chapter #0:8: start 4791.440000, end 5394.280000
      Metadata:
        title           : Chapter 09
    Chapter #0:9: start 5394.280000, end 5775.400000
      Metadata:
        title           : Chapter 10
    Chapter #0:10: start 5775.400000, end 6483.200000
      Metadata:
        title           : Chapter 11
    Chapter #0:11: start 6483.200000, end 6813.000000
      Metadata:
        title           : Chapter 12
  Stream #0:0(eng): Video: mpeg2video (Main), yuv420p(tv, top first), 720x576 [SAR 64:45 DAR 16:9], 25 fps, 25 tbr, 1k tbn, 50 tbc
    Metadata:
      BPS-eng         : 6817525
      DURATION-eng    : 01:53:33.000000000
      NUMBER_OF_FRAMES-eng: 170325
      NUMBER_OF_BYTES-eng: 5805974884
      SOURCE_ID-eng   : 0100E0
      _STATISTICS_WRITING_APP-eng: MakeMKV v1.16.7 win(x64-release)
      _STATISTICS_WRITING_DATE_UTC-eng: 2022-06-19 16:56:47
      _STATISTICS_TAGS-eng: BPS DURATION NUMBER_OF_FRAMES NUMBER_OF_BYTES SOURCE_ID
    Side data:
      cpb: bitrate max/min/avg: 9800000/0/0 buffer size: 1835008 vbv_delay: N/A
  Stream #0:1(cze): Audio: ac3, 48000 Hz, 5.1(side), fltp, 448 kb/s (default)
    Metadata:
      title           : Surround 5.1
      BPS-eng         : 448000
      DURATION-eng    : 01:53:32.992000000
      NUMBER_OF_FRAMES-eng: 212906
      NUMBER_OF_BYTES-eng: 381527552
      SOURCE_ID-eng   : 0180BD
      _STATISTICS_WRITING_APP-eng: MakeMKV v1.16.7 win(x64-release)
      _STATISTICS_WRITING_DATE_UTC-eng: 2022-06-19 16:56:47
      _STATISTICS_TAGS-eng: BPS DURATION NUMBER_OF_FRAMES NUMBER_OF_BYTES SOURCE_ID
  Stream #0:2(eng): Audio: ac3, 48000 Hz, 5.1(side), fltp, 448 kb/s
    Metadata:
      title           : Surround 5.1
      BPS-eng         : 448000
      DURATION-eng    : 01:53:32.992000000
      NUMBER_OF_FRAMES-eng: 212906
      NUMBER_OF_BYTES-eng: 381527552
      SOURCE_ID-eng   : 0181BD
      _STATISTICS_WRITING_APP-eng: MakeMKV v1.16.7 win(x64-release)
      _STATISTICS_WRITING_DATE_UTC-eng: 2022-06-19 16:56:47
      _STATISTICS_TAGS-eng: BPS DURATION NUMBER_OF_FRAMES NUMBER_OF_BYTES SOURCE_ID
[23:08:06] scan: decoding previews for title 1
[23:08:06] scan: audio 0x1: ac3, rate=48000Hz, bitrate=448000 čeština (AC3) (5.1 ch) (448 kbps)
[23:08:06] scan: audio 0x2: ac3, rate=48000Hz, bitrate=448000 English (AC3) (5.1 ch) (448 kbps)
[23:08:06] scan: 10 previews, 720x576, 25.000 fps, autocrop = 74/74/0/0, aspect 16:9, PAR 64:45, color profile: 5-1-6, chroma location: left
[23:08:06] libhb: scan thread found 1 valid title(s)
[23:08:06] decomb: deinterlaced 1 | blended 0 | unfiltered 0 | total 1
[23:08:07] decomb: deinterlaced 1 | blended 0 | unfiltered 0 | total 1
[23:08:07] decomb: deinterlaced 1 | blended 0 | unfiltered 0 | total 1
[23:08:12] decomb: deinterlaced 1 | blended 0 | unfiltered 0 | total 1
[23:08:12] decomb: deinterlaced 1 | blended 0 | unfiltered 0 | total 1
[23:08:13] decomb: deinterlaced 1 | blended 0 | unfiltered 0 | total 1
[23:08:14] decomb: deinterlaced 1 | blended 0 | unfiltered 0 | total 1
[23:08:16] decomb: deinterlaced 1 | blended 0 | unfiltered 0 | total 1
[00:39:22] sync: "Chapter 2" (2) at frame 8505 time 30614400
[05:46:38] sync: "Chapter 3" (3) at frame 24643 time 88711200
[11:00:06] sync: "Chapter 4" (4) at frame 41239 time 148456800
[11:39:24] CPU: 
[11:39:24]  - logical processor count: 16
[11:39:24] hb_scan: path=/home/boris911/MakeMKV/Machete.mkv, title_index=0
udfread ERROR: ECMA 167 Volume Recognition failed
disc.c:333: failed opening UDF image /home/boris911/MakeMKV/Machete.mkv
disc.c:437: error opening file BDMV/index.bdmv
disc.c:437: error opening file BDMV/BACKUP/index.bdmv
bluray.c:2646: nav_get_title_list(/home/boris911/MakeMKV/Machete.mkv/) failed
[11:39:24] bd: not a bd - trying as a stream/file instead
libdvdread: DVDOpenFileUDF:UDFFindFile /VIDEO_TS/VIDEO_TS.IFO failed
libdvdnav: vm: vm: failed to read VIDEO_TS.IFO
[11:39:24] dvd: not a dvd - trying as a stream/file instead
Input #0, matroska,webm, from '/home/boris911/MakeMKV/Machete.mkv':
  Metadata:
    encoder         : libmakemkv v1.16.7 (1.3.10/1.5.2) win(x64-release)
    creation_time   : 2022-06-19T16:39:41.000000Z
  Duration: 01:40:41.16, start: 0.000000, bitrate: 5410 kb/s
  Chapters:
    Chapter #0:0: start 0.000000, end 351.960000
      Metadata:
        title           : Chapter 01
    Chapter #0:1: start 351.960000, end 1193.560000
      Metadata:
        title           : Chapter 02
    Chapter #0:2: start 1193.560000, end 1600.200000
      Metadata:
        title           : Chapter 03
    Chapter #0:3: start 1600.200000, end 2543.360000
      Metadata:
        title           : Chapter 04
    Chapter #0:4: start 2543.360000, end 3070.000000
      Metadata:
        title           : Chapter 05
    Chapter #0:5: start 3070.000000, end 3614.200000
      Metadata:
        title           : Chapter 06
    Chapter #0:6: start 3614.200000, end 4095.560000
      Metadata:
        title           : Chapter 07
    Chapter #0:7: start 4095.560000, end 4601.440000
      Metadata:
        title           : Chapter 08
    Chapter #0:8: start 4601.440000, end 5029.960000
      Metadata:
        title           : Chapter 09
    Chapter #0:9: start 5029.960000, end 5612.200000
      Metadata:
        title           : Chapter 10
    Chapter #0:10: start 5612.200000, end 6041.160000
      Metadata:
        title           : Chapter 11
  Stream #0:0(eng): Video: mpeg2video (Main), yuv420p(tv, progressive), 720x576 [SAR 64:45 DAR 16:9], 25 fps, 25 tbr, 1k tbn, 50 tbc
    Metadata:
      BPS-eng         : 4504953
      DURATION-eng    : 01:40:41.160000000
      NUMBER_OF_FRAMES-eng: 151029
      NUMBER_OF_BYTES-eng: 3401892820
      SOURCE_ID-eng   : 0100E0
      _STATISTICS_WRITING_APP-eng: MakeMKV v1.16.7 win(x64-release)
      _STATISTICS_WRITING_DATE_UTC-eng: 2022-06-19 16:39:41
      _STATISTICS_TAGS-eng: BPS DURATION NUMBER_OF_FRAMES NUMBER_OF_BYTES SOURCE_ID
    Side data:
      cpb: bitrate max/min/avg: 9800000/0/0 buffer size: 1835008 vbv_delay: N/A
  Stream #0:1(cze): Audio: ac3, 48000 Hz, 5.1(side), fltp, 448 kb/s (default)
    Metadata:
      title           : Surround 5.1
      BPS-eng         : 448000
      DURATION-eng    : 01:40:41.120000000
      NUMBER_OF_FRAMES-eng: 188785
      NUMBER_OF_BYTES-eng: 338302720
      SOURCE_ID-eng   : 0180BD
      _STATISTICS_WRITING_APP-eng: MakeMKV v1.16.7 win(x64-release)
      _STATISTICS_WRITING_DATE_UTC-eng: 2022-06-19 16:39:41
      _STATISTICS_TAGS-eng: BPS DURATION NUMBER_OF_FRAMES NUMBER_OF_BYTES SOURCE_ID
  Stream #0:2(eng): Audio: ac3, 48000 Hz, 5.1(side), fltp, 448 kb/s
    Metadata:
      title           : Surround 5.1
      BPS-eng         : 448000
      DURATION-eng    : 01:40:41.152000000
      NUMBER_OF_FRAMES-eng: 188786
      NUMBER_OF_BYTES-eng: 338304512
      SOURCE_ID-eng   : 0181BD
      _STATISTICS_WRITING_APP-eng: MakeMKV v1.16.7 win(x64-release)
      _STATISTICS_WRITING_DATE_UTC-eng: 2022-06-19 16:39:41
      _STATISTICS_TAGS-eng: BPS DURATION NUMBER_OF_FRAMES NUMBER_OF_BYTES SOURCE_ID
  Stream #0:3(cze): Subtitle: dvd_subtitle, 720x576 (default)
    Metadata:
      BPS-eng         : 4100
      DURATION-eng    : 01:37:29.759466666
      NUMBER_OF_FRAMES-eng: 882
      NUMBER_OF_BYTES-eng: 2998154
      SOURCE_ID-eng   : 0120BD
      _STATISTICS_WRITING_APP-eng: MakeMKV v1.16.7 win(x64-release)
      _STATISTICS_WRITING_DATE_UTC-eng: 2022-06-19 16:39:41
      _STATISTICS_TAGS-eng: BPS DURATION NUMBER_OF_FRAMES NUMBER_OF_BYTES SOURCE_ID
  Stream #0:4(cze): Subtitle: dvd_subtitle, 720x576
    Metadata:
      BPS-eng         : 144
      DURATION-eng    : 01:36:19.552711111
      NUMBER_OF_FRAMES-eng: 59
      NUMBER_OF_BYTES-eng: 104110
      SOURCE_ID-eng   : 0121BD
      _STATISTICS_WRITING_APP-eng: MakeMKV v1.16.7 win(x64-release)
      _STATISTICS_WRITING_DATE_UTC-eng: 2022-06-19 16:39:41
      _STATISTICS_TAGS-eng: BPS DURATION NUMBER_OF_FRAMES NUMBER_OF_BYTES SOURCE_ID
[11:39:24] scan: decoding previews for title 1
[11:39:24] scan: audio 0x1: ac3, rate=48000Hz, bitrate=448000 čeština (AC3) (5.1 ch) (448 kbps)
[11:39:24] scan: audio 0x2: ac3, rate=48000Hz, bitrate=448000 English (AC3) (5.1 ch) (448 kbps)
[11:39:24] scan: 10 previews, 720x576, 25.000 fps, autocrop = 10/12/0/0, aspect 16:9, PAR 64:45, color profile: 5-1-6, chroma location: left
[11:39:24] libhb: scan thread found 1 valid title(s)
[11:39:24] decomb: deinterlaced 1 | blended 0 | unfiltered 0 | total 1
[11:39:25] decomb: deinterlaced 1 | blended 0 | unfiltered 0 | total 1
[11:39:25] decomb: deinterlaced 1 | blended 0 | unfiltered 0 | total 1
[11:39:32] decomb: deinterlaced 1 | blended 0 | unfiltered 0 | total 1
[11:39:33] decomb: deinterlaced 1 | blended 0 | unfiltered 0 | total 1
[11:39:43] CPU: 
[11:39:43]  - logical processor count: 16
[11:39:43] hb_scan: path=/home/boris911/MakeMKV/Roztomilý člověk.mkv, title_index=0
udfread ERROR: ECMA 167 Volume Recognition failed
disc.c:333: failed opening UDF image /home/boris911/MakeMKV/Roztomilý člověk.mkv
disc.c:437: error opening file BDMV/index.bdmv
disc.c:437: error opening file BDMV/BACKUP/index.bdmv
bluray.c:2646: nav_get_title_list(/home/boris911/MakeMKV/Roztomilý člověk.mkv/) failed
[11:39:43] bd: not a bd - trying as a stream/file instead
libdvdread: DVDOpenFileUDF:UDFFindFile /VIDEO_TS/VIDEO_TS.IFO failed
libdvdnav: vm: vm: failed to read VIDEO_TS.IFO
[11:39:43] dvd: not a dvd - trying as a stream/file instead
Input #0, matroska,webm, from '/home/boris911/MakeMKV/Roztomilý člověk.mkv':
  Metadata:
    encoder         : libmakemkv v1.16.7 (1.3.10/1.5.2) win(x64-release)
    creation_time   : 2022-06-18T15:24:42.000000Z
  Duration: 01:26:10.60, start: 0.000000, bitrate: 4700 kb/s
  Chapters:
    Chapter #0:0: start 0.000000, end 349.000000
      Metadata:
        title           : Chapter 01
    Chapter #0:1: start 349.000000, end 695.400000
      Metadata:
        title           : Chapter 02
    Chapter #0:2: start 695.400000, end 928.160000
      Metadata:
        title           : Chapter 03
    Chapter #0:3: start 928.160000, end 1294.480000
      Metadata:
        title           : Chapter 04
    Chapter #0:4: start 1294.480000, end 1807.640000
      Metadata:
        title           : Chapter 05
    Chapter #0:5: start 1807.640000, end 2230.760000
      Metadata:
        title           : Chapter 06
    Chapter #0:6: start 2230.760000, end 2671.960000
      Metadata:
        title           : Chapter 07
    Chapter #0:7: start 2671.960000, end 2976.000000
      Metadata:
        title           : Chapter 08
    Chapter #0:8: start 2976.000000, end 3283.120000
      Metadata:
        title           : Chapter 09
    Chapter #0:9: start 3283.120000, end 3531.560000
      Metadata:
        title           : Chapter 10
    Chapter #0:10: start 3531.560000, end 3804.640000
      Metadata:
        title           : Chapter 11
    Chapter #0:11: start 3804.640000, end 4087.240000
      Metadata:
        title           : Chapter 12
    Chapter #0:12: start 4087.240000, end 4466.880000
      Metadata:
        title           : Chapter 13
    Chapter #0:13: start 4466.880000, end 4825.200000
      Metadata:
        title           : Chapter 14
    Chapter #0:14: start 4825.200000, end 5032.560000
      Metadata:
        title           : Chapter 15
    Chapter #0:15: start 5032.560000, end 5170.600000
      Metadata:
        title           : Chapter 16
  Stream #0:0(eng): Video: mpeg2video (Main), yuv420p(tv, top first), 720x576 [SAR 16:15 DAR 4:3], 25 fps, 25 tbr, 1k tbn, 50 tbc
    Metadata:
      BPS-eng         : 4482970
      DURATION-eng    : 01:26:10.600000000
      NUMBER_OF_FRAMES-eng: 129265
      NUMBER_OF_BYTES-eng: 2897455764
      SOURCE_ID-eng   : 0100E0
      _STATISTICS_WRITING_APP-eng: MakeMKV v1.16.7 win(x64-release)
      _STATISTICS_WRITING_DATE_UTC-eng: 2022-06-18 15:24:42
      _STATISTICS_TAGS-eng: BPS DURATION NUMBER_OF_FRAMES NUMBER_OF_BYTES SOURCE_ID
    Side data:
      cpb: bitrate max/min/avg: 8200000/0/0 buffer size: 1835008 vbv_delay: N/A
  Stream #0:1(cze): Audio: ac3, 48000 Hz, stereo, fltp, 192 kb/s (default)
    Metadata:
      title           : Stereo
      BPS-eng         : 192000
      DURATION-eng    : 01:26:10.624000000
      NUMBER_OF_FRAMES-eng: 161582
      NUMBER_OF_BYTES-eng: 124094976
      SOURCE_ID-eng   : 0180BD
      _STATISTICS_WRITING_APP-eng: MakeMKV v1.16.7 win(x64-release)
      _STATISTICS_WRITING_DATE_UTC-eng: 2022-06-18 15:24:42
      _STATISTICS_TAGS-eng: BPS DURATION NUMBER_OF_FRAMES NUMBER_OF_BYTES SOURCE_ID
  Stream #0:2(cze): Subtitle: dvd_subtitle, 720x576 (default)
    Metadata:
      BPS-eng         : 10396
      DURATION-eng    : 01:26:03.152533333
      NUMBER_OF_FRAMES-eng: 1551
      NUMBER_OF_BYTES-eng: 6710058
      SOURCE_ID-eng   : 0120BD
      _STATISTICS_WRITING_APP-eng: MakeMKV v1.16.7 win(x64-release)
      _STATISTICS_WRITING_DATE_UTC-eng: 2022-06-18 15:24:42
      _STATISTICS_TAGS-eng: BPS DURATION NUMBER_OF_FRAMES NUMBER_OF_BYTES SOURCE_ID
  Stream #0:3(eng): Subtitle: dvd_subtitle, 720x576
    Metadata:
      BPS-eng         : 9721
      DURATION-eng    : 01:25:45.516977777
      NUMBER_OF_FRAMES-eng: 1588
      NUMBER_OF_BYTES-eng: 6252588
      SOURCE_ID-eng   : 0121BD
      _STATISTICS_WRITING_APP-eng: MakeMKV v1.16.7 win(x64-release)
      _STATISTICS_WRITING_DATE_UTC-eng: 2022-06-18 15:24:42
      _STATISTICS_TAGS-eng: BPS DURATION NUMBER_OF_FRAMES NUMBER_OF_BYTES SOURCE_ID
[11:39:43] scan: decoding previews for title 1
[11:39:43] scan: audio 0x1: ac3, rate=48000Hz, bitrate=192000 čeština (AC3) (2.0 ch) (192 kbps)
[11:39:43] scan: 10 previews, 720x576, 25.000 fps, autocrop = 0/0/8/0, aspect 4:3, PAR 16:15, color profile: 5-5-6, chroma location: left
[11:39:43] libhb: scan thread found 1 valid title(s)
[11:39:43] decomb: deinterlaced 1 | blended 0 | unfiltered 0 | total 1
[11:39:44] decomb: deinterlaced 1 | blended 0 | unfiltered 0 | total 1
[11:39:44] decomb: deinterlaced 1 | blended 0 | unfiltered 0 | total 1
[11:40:06] CPU: 
[11:40:06]  - logical processor count: 16
[11:40:06] hb_scan: path=/home/boris911/MakeMKV/Sobota.mkv, title_index=0
udfread ERROR: ECMA 167 Volume Recognition failed
disc.c:333: failed opening UDF image /home/boris911/MakeMKV/Sobota.mkv
disc.c:437: error opening file BDMV/index.bdmv
disc.c:437: error opening file BDMV/BACKUP/index.bdmv
bluray.c:2646: nav_get_title_list(/home/boris911/MakeMKV/Sobota.mkv/) failed
[11:40:06] bd: not a bd - trying as a stream/file instead
libdvdread: DVDOpenFileUDF:UDFFindFile /VIDEO_TS/VIDEO_TS.IFO failed
libdvdnav: vm: vm: failed to read VIDEO_TS.IFO
[11:40:06] dvd: not a dvd - trying as a stream/file instead
Input #0, matroska,webm, from '/home/boris911/MakeMKV/Sobota.mkv':
  Metadata:
    encoder         : libmakemkv v1.16.7 (1.3.10/1.5.2) win(x64-release)
    creation_time   : 2022-06-18T16:18:36.000000Z
  Duration: 01:28:49.04, start: 0.000000, bitrate: 5237 kb/s
  Chapters:
    Chapter #0:0: start 0.000000, end 580.640000
      Metadata:
        title           : Chapter 01
    Chapter #0:1: start 580.640000, end 1095.040000
      Metadata:
        title           : Chapter 02
    Chapter #0:2: start 1095.040000, end 1588.720000
      Metadata:
        title           : Chapter 03
    Chapter #0:3: start 1588.720000, end 2013.960000
      Metadata:
        title           : Chapter 04
    Chapter #0:4: start 2013.960000, end 2463.240000
      Metadata:
        title           : Chapter 05
    Chapter #0:5: start 2463.240000, end 2838.880000
      Metadata:
        title           : Chapter 06
    Chapter #0:6: start 2838.880000, end 3206.840000
      Metadata:
        title           : Chapter 07
    Chapter #0:7: start 3206.840000, end 3454.400000
      Metadata:
        title           : Chapter 08
    Chapter #0:8: start 3454.400000, end 3748.400000
      Metadata:
        title           : Chapter 09
    Chapter #0:9: start 3748.400000, end 5329.040000
      Metadata:
        title           : Chapter 10
  Stream #0:0(eng): Video: mpeg2video (Main), yuv420p(tv, progressive), 720x576 [SAR 16:15 DAR 4:3], 25 fps, 25 tbr, 1k tbn, 50 tbc
    Metadata:
      BPS-eng         : 5003376
      DURATION-eng    : 01:28:49.040000000
      NUMBER_OF_FRAMES-eng: 133226
      NUMBER_OF_BYTES-eng: 3332898900
      SOURCE_ID-eng   : 0100E0
      _STATISTICS_WRITING_APP-eng: MakeMKV v1.16.7 win(x64-release)
      _STATISTICS_WRITING_DATE_UTC-eng: 2022-06-18 16:18:36
      _STATISTICS_TAGS-eng: BPS DURATION NUMBER_OF_FRAMES NUMBER_OF_BYTES SOURCE_ID
    Side data:
      cpb: bitrate max/min/avg: 9800000/0/0 buffer size: 1835008 vbv_delay: N/A
  Stream #0:1(cze): Audio: ac3, 48000 Hz, stereo, fltp, 224 kb/s (default)
    Metadata:
      title           : Stereo
      BPS-eng         : 224000
      DURATION-eng    : 01:28:48.032000000
      NUMBER_OF_FRAMES-eng: 166501
      NUMBER_OF_BYTES-eng: 149184896
      SOURCE_ID-eng   : 0180BD
      _STATISTICS_WRITING_APP-eng: MakeMKV v1.16.7 win(x64-release)
      _STATISTICS_WRITING_DATE_UTC-eng: 2022-06-18 16:18:36
      _STATISTICS_TAGS-eng: BPS DURATION NUMBER_OF_FRAMES NUMBER_OF_BYTES SOURCE_ID
  Stream #0:2(cze): Subtitle: dvd_subtitle, 720x576 (default)
    Metadata:
      BPS-eng         : 5401
      DURATION-eng    : 01:28:16.149333333
      NUMBER_OF_FRAMES-eng: 968
      NUMBER_OF_BYTES-eng: 3575776
      SOURCE_ID-eng   : 0120BD
      _STATISTICS_WRITING_APP-eng: MakeMKV v1.16.7 win(x64-release)
      _STATISTICS_WRITING_DATE_UTC-eng: 2022-06-18 16:18:36
      _STATISTICS_TAGS-eng: BPS DURATION NUMBER_OF_FRAMES NUMBER_OF_BYTES SOURCE_ID
[11:40:06] scan: decoding previews for title 1
[11:40:06] scan: audio 0x1: ac3, rate=48000Hz, bitrate=224000 čeština (AC3) (2.0 ch) (224 kbps)
[11:40:06] scan: 10 previews, 720x576, 25.000 fps, autocrop = 0/0/16/8, aspect 4:3, PAR 16:15, color profile: 5-1-6, chroma location: left
[11:40:06] libhb: scan thread found 1 valid title(s)
[11:40:07] decomb: deinterlaced 1 | blended 0 | unfiltered 0 | total 1
[11:40:07] decomb: deinterlaced 1 | blended 0 | unfiltered 0 | total 1
[11:40:24] CPU: 
[11:40:24]  - logical processor count: 16
[11:40:24] hb_scan: path=/home/boris911/MakeMKV/Šťastný Nový rok.mkv, title_index=0
udfread ERROR: ECMA 167 Volume Recognition failed
disc.c:333: failed opening UDF image /home/boris911/MakeMKV/Šťastný Nový rok.mkv
disc.c:437: error opening file BDMV/index.bdmv
disc.c:437: error opening file BDMV/BACKUP/index.bdmv
bluray.c:2646: nav_get_title_list(/home/boris911/MakeMKV/Šťastný Nový rok.mkv/) failed
[11:40:24] bd: not a bd - trying as a stream/file instead
libdvdread: DVDOpenFileUDF:UDFFindFile /VIDEO_TS/VIDEO_TS.IFO failed
libdvdnav: vm: vm: failed to read VIDEO_TS.IFO
[11:40:24] dvd: not a dvd - trying as a stream/file instead
Input #0, matroska,webm, from '/home/boris911/MakeMKV/Šťastný Nový rok.mkv':
  Metadata:
    encoder         : libmakemkv v1.16.7 (1.3.10/1.5.2) win(x64-release)
    creation_time   : 2022-06-18T16:24:56.000000Z
  Duration: 01:53:05.04, start: 0.000000, bitrate: 5779 kb/s
  Chapters:
    Chapter #0:0: start 0.000000, end 541.120000
      Metadata:
        title           : Chapter 01
    Chapter #0:1: start 541.120000, end 1204.200000
      Metadata:
        title           : Chapter 02
    Chapter #0:2: start 1204.200000, end 1699.480000
      Metadata:
        title           : Chapter 03
    Chapter #0:3: start 1699.480000, end 2294.640000
      Metadata:
        title           : Chapter 04
    Chapter #0:4: start 2294.640000, end 2829.200000
      Metadata:
        title           : Chapter 05
    Chapter #0:5: start 2829.200000, end 3400.800000
      Metadata:
        title           : Chapter 06
    Chapter #0:6: start 3400.800000, end 4025.400000
      Metadata:
        title           : Chapter 07
    Chapter #0:7: start 4025.400000, end 4571.360000
      Metadata:
        title           : Chapter 08
    Chapter #0:8: start 4571.360000, end 5160.320000
      Metadata:
        title           : Chapter 09
    Chapter #0:9: start 5160.320000, end 5696.240000
      Metadata:
        title           : Chapter 10
    Chapter #0:10: start 5696.240000, end 6233.000000
      Metadata:
        title           : Chapter 11
    Chapter #0:11: start 6233.000000, end 6783.600000
      Metadata:
        title           : Chapter 12
    Chapter #0:12: start 6783.600000, end 6785.040000
      Metadata:
        title           : Chapter 13
  Stream #0:0(eng): Video: mpeg2video (Main), yuv420p(tv, top first), 720x576 [SAR 64:45 DAR 16:9], 25 fps, 25 tbr, 1k tbn, 50 tbc
    Metadata:
      BPS-eng         : 4997529
      DURATION-eng    : 01:53:05.040000000
      NUMBER_OF_FRAMES-eng: 169626
      NUMBER_OF_BYTES-eng: 4238555060
      SOURCE_ID-eng   : 0100E0
      _STATISTICS_WRITING_APP-eng: MakeMKV v1.16.7 win(x64-release)
      _STATISTICS_WRITING_DATE_UTC-eng: 2022-06-18 16:24:56
      _STATISTICS_TAGS-eng: BPS DURATION NUMBER_OF_FRAMES NUMBER_OF_BYTES SOURCE_ID
    Side data:
      cpb: bitrate max/min/avg: 7400000/0/0 buffer size: 1835008 vbv_delay: N/A
  Stream #0:1(cze): Audio: ac3, 48000 Hz, 5.1(side), fltp, 384 kb/s (default)
    Metadata:
      title           : Surround 5.1
      BPS-eng         : 384000
      DURATION-eng    : 01:53:05.024000000
      NUMBER_OF_FRAMES-eng: 212032
      NUMBER_OF_BYTES-eng: 325681152
      SOURCE_ID-eng   : 0181BD
      _STATISTICS_WRITING_APP-eng: MakeMKV v1.16.7 win(x64-release)
      _STATISTICS_WRITING_DATE_UTC-eng: 2022-06-18 16:24:56
      _STATISTICS_TAGS-eng: BPS DURATION NUMBER_OF_FRAMES NUMBER_OF_BYTES SOURCE_ID
  Stream #0:2(eng): Audio: ac3, 48000 Hz, 5.1(side), fltp, 384 kb/s
    Metadata:
      title           : Surround 5.1
      BPS-eng         : 384000
      DURATION-eng    : 01:53:05.024000000
      NUMBER_OF_FRAMES-eng: 212032
      NUMBER_OF_BYTES-eng: 325681152
      SOURCE_ID-eng   : 0180BD
      _STATISTICS_WRITING_APP-eng: MakeMKV v1.16.7 win(x64-release)
      _STATISTICS_WRITING_DATE_UTC-eng: 2022-06-18 16:24:56
      _STATISTICS_TAGS-eng: BPS DURATION NUMBER_OF_FRAMES NUMBER_OF_BYTES SOURCE_ID
  Stream #0:3(cze): Subtitle: dvd_subtitle, 720x576 (default)
    Metadata:
      BPS-eng         : 3381
      DURATION-eng    : 01:52:08.111111111
      NUMBER_OF_FRAMES-eng: 1731
      NUMBER_OF_BYTES-eng: 2844004
      SOURCE_ID-eng   : 0122BD
      _STATISTICS_WRITING_APP-eng: MakeMKV v1.16.7 win(x64-release)
      _STATISTICS_WRITING_DATE_UTC-eng: 2022-06-18 16:24:56
      _STATISTICS_TAGS-eng: BPS DURATION NUMBER_OF_FRAMES NUMBER_OF_BYTES SOURCE_ID
  Stream #0:4(cze): Subtitle: dvd_subtitle, 720x576
    Metadata:
      BPS-eng         : 25
      DURATION-eng    : 01:51:53.271111111
      NUMBER_OF_FRAMES-eng: 14
      NUMBER_OF_BYTES-eng: 21416
      SOURCE_ID-eng   : 0127BD
      _STATISTICS_WRITING_APP-eng: MakeMKV v1.16.7 win(x64-release)
      _STATISTICS_WRITING_DATE_UTC-eng: 2022-06-18 16:24:56
      _STATISTICS_TAGS-eng: BPS DURATION NUMBER_OF_FRAMES NUMBER_OF_BYTES SOURCE_ID
  Stream #0:5(eng): Subtitle: dvd_subtitle, 720x576
    Metadata:
      BPS-eng         : 4798
      DURATION-eng    : 01:52:08.111111111
      NUMBER_OF_FRAMES-eng: 1992
      NUMBER_OF_BYTES-eng: 4035724
      SOURCE_ID-eng   : 0120BD
      _STATISTICS_WRITING_APP-eng: MakeMKV v1.16.7 win(x64-release)
      _STATISTICS_WRITING_DATE_UTC-eng: 2022-06-18 16:24:56
      _STATISTICS_TAGS-eng: BPS DURATION NUMBER_OF_FRAMES NUMBER_OF_BYTES SOURCE_ID
[11:40:24] scan: decoding previews for title 1
[11:40:24] scan: audio 0x1: ac3, rate=48000Hz, bitrate=384000 čeština (AC3) (5.1 ch) (384 kbps)
[11:40:24] scan: audio 0x2: ac3, rate=48000Hz, bitrate=384000 English (AC3) (5.1 ch) (384 kbps)
[11:40:24] scan: 10 previews, 720x576, 25.000 fps, autocrop = 0/4/0/0, aspect 16:9, PAR 64:45, color profile: 5-1-6, chroma location: left
[11:40:24] libhb: scan thread found 1 valid title(s)
[11:40:25] decomb: deinterlaced 1 | blended 0 | unfiltered 0 | total 1
[11:40:25] decomb: deinterlaced 1 | blended 0 | unfiltered 0 | total 1
[11:40:31] decomb: deinterlaced 1 | blended 0 | unfiltered 0 | total 1
[11:40:31] decomb: deinterlaced 1 | blended 0 | unfiltered 0 | total 1
[16:35:01] sync: "Chapter 5" (5) at frame 55125 time 198446400
[21:50:30] sync: "Chapter 6" (6) at frame 69174 time 249022800
[00:43:55] sync: "Chapter 7" (7) at frame 80085 time 288302400
[03:34:30] sync: "Chapter 8" (8) at frame 88393 time 318211200
[07:43:26] sync: "Chapter 9" (9) at frame 99290 time 357440400
[11:00:43] sync: "Chapter 10" (10) at frame 108643 time 391111200
[13:32:25] sync: "Chapter 11" (11) at frame 115884 time 417178800
[18:07:49] sync: "Chapter 12" (12) at frame 126988 time 457153200
[21:26:06] reader: done. 1 scr changes
[21:26:37] work: average encoding speed for job is 0.837135 fps
[21:26:37] comb detect: heavy 372 | light 1665 | uncombed 140700 | total 142737
[21:26:37] decomb: deinterlaced 372 | blended 1665 | unfiltered 140700 | total 142737
[21:26:37] vfr: 142737 frames output, 0 dropped and 0 duped for CFR/PFR
[21:26:37] vfr: lost time: 0 (0 frames)
[21:26:37] vfr: gained time: 0 (0 frames) (0 not accounted for)
[21:26:37] dca-decoder done: 535264 frames, 0 decoder errors
[21:26:37] h264-decoder done: 142737 frames, 0 decoder errors
[21:26:37] sync: got 142737 frames, 142737 expected
[21:26:37] sync: framerate min 25.000 fps, max 25.000 fps, avg 25.000 fps
x265 [info]: frame I:   1233, Avg QP:19.91  kb/s: 15062.94
x265 [info]: frame P:  24656, Avg QP:21.66  kb/s: 7075.56 
x265 [info]: frame B: 116848, Avg QP:26.97  kb/s: 1168.99 
x265 [info]: Weighted P-Frames: Y:2.6% UV:2.0%
x265 [info]: Weighted B-Frames: Y:2.9% UV:2.0%
x265 [info]: consecutive B-frames: 6.9% 1.4% 1.7% 18.3% 12.0% 36.9% 7.5% 8.0% 7.2% 

encoded 142737 frames in 170481.18s (0.84 fps), 2309.30 kb/s, Avg QP:25.99
[21:26:37] mux: track 0, 142737 frames, 1648681648 bytes, 2310.08 kbps, fifo 2048
[21:26:37] mux: track 1, 267634 frames, 548114433 bytes, 768.00 kbps, fifo 4096
[21:26:37] mux: track 2, 2214 frames, 25168968 bytes, 35.27 kbps, fifo 64
[21:26:37] mux: track 3, 2026 frames, 24130236 bytes, 33.81 kbps, fifo 64
[21:26:37] Finished work at: Wed Jun 22 21:26:37 2022

[21:26:37] libhb: work result = 0
rollin_eng
Veteran User
Posts: 4378
Joined: Wed May 04, 2011 11:06 pm

Re: MKV from HandBrake is larger and has less readable metadata.

Post by rollin_eng »

Regarding the missing metadata it's my understanding that handbrake doesn't generate it so it's not outputted.

Not sure about the size difference, could just be the muxer used???
User avatar
Ritsuka
HandBrake Team
Posts: 1403
Joined: Fri Jan 12, 2007 11:29 am

Re: MKV from HandBrake is larger and has less readable metadata.

Post by Ritsuka »

The PGS track is compressed in the zlib format in mkvmerge file, but uncompressed in the HandBrake one.
User avatar
JohnAStebbins
HandBrake Team
Posts: 5670
Joined: Sat Feb 09, 2008 7:21 pm

Re: MKV from HandBrake is larger and has less readable metadata.

Post by JohnAStebbins »

Ritsuka wrote: Thu Jun 23, 2022 1:08 pm The PGS track is compressed in the zlib format in mkvmerge file, but uncompressed in the HandBrake one.
That's interesting. I didn't know that was an option in mkv. It certainly would save a lot of space. Will have to look into adding support for that since zlib is already one of our dependencies. Should be a pretty simple matter I would think.
Boris911
Posts: 8
Joined: Sat Apr 23, 2022 10:59 am

Re: MKV from HandBrake is larger and has less readable metadata.

Post by Boris911 »

But why isn’t there info about bitrate of video and audio streams (in MKV from HandBrake), please?
User avatar
Rodeo
HandBrake Team
Posts: 12955
Joined: Tue Mar 03, 2009 8:55 pm

Re: MKV from HandBrake is larger and has less readable metadata.

Post by Rodeo »

Because we neither compute nor write it.

Remuxing with mkvmerge/Mkvtoolnix takes a matter of seconds (minutes for very large files), feel free to remux all of your HandBrake-encoded files with it :)
User avatar
JohnAStebbins
HandBrake Team
Posts: 5670
Joined: Sat Feb 09, 2008 7:21 pm

Re: MKV from HandBrake is larger and has less readable metadata.

Post by JohnAStebbins »

Boris911 wrote: Thu Jun 23, 2022 2:47 pm But why isn’t there info about bitrate of video and audio streams (in MKV from HandBrake), please?
Not sure really. The matroska specification has no track elements for bitrate, but it can be calculated from duration and size of the data in the track. Matroska does have "Technical Information Tags" that mkvtoolnix may be adding. These are optonal informational tags (similar to tags for title, author, genre, cast, etc.). HandBrake does not write a bitrate tag, so my educated guess is that is what mediainfo is showing for bitrate.
User avatar
Rodeo
HandBrake Team
Posts: 12955
Joined: Tue Mar 03, 2009 8:55 pm

Re: MKV from HandBrake is larger and has less readable metadata.

Post by Rodeo »

From ffprobe on a random mkvmerge mux:

Code: Select all

  Stream #0:0: Video: h264 (High), yuv420p(tv, bt709, progressive), 1280x720 [SAR 1:1 DAR 16:9], 23.98 fps, 23.98 tbr, 1k tbn (default)
    Metadata:
      BPS             : 4037530
      DURATION        : 00:41:15.432000000
      NUMBER_OF_FRAMES: 59351
      NUMBER_OF_BYTES : 1249329086
      _STATISTICS_WRITING_APP: mkvmerge v68.0.0 ('The Curtain') 64-bit
      _STATISTICS_WRITING_DATE_UTC: 2022-06-23 16:41:07
      _STATISTICS_TAGS: BPS DURATION NUMBER_OF_FRAMES NUMBER_OF_BYTES
That's what MediaInfo uses. Also https://mediaarea.net/en/MediaInfo/Support/Tags
DrXenos
Bright Spark User
Posts: 263
Joined: Sat Mar 16, 2013 1:19 pm

Re: MKV from HandBrake is larger and has less readable metadata.

Post by DrXenos »

JohnAStebbins wrote: Thu Jun 23, 2022 2:38 pm
Ritsuka wrote: Thu Jun 23, 2022 1:08 pm The PGS track is compressed in the zlib format in mkvmerge file, but uncompressed in the HandBrake one.
That's interesting. I didn't know that was an option in mkv. It certainly would save a lot of space. Will have to look into adding support for that since zlib is already one of our dependencies. Should be a pretty simple matter I would think.
That would be awesome, if you did so. I remember requesting that feature years ago. I always remux my mkv files with mkvmerge, so it will gzip the PGS tracks, because one of my media players won't play them if they aren't.
User avatar
JohnAStebbins
HandBrake Team
Posts: 5670
Joined: Sat Feb 09, 2008 7:21 pm

Re: MKV from HandBrake is larger and has less readable metadata.

Post by JohnAStebbins »

DrXenos wrote: Thu Jun 23, 2022 7:03 pm
JohnAStebbins wrote: Thu Jun 23, 2022 2:38 pm
Ritsuka wrote: Thu Jun 23, 2022 1:08 pm The PGS track is compressed in the zlib format in mkvmerge file, but uncompressed in the HandBrake one.
That's interesting. I didn't know that was an option in mkv. It certainly would save a lot of space. Will have to look into adding support for that since zlib is already one of our dependencies. Should be a pretty simple matter I would think.
That would be awesome, if you did so. I remember requesting that feature years ago. I always remux my mkv files with mkvmerge, so it will gzip the PGS tracks, because one of my media players won't play them if they aren't.
I probably saw your request, said something like, "That would be a great idea!", and then promptly forgot about it due to busy life :P Maybe this time the idea will stick.
DrXenos
Bright Spark User
Posts: 263
Joined: Sat Mar 16, 2013 1:19 pm

Re: MKV from HandBrake is larger and has less readable metadata.

Post by DrXenos »

JohnAStebbins wrote: Thu Jun 23, 2022 7:19 pm I probably saw your request, said something like, "That would be a great idea!", and then promptly forgot about it due to busy life :P Maybe this time the idea will stick.
HAHA! No biggie. Calling mkvmerge isn't that hard. :)
User avatar
JohnAStebbins
HandBrake Team
Posts: 5670
Joined: Sat Feb 09, 2008 7:21 pm

Re: MKV from HandBrake is larger and has less readable metadata.

Post by JohnAStebbins »

I did do a quick check this time to see how much trouble it would be. ffmpeg supports reading compressed PGS. But it does not support writing compressed PGS. So I'll have to patch ffmpeg to add this feature. Probably a day's work at worst. Just have to set aside my work on OctoPrint and OctoDash for a while to get it done :mrgreen:
User avatar
Rodeo
HandBrake Team
Posts: 12955
Joined: Tue Mar 03, 2009 8:55 pm

Re: MKV from HandBrake is larger and has less readable metadata.

Post by Rodeo »

JohnAStebbins wrote: Sun Jun 26, 2022 12:32 amJust have to set aside my work on OctoPrint and OctoDash for a while to get it done :mrgreen:
Oh no :D
Post Reply