Apple Studio M1 Max vs. MacBook Pro I9

Post your testing results with HandBrake.
Post Reply
jkkuehne
Posts: 3
Joined: Thu Jun 16, 2022 6:04 pm

Apple Studio M1 Max vs. MacBook Pro I9

Post by jkkuehne »

Noticing a bit of disappointing results once I starting using my Mac Studio M1 Max for HB I felt compelled to post this.
This a a typical project with only png slide files and audio with standard fade-to-black transitions between slides.

Mac Studio M1 Max specs:
Model Name: Mac Studio
Model Identifier: Mac13,1
Chip: Apple M1 Max
Total Number of Cores: 10 (8 performance and 2 efficiency)
Memory: 64 GB

Original Media:

Pro Res 422 1920 X 1080 29.97fps

Encode preset FAST1080p30 w/web optimized
average encoding speed for job is 62.292061 fps

Encoding Log:

Code: Select all

HandBrake Activity Log for Session: 2022-06-06T17:51:55Z
Handbrake Version: 1.5.1 (2022011000)
NLCPrep-2022-03.PS.GPS.PT-2.mp4
Preset: Fast 1080p30 (Modified)
[10:51:55] Compile-time hardening features are enabled
[10:51:55] hb_init: starting libhb thread
[10:51:55] macgui: fr.handbrake.HandBrakeXPCService scanning specifically for title: 1
[10:51:55] CPU: 
[10:51:55]  - logical processor count: 10
[10:51:55] hb_scan: path=/Volumes/RocketQ-Cache/Comps/NLCPrep-2022-03.PS.GPS.PT-2.mov, title_index=1
udfread ERROR: ECMA 167 Volume Recognition failed
disc.c:333: failed opening UDF image /Volumes/RocketQ-Cache/Comps/NLCPrep-2022-03.PS.GPS.PT-2.mov
disc.c:437: error opening file BDMV/index.bdmv
disc.c:437: error opening file BDMV/BACKUP/index.bdmv
bluray.c:2646: nav_get_title_list(/Volumes/RocketQ-Cache/Comps/NLCPrep-2022-03.PS.GPS.PT-2.mov/) failed
[10:51:55] bd: not a bd - trying as a stream/file instead
libdvdread: DVDOpenFileUDF:UDFFindFile /VIDEO_TS/VIDEO_TS.IFO failed
libdvdnav: vm: vm: failed to read VIDEO_TS.IFO
[10:51:55] dvd: not a dvd - trying as a stream/file instead
Input #0, mov,mp4,m4a,3gp,3g2,mj2, from '/Volumes/RocketQ-Cache/Comps/NLCPrep-2022-03.PS.GPS.PT-2.mov':
  Metadata:
    major_brand     : qt  
    minor_version   : 0
    compatible_brands: qt  
    creation_time   : 2022-06-06T17:28:53.000000Z
    com.apple.quicktime.keywords: 03.PS.GPS-Theory-Pt-2,Shared
    com.apple.quicktime.description: This video is about NLCPrep-2022-03.PS.GPS.PT-2
    com.apple.quicktime.author: John Kuehne
    com.apple.quicktime.displayname: NLCPrep-2022-03.PS.GPS.PT-2
    com.apple.quicktime.title: NLCPrep-2022-03.PS.GPS.PT-2
  Duration: 00:24:10.78, start: 0.000000, bitrate: 145428 kb/s
  Stream #0:0(und): Audio: pcm_s24le (lpcm / 0x6D63706C), 48000 Hz, 2 channels, s32 (24 bit), 2304 kb/s (default)
    Metadata:
      creation_time   : 2022-06-06T17:28:53.000000Z
      handler_name    : Core Media Audio
      vendor_id       : [0][0][0][0]
  Stream #0:1(und): Video: prores (Standard) (apcn / 0x6E637061), yuv422p10le(tv, bt709, progressive), 1920x1080, 142699 kb/s, SAR 1:1 DAR 16:9, 29.97 fps, 29.97 tbr, 30k tbn, 30k tbc (default)
    Metadata:
      creation_time   : 2022-06-06T17:28:53.000000Z
      handler_name    : Core Media Video
      vendor_id       : [0][0][0][0]
      encoder         : Apple ProRes 422
      timecode        : 00:00:00:00
  Stream #0:2(und): Data: none (tmcd / 0x64636D74) (default)
    Metadata:
      creation_time   : 2022-06-06T17:28:53.000000Z
      handler_name    : Core Media Time Code
      timecode        : 00:00:00:00
[10:51:55] scan: decoding previews for title 1
[10:51:55] scan: audio 0x0: pcm_s24le, rate=48000Hz, bitrate=2304000 Unknown (pcm_s24le) (2.0 ch) (2304 kbps)
[10:51:56] scan: 10 previews, 1920x1080, 29.970 fps, autocrop = 0/0/0/0, aspect 16:9, PAR 1:1, color profile: 1-1-1, chroma location: unspecified
[10:51:56] libhb: scan thread found 1 valid title(s)
[10:51:56] macgui: fr.handbrake.HandBrakeXPCService scan done
[10:51:56] macgui: fr.handbrake.HandBrakeXPCService started encoding NLCPrep-2022-03.PS.GPS.PT-2.mp4
[10:51:56] macgui: fr.handbrake.HandBrakeXPCService with preset Fast 1080p30 (Modified)
[10:51:56] Starting work at: Mon Jun  6 10:51:56 2022

[10:51:56] 1 job(s) to process
[10:51:56] Starting Task: Encoding Pass
[10:51:56] Skipping crop/scale filter
[10:51:56] work: only 1 chapter, disabling chapter markers
[10:51:56] job configuration:
[10:51:56]  * source
[10:51:56]    + /Volumes/RocketQ-Cache/Comps/NLCPrep-2022-03.PS.GPS.PT-2.mov
[10:51:56]    + title 1, chapter(s) 1 to 1
[10:51:56]    + container: mov,mp4,m4a,3gp,3g2,mj2
[10:51:56]    + data rate: 145428 kbps
[10:51:56]  * destination
[10:51:56]    + /Volumes/RocketQ-Cache/Comps/NLCPrep-2022-03.PS.GPS.PT-2.mp4
[10:51:56]    + container: MPEG-4 (libavformat)
[10:51:56]      + optimized for HTTP streaming (fast start)
[10:51:56]      + align initial A/V stream timestamps
[10:51:56]  * video track
[10:51:56]    + decoder: prores 8-bit (yuv420p)
[10:51:56]      + bitrate 142699 kbps
[10:51:56]    + filters
[10:51:56]      + Comb Detect (mode=3:spatial-metric=2:motion-thresh=1:spatial-thresh=1:filter-mode=2:block-thresh=40:block-width=16:block-height=16)
[10:51:56]      + Decomb (mode=39)
[10:51:56]      + Framerate Shaper (mode=2:rate=27000000/900000)
[10:51:56]        + frame rate: 29.970 fps -> peak rate limited to 30.000 fps
[10:51:56]    + Output geometry
[10:51:56]      + storage dimensions: 1920 x 1080
[10:51:56]      + pixel aspect ratio: 1 : 1
[10:51:56]      + display dimensions: 1920 x 1080
[10:51:56]    + encoder: H.264 (libx264)
[10:51:56]      + preset:  fast
[10:51:56]      + profile: main
[10:51:56]      + level:   4.0
[10:51:56]      + quality: 22.00 (RF)
[10:51:56]      + color profile: 1-1-1
[10:51:56]      + chroma location: unspecified
[10:51:56]  * audio track 1
[10:51:56]    + decoder: Unknown (pcm_s24le) (2.0 ch) (2304 kbps) (track 1, id 0x0)
[10:51:56]      + bitrate: 2304 kbps, samplerate: 48000 Hz
[10:51:56]    + mixdown: Stereo
[10:51:56]    + encoder: AAC (Apple AudioToolbox)
[10:51:56]      + bitrate: 160 kbps, samplerate: 48000 Hz
[10:51:56] sync: expecting 43480 video frames
[10:51:56] encx264: min-keyint: 30, keyint: 300
[10:51:56] encx264: encoding at constant RF 22.000000
[10:51:56] encx264: unparsed options: level=4.0:ref=2:8x8dct=0:weightp=1:subme=6:vbv-bufsize=25000:vbv-maxrate=20000:rc-lookahead=30
x264 [info]: using SAR=1/1
x264 [info]: using cpu capabilities: ARMv8 NEON
x264 [info]: profile Main, level 4.0, 4:2:0, 8-bit
[10:51:56] sync: first pts video is 0
[10:51:56] sync: "Chapter 1" (1) at frame 1 time 0
[10:51:56] sync: first pts audio 0x0 is 0
[11:03:34] reader: done. 1 scr changes
[11:03:34] work: average encoding speed for job is 62.292061 fps
[11:03:34] comb detect: heavy 156 | light 2 | uncombed 43322 | total 43480
[11:03:34] decomb: deinterlaced 156 | blended 2 | unfiltered 43322 | total 43480
[11:03:34] vfr: 43480 frames output, 0 dropped and 0 duped for CFR/PFR
[11:03:34] vfr: lost time: 0 (0 frames)
[11:03:34] vfr: gained time: 0 (0 frames) (0 not accounted for)
[11:03:34] pcm_s24le-decoder done: 69567 frames, 0 decoder errors
[11:03:34] prores-decoder done: 43480 frames, 0 decoder errors
[11:03:34] sync: got 43480 frames, 43480 expected
[11:03:34] sync: framerate min 29.970 fps, max 29.970 fps, avg 29.970 fps
x264 [info]: frame I:160   Avg QP:12.40  size:142898
x264 [info]: frame P:10944 Avg QP:13.55  size:   782
x264 [info]: frame B:32376 Avg QP:19.39  size:   201
x264 [info]: consecutive B-frames:  0.5%  0.3%  1.0% 98.2%
x264 [info]: mb I  I16..4: 66.4%  0.0% 33.6%
x264 [info]: mb P  I16..4:  0.6%  0.0%  0.1%  P16..4:  1.3%  0.2%  0.5%  0.0%  0.0%    skip:97.3%
x264 [info]: mb B  I16..4:  0.1%  0.0%  0.0%  B16..8:  0.0%  0.0%  0.0%  direct: 1.3%  skip:98.6%  L0:38.5% L1:59.2% BI: 2.3%
x264 [info]: coded y,uvDC,uvAC intra: 33.1% 64.7% 46.5% inter: 0.0% 1.3% 0.0%
x264 [info]: i16 v,h,dc,p: 61% 26%  9%  4%
x264 [info]: i4 v,h,dc,ddl,ddr,vr,hd,vl,hu: 22% 21% 37%  4%  3%  3%  3%  3%  3%
x264 [info]: i8c dc,h,v,p: 66% 19% 11%  3%
x264 [info]: Weighted P-Frames: Y:1.8% UV:1.8%
x264 [info]: ref P L0: 91.9%  8.1%
x264 [info]: ref B L0: 46.2% 53.8%
x264 [info]: ref B L1: 90.7%  9.3%
x264 [info]: kb/s:209.08
[11:03:34] mux: track 0, 43480 frames, 37909342 bytes, 209.04 kbps, fifo 16384
[11:03:34] mux: track 1, 68008 frames, 24001226 bytes, 132.35 kbps, fifo 16384
[11:03:35] Finished work at: Mon Jun  6 11:03:35 2022

[11:03:35] libhb: work result = 0
OLD MACHINE

Hardware Overview:

Model Name: MacBook Pro
Model Identifier: MacBookPro15,3
Processor Name: 6-Core Intel Core i9
Processor Speed: 2.9 GHz
Number of Processors: 1
Total Number of Cores: 6
L2 Cache (per Core): 256 KB
L3 Cache: 12 MB
Hyper-Threading Technology: Enabled
Memory: 32 GB

Original Media:

Pro Res 422 1920 X 1080 29.97fps

Encode preset FAST1080p30 w/web optimized
average encoding speed for job is 95.015671 fps

Encoding Log:

Code: Select all

HandBrake Activity Log for Session: 2022-06-16T19:14:37Z
Handbrake Version: 1.5.1 (2022011000)
NLCPrep-2022-08.PS.Practices.GIS.Part-2.mp4
Preset: Fast 1080p30 (Modified)
[12:14:37] Compile-time hardening features are enabled
[12:14:38] hb_init: starting libhb thread
[12:14:38] macgui: fr.handbrake.HandBrakeXPCService scanning specifically for title: 1
[12:14:38] CPU: Intel(R) Core(TM) i9-8950HK CPU @ 2.90GHz
[12:14:38]  - Intel microarchitecture Kaby Lake
[12:14:38]  - logical processor count: 12
[12:14:38] hb_scan: path=/Users/johnkuehne/Downloads/NLCPrep-2022-08.PS.Practices.GIS.Part-2.mov, title_index=1
udfread ERROR: ECMA 167 Volume Recognition failed
disc.c:333: failed opening UDF image /Users/johnkuehne/Downloads/NLCPrep-2022-08.PS.Practices.GIS.Part-2.mov
disc.c:437: error opening file BDMV/index.bdmv
disc.c:437: error opening file BDMV/BACKUP/index.bdmv
bluray.c:2646: nav_get_title_list(/Users/johnkuehne/Downloads/NLCPrep-2022-08.PS.Practices.GIS.Part-2.mov/) failed
[12:14:38] bd: not a bd - trying as a stream/file instead
libdvdread: DVDOpenFileUDF:UDFFindFile /VIDEO_TS/VIDEO_TS.IFO failed
libdvdnav: vm: vm: failed to read VIDEO_TS.IFO
[12:14:38] dvd: not a dvd - trying as a stream/file instead
Input #0, mov,mp4,m4a,3gp,3g2,mj2, from '/Users/johnkuehne/Downloads/NLCPrep-2022-08.PS.Practices.GIS.Part-2.mov':
  Metadata:
    major_brand     : qt  
    minor_version   : 0
    compatible_brands: qt  
    creation_time   : 2022-06-16T17:34:05.000000Z
    com.apple.quicktime.keywords: 08.PS.Practices.GIS.Database,Shared
    com.apple.quicktime.description: This video is about NLCPrep-2022-08.PS.Practices.GIS.Part-2
    com.apple.quicktime.author: John Kuehne
    com.apple.quicktime.displayname: NLCPrep-2022-08.PS.Practices.GIS.Part-2
    com.apple.quicktime.title: NLCPrep-2022-08.PS.Practices.GIS.Part-2
  Duration: 00:24:17.66, start: 0.000000, bitrate: 141246 kb/s
  Stream #0:0(und): Audio: pcm_s24le (lpcm / 0x6D63706C), 48000 Hz, 2 channels, s32 (24 bit), 2304 kb/s (default)
    Metadata:
      creation_time   : 2022-06-16T17:34:05.000000Z
      handler_name    : Core Media Audio
      vendor_id       : [0][0][0][0]
  Stream #0:1(und): Video: prores (Standard) (apcn / 0x6E637061), yuv422p10le(tv, bt709, progressive), 1920x1080, 138565 kb/s, SAR 1:1 DAR 16:9, 29.97 fps, 29.97 tbr, 30k tbn, 30k tbc (default)
    Metadata:
      creation_time   : 2022-06-16T17:34:05.000000Z
      handler_name    : Core Media Video
      vendor_id       : [0][0][0][0]
      encoder         : Apple ProRes 422
      timecode        : 00:00:00:00
  Stream #0:2(und): Data: none (tmcd / 0x64636D74) (default)
    Metadata:
      creation_time   : 2022-06-16T17:34:05.000000Z
      handler_name    : Core Media Time Code
      timecode        : 00:00:00:00
[12:14:38] scan: decoding previews for title 1
[12:14:38] scan: audio 0x0: pcm_s24le, rate=48000Hz, bitrate=2304000 Unknown (pcm_s24le) (2.0 ch) (2304 kbps)
[12:14:38] scan: 10 previews, 1920x1080, 29.970 fps, autocrop = 0/0/0/0, aspect 16:9, PAR 1:1, color profile: 1-1-1, chroma location: unspecified
[12:14:38] libhb: scan thread found 1 valid title(s)
[12:14:38] macgui: fr.handbrake.HandBrakeXPCService scan done
[12:14:38] macgui: fr.handbrake.HandBrakeXPCService started encoding NLCPrep-2022-08.PS.Practices.GIS.Part-2.mp4
[12:14:38] macgui: fr.handbrake.HandBrakeXPCService with preset Fast 1080p30 (Modified)
[12:14:38] Starting work at: Thu Jun 16 12:14:38 2022

[12:14:38] 1 job(s) to process
[12:14:38] Starting Task: Encoding Pass
[12:14:38] Skipping crop/scale filter
[12:14:38] work: only 1 chapter, disabling chapter markers
[12:14:38] job configuration:
[12:14:38]  * source
[12:14:38]    + /Users/johnkuehne/Downloads/NLCPrep-2022-08.PS.Practices.GIS.Part-2.mov
[12:14:38]    + title 1, chapter(s) 1 to 1
[12:14:38]    + container: mov,mp4,m4a,3gp,3g2,mj2
[12:14:38]    + data rate: 141246 kbps
[12:14:38]  * destination
[12:14:38]    + /Users/johnkuehne/Library/Containers/fr.handbrake.HandBrake/Data/Movies/NLCPrep-2022-08.PS.Practices.GIS.Part-2.mp4
[12:14:38]    + container: MPEG-4 (libavformat)
[12:14:38]      + optimized for HTTP streaming (fast start)
[12:14:38]      + align initial A/V stream timestamps
[12:14:38]  * video track
[12:14:38]    + decoder: prores 8-bit (yuv420p)
[12:14:38]      + bitrate 138565 kbps
[12:14:38]    + filters
[12:14:38]      + Comb Detect (mode=3:spatial-metric=2:motion-thresh=1:spatial-thresh=1:filter-mode=2:block-thresh=40:block-width=16:block-height=16)
[12:14:38]      + Decomb (mode=39)
[12:14:38]      + Framerate Shaper (mode=2:rate=27000000/900000)
[12:14:38]        + frame rate: 29.970 fps -> peak rate limited to 30.000 fps
[12:14:38]    + Output geometry
[12:14:38]      + storage dimensions: 1920 x 1080
[12:14:38]      + pixel aspect ratio: 1 : 1
[12:14:38]      + display dimensions: 1920 x 1080
[12:14:38]    + encoder: H.264 (libx264)
[12:14:38]      + preset:  fast
[12:14:38]      + profile: main
[12:14:38]      + level:   4.0
[12:14:38]      + quality: 22.00 (RF)
[12:14:38]      + color profile: 1-1-1
[12:14:38]      + chroma location: unspecified
[12:14:38]  * audio track 1
[12:14:38]    + decoder: Unknown (pcm_s24le) (2.0 ch) (2304 kbps) (track 1, id 0x0)
[12:14:38]      + bitrate: 2304 kbps, samplerate: 48000 Hz
[12:14:38]    + mixdown: Stereo
[12:14:38]    + encoder: AAC (Apple AudioToolbox)
[12:14:38]      + bitrate: 160 kbps, samplerate: 48000 Hz
[12:14:38] sync: expecting 43686 video frames
[12:14:38] encx264: min-keyint: 30, keyint: 300
[12:14:38] encx264: encoding at constant RF 22.000000
[12:14:38] encx264: unparsed options: level=4.0:ref=2:8x8dct=0:weightp=1:subme=6:vbv-bufsize=25000:vbv-maxrate=20000:rc-lookahead=30
x264 [info]: using SAR=1/1
x264 [info]: using cpu capabilities: MMX2 SSE2Fast SSSE3 SSE4.2 AVX FMA3 BMI2 AVX2
x264 [info]: profile Main, level 4.0, 4:2:0, 8-bit
[12:14:39] sync: first pts video is 0
[12:14:39] sync: "Chapter 1" (1) at frame 1 time 0
[12:14:39] sync: first pts audio 0x0 is 0
[12:22:18] reader: done. 1 scr changes
[12:22:19] work: average encoding speed for job is 95.015671 fps
[12:22:19] comb detect: heavy 141 | light 0 | uncombed 43545 | total 43686
[12:22:19] decomb: deinterlaced 141 | blended 0 | unfiltered 43545 | total 43686
[12:22:19] vfr: 43686 frames output, 0 dropped and 0 duped for CFR/PFR
[12:22:19] vfr: lost time: 0 (0 frames)
[12:22:19] vfr: gained time: 0 (0 frames) (0 not accounted for)
[12:22:19] pcm_s24le-decoder done: 69897 frames, 0 decoder errors
[12:22:19] prores-decoder done: 43686 frames, 0 decoder errors
[12:22:19] sync: got 43686 frames, 43686 expected
[12:22:19] sync: framerate min 29.970 fps, max 29.970 fps, avg 29.970 fps
x264 [info]: frame I:155   Avg QP:13.28  size:172115
x264 [info]: frame P:10995 Avg QP:14.45  size:   796
x264 [info]: frame B:32536 Avg QP:21.17  size:   175
x264 [info]: consecutive B-frames:  0.5%  0.3%  1.0% 98.2%
x264 [info]: mb I  I16..4: 60.3%  0.0% 39.7%
x264 [info]: mb P  I16..4:  0.5%  0.0%  0.1%  P16..4:  1.4%  0.2%  0.2%  0.0%  0.0%    skip:97.6%
x264 [info]: mb B  I16..4:  0.1%  0.0%  0.0%  B16..8:  0.0%  0.0%  0.0%  direct: 1.1%  skip:98.8%  L0:37.5% L1:59.8% BI: 2.6%
x264 [info]: coded y,uvDC,uvAC intra: 33.9% 55.9% 39.4% inter: 0.0% 1.1% 0.0%
x264 [info]: i16 v,h,dc,p: 60% 30%  7%  3%
x264 [info]: i4 v,h,dc,ddl,ddr,vr,hd,vl,hu: 31% 25% 22%  4%  4%  4%  4%  4%  4%
x264 [info]: i8c dc,h,v,p: 65% 20% 12%  3%
x264 [info]: Weighted P-Frames: Y:1.6% UV:1.6%
x264 [info]: ref P L0: 88.8% 11.2%
x264 [info]: ref B L0: 66.0% 34.0%
x264 [info]: ref B L1: 87.6% 12.4%
x264 [info]: kb/s:225.65
[12:22:19] mux: track 0, 43686 frames, 41107956 bytes, 225.60 kbps, fifo 8192
[12:22:19] mux: track 1, 68331 frames, 24988671 bytes, 137.14 kbps, fifo 16384
[12:22:19] Finished work at: Thu Jun 16 12:22:19 2022

[12:22:19] libhb: work result = 0
User avatar
Ritsuka
HandBrake Team
Posts: 1426
Joined: Fri Jan 12, 2007 11:29 am

Re: Apple Studio M1 Max vs. MacBook Pro I9

Post by Ritsuka »

Interesting, could you test a snapshot , and test if the performance change if the source is not ProRes? It could be that FFmpeg ProRes decoder is not optimised for arm yet, or probably the pixel format conversion that transform the 422 10bit ProRes to 8bit..

Anyway, a snapshot is worth a try: https://github.com/HandBrake/HandBrake-snapshots
jkkuehne
Posts: 3
Joined: Thu Jun 16, 2022 6:04 pm

Re: Apple Studio M1 Max vs. MacBook Pro I9

Post by jkkuehne »

Yes, thanks I will give it a try.
My exports from FCP are always Pro Res btw.
jkkuehne
Posts: 3
Joined: Thu Jun 16, 2022 6:04 pm

Re: Apple Studio M1 Max vs. MacBook Pro I9

Post by jkkuehne »

Allrighty Then - You guys are brilliant.

With HandBrake-20220614172111-ee053899e-master

Using FAST1080p30 w/web optimized
work: average encoding speed for job is 148.307007 fps
More than double the performance - amazing.

Code: Select all

HandBrake Activity Log for Session: 2022-06-17T13:49:18Z
Handbrake Version: 20220614172111-ee053899e-master (2022061701)
NLCPrep-2022-08.PS.Practices.GIS.Part-2.mp4
Preset: Fast 1080p30 (Modified)
[06:49:18] Compile-time hardening features are enabled
[06:49:18] hb_init: starting libhb thread
[06:49:18] macgui: fr.handbrake.HandBrakeXPCService scanning specifically for title: 1
[06:49:18] CPU: 
[06:49:18]  - logical processor count: 10
[06:49:18] hb_scan: path=/Volumes/RocketQ-Cache/Comps/NLCPrep-2022-08.PS.Practices.GIS.Part-2.mov, title_index=1
udfread ERROR: ECMA 167 Volume Recognition failed
disc.c:333: failed opening UDF image /Volumes/RocketQ-Cache/Comps/NLCPrep-2022-08.PS.Practices.GIS.Part-2.mov
disc.c:437: error opening file BDMV/index.bdmv
disc.c:437: error opening file BDMV/BACKUP/index.bdmv
bluray.c:2646: nav_get_title_list(/Volumes/RocketQ-Cache/Comps/NLCPrep-2022-08.PS.Practices.GIS.Part-2.mov/) failed
[06:49:18] bd: not a bd - trying as a stream/file instead
libdvdread: DVDOpenFileUDF:UDFFindFile /VIDEO_TS/VIDEO_TS.IFO failed
libdvdnav: vm: vm: failed to read VIDEO_TS.IFO
[06:49:18] dvd: not a dvd - trying as a stream/file instead
Input #0, mov,mp4,m4a,3gp,3g2,mj2, from '/Volumes/RocketQ-Cache/Comps/NLCPrep-2022-08.PS.Practices.GIS.Part-2.mov':
  Metadata:
    major_brand     : qt  
    minor_version   : 0
    compatible_brands: qt  
    creation_time   : 2022-06-16T17:34:05.000000Z
    com.apple.quicktime.keywords: 08.PS.Practices.GIS.Database,Shared
    com.apple.quicktime.description: This video is about NLCPrep-2022-08.PS.Practices.GIS.Part-2
    com.apple.quicktime.author: John Kuehne
    com.apple.quicktime.displayname: NLCPrep-2022-08.PS.Practices.GIS.Part-2
    com.apple.quicktime.title: NLCPrep-2022-08.PS.Practices.GIS.Part-2
  Duration: 00:24:17.66, start: 0.000000, bitrate: 141246 kb/s
  Stream #0:0[0x1](und): Audio: pcm_s24le (lpcm / 0x6D63706C), 48000 Hz, 2 channels, s32 (24 bit), 2304 kb/s (default)
    Metadata:
      creation_time   : 2022-06-16T17:34:05.000000Z
      handler_name    : Core Media Audio
      vendor_id       : [0][0][0][0]
  Stream #0:1[0x2](und): Video: prores (Standard) (apcn / 0x6E637061), yuv422p10le(tv, bt709, progressive), 1920x1080, 138565 kb/s, SAR 1:1 DAR 16:9, 29.97 fps, 29.97 tbr, 30k tbn (default)
    Metadata:
      creation_time   : 2022-06-16T17:34:05.000000Z
      handler_name    : Core Media Video
      vendor_id       : [0][0][0][0]
      encoder         : Apple ProRes 422
      timecode        : 00:00:00:00
  Stream #0:2[0x3](und): Data: none (tmcd / 0x64636D74) (default)
    Metadata:
      creation_time   : 2022-06-16T17:34:05.000000Z
      handler_name    : Core Media Time Code
      timecode        : 00:00:00:00
[06:49:18] scan: decoding previews for title 1
[06:49:18] scan: audio 0x0: pcm_s24le, rate=48000Hz, bitrate=2304000 Unknown (pcm_s24le) (2.0 ch) (2304 kbps)
[06:49:18] scan: 10 previews, 1920x1080, 29.970 fps, autocrop = 0/0/0/0, aspect 16:9, PAR 1:1, color profile: 1-1-1, chroma location: unspecified
[06:49:18] libhb: scan thread found 1 valid title(s)
[06:49:18] macgui: fr.handbrake.HandBrakeXPCService scan done
[06:49:18] macgui: fr.handbrake.HandBrakeXPCService started encoding NLCPrep-2022-08.PS.Practices.GIS.Part-2.mp4
[06:49:18] macgui: fr.handbrake.HandBrakeXPCService with preset Fast 1080p30 (Modified)
[06:49:18] Starting work at: Fri Jun 17 06:49:18 2022

[06:49:18] 1 job(s) to process
[06:49:18] Starting Task: Encoding Pass
[06:49:18] Skipping crop/scale filter
[06:49:18] work: only 1 chapter, disabling chapter markers
[06:49:18] job configuration:
[06:49:18]  * source
[06:49:18]    + /Volumes/RocketQ-Cache/Comps/NLCPrep-2022-08.PS.Practices.GIS.Part-2.mov
[06:49:18]    + title 1, chapter(s) 1 to 1
[06:49:18]    + container: mov,mp4,m4a,3gp,3g2,mj2
[06:49:18]    + data rate: 141246 kbps
[06:49:18]  * destination
[06:49:18]    + /Volumes/RocketQ-Cache/Comps/NLCPrep-2022-08.PS.Practices.GIS.Part-2.mp4
[06:49:18]    + container: MPEG-4 (libavformat)
[06:49:18]      + optimized for HTTP streaming (fast start)
[06:49:18]      + align initial A/V stream timestamps
[06:49:18]  * video track
[06:49:18]    + decoder: prores 10-bit (yuv422p10le)
[06:49:18]      + bitrate 138565 kbps
[06:49:18]    + filters
[06:49:18]      + Comb Detect (mode=3:spatial-metric=2:motion-thresh=1:spatial-thresh=1:filter-mode=2:block-thresh=40:block-width=16:block-height=16)
[06:49:18]      + Decomb (mode=39)
[06:49:18]      + Framerate Shaper (mode=2:rate=27000000/900000)
[06:49:18]        + frame rate: 29.970 fps -> peak rate limited to 30.000 fps
[06:49:18]      + Format (format=yuv420p)
[06:49:18]    + Output geometry
[06:49:18]      + storage dimensions: 1920 x 1080
[06:49:18]      + pixel aspect ratio: 1 : 1
[06:49:18]      + display dimensions: 1920 x 1080
[06:49:18]    + encoder: H.264 (libx264)
[06:49:18]      + preset:  fast
[06:49:18]      + profile: main
[06:49:18]      + level:   4.0
[06:49:18]      + quality: 22.00 (RF)
[06:49:18]      + color profile: 1-1-1
[06:49:18]      + chroma location: unspecified
[06:49:18]  * audio track 1
[06:49:18]    + decoder: Unknown (pcm_s24le) (2.0 ch) (2304 kbps) (track 1, id 0x0)
[06:49:18]      + bitrate: 2304 kbps, samplerate: 48000 Hz
[06:49:18]    + mixdown: Stereo
[06:49:18]    + encoder: AAC (Apple AudioToolbox)
[06:49:18]      + bitrate: 160 kbps, samplerate: 48000 Hz
[06:49:18] sync: expecting 43686 video frames
[06:49:18] encx264: min-keyint: 30, keyint: 300
[06:49:18] encx264: encoding at constant RF 22.000000
[06:49:18] encx264: unparsed options: level=4.0:ref=2:8x8dct=0:weightp=1:subme=6:vbv-bufsize=25000:vbv-maxrate=20000:rc-lookahead=30
x264 [info]: using SAR=1/1
x264 [info]: using cpu capabilities: ARMv8 NEON
x264 [info]: profile Main, level 4.0, 4:2:0, 8-bit
[06:49:19] sync: first pts video is 0
[06:49:19] sync: "Chapter 1" (1) at frame 1 time 0
[06:49:19] sync: first pts audio 0x0 is 0
[06:54:13] reader: done. 1 scr changes
[06:54:13] work: average encoding speed for job is 148.307007 fps
[06:54:13] comb detect: heavy 0 | light 2 | uncombed 43684 | total 43686
[06:54:13] decomb: deinterlaced 0 | blended 2 | unfiltered 43684 | total 43686
[06:54:13] vfr: 43686 frames output, 0 dropped and 0 duped for CFR/PFR
[06:54:13] vfr: lost time: 0 (0 frames)
[06:54:13] vfr: gained time: 0 (0 frames) (0 not accounted for)
[06:54:13] pcm_s24le-decoder done: 69897 frames, 0 decoder errors
[06:54:13] prores-decoder done: 43686 frames, 0 decoder errors
[06:54:13] sync: got 43686 frames, 43686 expected
[06:54:13] sync: framerate min 29.970 fps, max 29.970 fps, avg 29.970 fps
x264 [info]: frame I:155   Avg QP:13.21  size:172266
x264 [info]: frame P:10977 Avg QP:14.36  size:   606
x264 [info]: frame B:32554 Avg QP:19.78  size:   194
x264 [info]: consecutive B-frames:  0.5%  0.2%  1.1% 98.3%
x264 [info]: mb I  I16..4: 60.3%  0.0% 39.7%
x264 [info]: mb P  I16..4:  0.5%  0.0%  0.1%  P16..4:  1.3%  0.2%  0.2%  0.0%  0.0%    skip:97.8%
x264 [info]: mb B  I16..4:  0.1%  0.0%  0.0%  B16..8:  0.1%  0.0%  0.0%  direct: 1.2%  skip:98.7%  L0:45.2% L1:52.9% BI: 1.9%
x264 [info]: coded y,uvDC,uvAC intra: 32.9% 53.1% 38.0% inter: 0.0% 1.1% 0.0%
x264 [info]: i16 v,h,dc,p: 60% 30%  6%  3%
x264 [info]: i4 v,h,dc,ddl,ddr,vr,hd,vl,hu: 27% 24% 26%  3%  4%  4%  4%  4%  4%
x264 [info]: i8c dc,h,v,p: 65% 20% 12%  3%
x264 [info]: Weighted P-Frames: Y:1.5% UV:1.5%
x264 [info]: ref P L0: 86.9% 13.1%
x264 [info]: ref B L0: 60.6% 39.4%
x264 [info]: ref B L1: 91.5%  8.5%
x264 [info]: kb/s:217.70
[06:54:14] mux: track 0, 43686 frames, 39660732 bytes, 217.66 kbps, fifo 8192
[06:54:14] mux: track 1, 68331 frames, 24988795 bytes, 137.14 kbps, fifo 16384
[06:54:14] Finished work at: Fri Jun 17 06:54:14 2022

[06:54:14] libhb: work result = 0
User avatar
Ritsuka
HandBrake Team
Posts: 1426
Joined: Fri Jan 12, 2007 11:29 am

Re: Apple Studio M1 Max vs. MacBook Pro I9

Post by Ritsuka »

Thanks FFmpeg developers for all the improvements they made ;)
Post Reply