Incorrect Framerate in Summary Tab

HandBrake for Windows support
Forum rules
An Activity Log is required for support requests. Please read How-to get an activity log? for details on how and why this should be provided.
Post Reply
2COOL2
Posts: 7
Joined: Thu Mar 11, 2010 6:00 pm

Incorrect Framerate in Summary Tab

Post by 2COOL2 » Tue Sep 17, 2019 10:30 am

Description of problem or question:

Wrong framerate detected in Summary tab


Steps to reproduce the problem (If Applicable):

1. Opened a video with 23.976 FPS in handbrake. Confirmed 23.976 FPS in VLC and Vidcoder's input video specs.
2. In Handbrake Summary tab, it shows 30 FPS
3. Checked my video's activity log for scanned FPS and it says 23.976 FPS.
[00:09:32] scan: 10 previews, 1920x808, 23.976 fps, autocrop = 2/2/0/0, aspect 2.38:1, PAR 1:1


HandBrake version (e.g., 1.0.0):

1.2.2


Operating system and version (e.g., Ubuntu 16.04 LTS, macOS 10.13 High Sierra, Windows 10 Creators Update):

Windows 10 Home 64-bit


HandBrake Activity Log ***required*** (see How-to get an activity log)

Code: Select all

HandBrake 1.2.2 (2019022300)
OS: Microsoft Windows NT 10.0.17134.0
CPU: AMD A10-7800 Radeon R7, 12 Compute Cores 4C+8G 
Ram: 11211 MB, 
GPU Information:
  AMD Radeon(TM) R7 Graphics - 25.20.15031.1000
Screen: 1920x1080
Temp Dir: C:\Users\MaxJax\AppData\Local\Temp\
Install Dir: C:\Program Files\HandBrake
Data Dir: C:\Users\MaxJax\AppData\Roaming\HandBrake

-------------------------------------------

Cannot load nvEncodeAPI64.dll
[00:09:31] hb_init: starting libhb thread

 # Starting Scan ...

[00:09:31] CPU:
[00:09:31]  - logical processor count: 4
[00:09:31] Intel Quick Sync Video support: no
[00:09:31] hb_scan: path=C:\Users\MaxJax\Desktop\First Birthday [1080p].mkv, title_index=0
udfread ERROR: ECMA 167 Volume Recognition failed
src/libbluray/disc/disc.c:323: failed opening UDF image C:\Users\MaxJax\Desktop\First Birthday [1080p].mkv
src/libbluray/disc/disc.c:424: error opening file BDMV\index.bdmv
src/libbluray/disc/disc.c:424: error opening file BDMV\BACKUP\index.bdmv
[00:09:31] bd: not a bd - trying as a stream/file instead
libdvdnav: Using dvdnav version 6.0.0
libdvdread: Encrypted DVD support unavailable.
libdvdread:DVDOpenFileUDF:UDFFindFile /VIDEO_TS/VIDEO_TS.IFO failed
libdvdread:DVDOpenFileUDF:UDFFindFile /VIDEO_TS/VIDEO_TS.BUP failed
libdvdread: Can't open file VIDEO_TS.IFO.
libdvdnav: vm: failed to read VIDEO_TS.IFO
[00:09:31] dvd: not a dvd - trying as a stream/file instead
Input #0, matroska,webm, from 'C:\Users\MaxJax\Desktop\First Birthday [1080p].mkv':
  Metadata:
    encoder         : libebml v1.3.5 + libmatroska v1.4.8
    creation_time   : 2018-03-04T22:58:26.000000Z
  Duration: 01:45:02.06, start: 0.000000, bitrate: 2726 kb/s
    Stream #0:0: Video: h264 (High), yuv420p(progressive), 1920x808 [SAR 1:1 DAR 240:101], 23.98 fps, 23.98 tbr, 1k tbn, 47.95 tbc (default)
    Metadata:
      BPS             : 2499846
      BPS-eng         : 2499846
      DURATION        : 01:45:02.010000000
      DURATION-eng    : 01:45:02.010000000
      NUMBER_OF_FRAMES: 151097
      NUMBER_OF_FRAMES-eng: 151097
      NUMBER_OF_BYTES : 1969256938
      NUMBER_OF_BYTES-eng: 1969256938
      _STATISTICS_WRITING_APP: mkvmerge v18.0.0 ('Apricity') 64-bit
      _STATISTICS_WRITING_APP-eng: mkvmerge v18.0.0 ('Apricity') 64-bit
      _STATISTICS_WRITING_DATE_UTC: 2018-03-04 22:58:26
      _STATISTICS_WRITING_DATE_UTC-eng: 2018-03-04 22:58:26
      _STATISTICS_TAGS: BPS DURATION NUMBER_OF_FRAMES NUMBER_OF_BYTES
      _STATISTICS_TAGS-eng: BPS DURATION NUMBER_OF_FRAMES NUMBER_OF_BYTES
    Stream #0:1(eng): Audio: aac (LC), 48000 Hz, 5.1, fltp (default)
    Metadata:
      BPS             : 224000
      BPS-eng         : 224000
      DURATION        : 01:45:02.058000000
      DURATION-eng    : 01:45:02.058000000
      NUMBER_OF_FRAMES: 295409
      NUMBER_OF_FRAMES-eng: 295409
      NUMBER_OF_BYTES : 176457643
      NUMBER_OF_BYTES-eng: 176457643
      _STATISTICS_WRITING_APP: mkvmerge v18.0.0 ('Apricity') 64-bit
      _STATISTICS_WRITING_APP-eng: mkvmerge v18.0.0 ('Apricity') 64-bit
      _STATISTICS_WRITING_DATE_UTC: 2018-03-04 22:58:26
      _STATISTICS_WRITING_DATE_UTC-eng: 2018-03-04 22:58:26
      _STATISTICS_TAGS: BPS DURATION NUMBER_OF_FRAMES NUMBER_OF_BYTES
      _STATISTICS_TAGS-eng: BPS DURATION NUMBER_OF_FRAMES NUMBER_OF_BYTES
    Stream #0:2(eng): Subtitle: ass
    Metadata:
      BPS             : 128
      BPS-eng         : 128
      DURATION        : 01:34:51.730000000
      DURATION-eng    : 01:34:51.730000000
      NUMBER_OF_FRAMES: 1164
      NUMBER_OF_FRAMES-eng: 1164
      NUMBER_OF_BYTES : 91558
      NUMBER_OF_BYTES-eng: 91558
      _STATISTICS_WRITING_APP: mkvmerge v18.0.0 ('Apricity') 64-bit
      _STATISTICS_WRITING_APP-eng: mkvmerge v18.0.0 ('Apricity') 64-bit
      _STATISTICS_WRITING_DATE_UTC: 2018-03-04 22:58:26
      _STATISTICS_WRITING_DATE_UTC-eng: 2018-03-04 22:58:26
      _STATISTICS_TAGS: BPS DURATION NUMBER_OF_FRAMES NUMBER_OF_BYTES
      _STATISTICS_TAGS-eng: BPS DURATION NUMBER_OF_FRAMES NUMBER_OF_BYTES
    Stream #0:3: Attachment: ttf
    Metadata:
      filename        : OpenSans-Semibold.ttf
      mimetype        : application/x-truetype-font
[00:09:31] scan: decoding previews for title 1
[00:09:31] scan: audio 0x1: aac, rate=48000Hz, bitrate=1 English (AAC LC) (5.1 ch)
[00:09:32] scan: 10 previews, 1920x808, 23.976 fps, autocrop = 2/2/0/0, aspect 2.38:1, PAR 1:1
[00:09:32] scan: supported video decoders: avcodec qsv
[00:09:32] libhb: scan thread found 1 valid title(s)

 # Processing Scan Information ...


 # Scan Finished ...



video.baba
Posts: 59
Joined: Sun May 24, 2015 11:12 am

Re: Incorrect Framerate in Summary Tab

Post by video.baba » Tue Sep 17, 2019 10:51 am

Your source looks like it's FPS has been detected fine.

The Summary is showing you the selected output FPS, depending on preset. That's output, not input.

2COOL2
Posts: 7
Joined: Thu Mar 11, 2010 6:00 pm

Re: Incorrect Framerate in Summary Tab

Post by 2COOL2 » Tue Sep 17, 2019 10:55 am

Sigh. You're right. Spent lots of time between Handbrake & Vidcoder today. I'm drained.

musicvid
Veteran User
Posts: 3330
Joined: Sat Jun 27, 2009 1:19 am

Re: Incorrect Framerate in Summary Tab

Post by musicvid » Tue Sep 17, 2019 1:08 pm

Don't spend so much time on Vidcoder.

mduell
Veteran User
Posts: 6714
Joined: Sat Apr 21, 2007 8:54 pm

Re: Incorrect Framerate in Summary Tab

Post by mduell » Tue Sep 17, 2019 3:19 pm

Or either GUI, really.

Post Reply