High Profile deprecated?

Discuss encoding for devices and presets.
Forum rules
An Activity Log is required for support requests. Please read How-to get an activity log? for details on how and why this should be provided.
Post Reply
stoc2528
Posts: 10
Joined: Fri Jan 11, 2019 6:48 pm

High Profile deprecated?

Post by stoc2528 » Fri Jan 11, 2019 6:53 pm

Why was the High Profile preset deprecated?

I've been using the "High Profile" preset for years because my ripped DVDs and mkv's (from my blu rays) looked great and was relatively fast. I read that the HQ 1080p30 was the correct "replacement" for the High Profile preset but HQ 1080p30 is much, much slower to encode.

Is there a way to truly replicate the old High Profile preset and get the same quality with the same encode speed?

Thanks,

mduell
Veteran User
Posts: 6532
Joined: Sat Apr 21, 2007 8:54 pm

Re: High Profile deprecated?

Post by mduell » Fri Jan 11, 2019 7:05 pm

An Activity Log is required for support requests. Please read How-to get an activity log? for details on how and why this should be provided.

With activity logs for the from what you used to get when you think you were using the High Profile preset and the same movie with what you think is the HQ 1080p30 preset, we can point out the differences and changes you need to make for them to be close if not the same.

User avatar
s55
HandBrake Team
Posts: 9446
Joined: Sun Dec 24, 2006 1:05 pm

Re: High Profile deprecated?

Post by s55 » Fri Jan 11, 2019 7:09 pm

There isn't much point in keeping legacy presets around. It just causes confusion.

On the Video Tab, Set the Encoder to Preset to Medium.

The new HQ preset should produce an better result in many circumstances but it trades speed to do that. Switching it to "Medium" brings it much closer to what the old preset used to do.

stoc2528
Posts: 10
Joined: Fri Jan 11, 2019 6:48 pm

Re: High Profile deprecated?

Post by stoc2528 » Fri Jan 11, 2019 7:14 pm

I didn't intend this to be an official support request so I'll rephrase; Why was the High Profile preset deprecated?

mduell
Veteran User
Posts: 6532
Joined: Sat Apr 21, 2007 8:54 pm

Re: High Profile deprecated?

Post by mduell » Fri Jan 11, 2019 7:18 pm

Reducing confusion about what to use when, especially with the new variety of presets offered to cover more use cases.

Also it had some legacy cruft that is no longer considered best practice.

stoc2528
Posts: 10
Joined: Fri Jan 11, 2019 6:48 pm

Re: High Profile deprecated?

Post by stoc2528 » Fri Jan 11, 2019 7:21 pm

s55 wrote:
Fri Jan 11, 2019 7:09 pm
There isn't much point in keeping legacy presets around. It just causes confusion.
I would agree if a current preset duplicated the old High Profile preset but it does not, at least, not in terms of speed vs quality.

I guess I'll just keep both home and work computers on the older 1.1.2 version.

stoc2528
Posts: 10
Joined: Fri Jan 11, 2019 6:48 pm

Re: High Profile deprecated?

Post by stoc2528 » Fri Jan 11, 2019 7:25 pm

I'll try to get an activity log from version 1.2.0 this weekend. There isn't time left in the work day today. A bluray mkv was only running at ~10fps on an my i5 laptop and wouldn't complete before 5:00pm

rollin_eng
Veteran User
Posts: 3089
Joined: Wed May 04, 2011 11:06 pm

Re: High Profile deprecated?

Post by rollin_eng » Fri Jan 11, 2019 7:56 pm

You can just encode a chapter to make it finish quicker.

User avatar
BradleyS
Moderator
Posts: 1554
Joined: Thu Aug 09, 2007 12:16 pm

Re: High Profile deprecated?

Post by BradleyS » Fri Jan 11, 2019 8:10 pm

The news for 1.2.0 links to a list of compatible replacements. See the list at the end of https://handbrake.fr/docs/en/1.2.0/tech ... esets.html

In this case, the HQ 1080p30 Surround preset is virtually the same as High Profile. Improvements are "Peak limited to 30 FPS, reduced video bit rate spikes, foreign audio search."

So, since high frame rate content is becoming more common, it limits frame rate to 30 fps max for compatibility. This wasn't a concern at the time High Profile was created. Likewise, H.264 Level is 4.0 which reduces stuttering on devices claiming to support Level 4.1 but not handling the throughout of its maximum instantaneous bit rate. Finally, Foreign Audio Search makes sure to burn in forced subtitles not in the primary audio language.

Combined with a more uniform preset naming convention, these improvements make HQ 1080p30 Surround a more robust High Profile with zero audio-visual quality difference. Try it. ;)

stoc2528
Posts: 10
Joined: Fri Jan 11, 2019 6:48 pm

Re: High Profile deprecated?

Post by stoc2528 » Fri Jan 11, 2019 8:33 pm

Log of a single chapter



Code: Select all

Handbrake Version: 1.2.0 (2018122800)
[14:08:21] gtkgui: Preset: /General/HQ 1080p30 Surround
[14:08:21] 1 job(s) to process
[14:08:21] json job:
{
    "Audio": {
        "AudioList": [
            {
                "Bitrate": 160,
                "CompressionLevel": -1.0,
                "DRC": 0.0,
                "DitherMethod": "auto",
                "Encoder": "av_aac",
                "Gain": 0.0,
                "Mixdown": "stereo",
                "NormalizeMixLevel": false,
                "PresetEncoder": "av_aac",
                "Quality": -3.0,
                "Samplerate": 0,
                "Track": 0
            },
            {
                "Bitrate": 0,
                "DRC": 0.0,
                "Encoder": "copy:ac3",
                "Mixdown": "none",
                "PresetEncoder": "copy:ac3",
                "Quality": -3.0,
                "Samplerate": 0,
                "Track": 0
            }
        ],
        "CopyMask": [
            "copy:aac",
            "copy:ac3"
        ],
        "FallbackEncoder": "av_aac"
    },
    "Destination": {
        "AlignAVStart": true,
        "ChapterList": [
            {
                "Name": "Chapter 1"
            },
            {
                "Name": "Chapter 2"
            },
            {
                "Name": "Chapter 3"
            },
            {
                "Name": "Chapter 4"
            },
            {
                "Name": "Chapter 5"
            },
            {
                "Name": "Chapter 6"
            },
            {
                "Name": "Chapter 7"
            },
            {
                "Name": "Chapter 8"
            },
            {
                "Name": "Chapter 9"
            },
            {
                "Name": "Chapter 10"
            },
            {
                "Name": "Chapter 11"
            },
            {
                "Name": "Chapter 12"
            },
            {
                "Name": "Chapter 13"
            },
            {
                "Name": "Chapter 14"
            },
            {
                "Name": "Chapter 15"
            },
            {
                "Name": "Chapter 16"
            },
            {
                "Name": "Chapter 17"
            },
            {
                "Name": "Chapter 18"
            },
            {
                "Name": "Chapter 19"
            },
            {
                "Name": "Chapter 20"
            },
            {
                "Name": "Chapter 21"
            },
            {
                "Name": "Chapter 22"
            },
            {
                "Name": "Chapter 23"
            },
            {
                "Name": "Chapter 24"
            }
        ],
        "ChapterMarkers": false,
        "File": "/home/sean/Videos/The_Revenant_t00.m4v",
        "InlineParameterSets": false,
        "Mp4Options": {
            "IpodAtom": false,
            "Mp4Optimize": false
        },
        "Mux": "m4v"
    },
    "Filters": {
        "FilterList": [
            {
                "ID": 3,
                "Settings": {
                    "block-height": "16",
                    "block-thresh": "40",
                    "block-width": "16",
                    "filter-mode": "2",
                    "mode": "3",
                    "motion-thresh": "1",
                    "spatial-metric": "2",
                    "spatial-thresh": "1"
                }
            },
            {
                "ID": 4,
                "Settings": {
                    "mode": "7"
                }
            },
            {
                "ID": 6,
                "Settings": {
                    "mode": 2,
                    "rate": "27000000/900000"
                }
            },
            {
                "ID": 11,
                "Settings": {
                    "crop-bottom": 138,
                    "crop-left": 0,
                    "crop-right": 0,
                    "crop-top": 138,
                    "height": 804,
                    "width": 1920
                }
            }
        ]
    },
    "Metadata": {
        "Name": "The Revenant"
    },
    "PAR": {
        "Den": 1,
        "Num": 1
    },
    "SequenceID": 0,
    "Source": {
        "Angle": 0,
        "Path": "/run/user/1000/gvfs/smb-share:server=sean-pc,share=seans%20d/Video/The_Revenant/The_Revenant_t00.mkv",
        "Range": {
            "End": 3,
            "Start": 3,
            "Type": "chapter"
        },
        "Title": 1
    },
    "Subtitle": {
        "Search": {
            "Burn": true,
            "Default": false,
            "Enable": true,
            "Forced": true
        },
        "SubtitleList": [
            {
                "Burn": true,
                "Default": false,
                "Forced": false,
                "Offset": 0,
                "Track": 0
            }
        ]
    },
    "Video": {
        "ColorMatrix": 1,
        "ColorPrimaries": 1,
        "ColorTransfer": 1,
        "Encoder": "x264",
        "Level": "4.0",
        "Options": "",
        "Preset": "slow",
        "Profile": "high",
        "QSV": {
            "AsyncDepth": 4,
            "Decode": false
        },
        "Quality": 20.0,
        "Tune": "",
        "Turbo": false,
        "TwoPass": false
    }
}
[14:08:21] CPU: Intel(R) Core(TM) i5-7200U CPU @ 2.50GHz
[14:08:21]  - Intel microarchitecture Kaby Lake
[14:08:21]  - logical processor count: 4
[14:08:21] hb_scan: path=/run/user/1000/gvfs/smb-share:server=sean-pc,share=seans%20d/Video/The_Revenant/The_Revenant_t00.mkv, title_index=1
udfread ERROR: ECMA 167 Volume Recognition failed
disc.c:323: failed opening UDF image /run/user/1000/gvfs/smb-share:server=sean-pc,share=seans%20d/Video/The_Revenant/The_Revenant_t00.mkv
disc.c:424: error opening file BDMV/index.bdmv
disc.c:424: error opening file BDMV/BACKUP/index.bdmv
[14:08:21] bd: not a bd - trying as a stream/file instead
libdvdnav: Using dvdnav version 6.0.0
libdvdread:DVDOpenFileUDF:UDFFindFile /VIDEO_TS/VIDEO_TS.IFO failed
libdvdread:DVDOpenFileUDF:UDFFindFile /VIDEO_TS/VIDEO_TS.BUP failed
libdvdread: Can't open file VIDEO_TS.IFO.
libdvdnav: vm: failed to read VIDEO_TS.IFO
[14:08:21] dvd: not a dvd - trying as a stream/file instead
Input #0, matroska,webm, from '/run/user/1000/gvfs/smb-share:server=sean-pc,share=seans%20d/Video/The_Revenant/The_Revenant_t00.mkv':
  Metadata:
    title           : The Revenant
    encoder         : libmakemkv v1.12.3 (1.3.5/1.4.7) win(x64-release)
    creation_time   : 2018-10-31T21:34:21.000000Z
  Duration: 02:36:21.38, start: 0.000000, bitrate: 25945 kb/s
    Chapter #0:0: start 0.000000, end 304.846208
    Metadata:
      title           : Chapter 01
    Chapter #0:1: start 304.846208, end 478.102625
    Metadata:
      title           : Chapter 02
    Chapter #0:2: start 478.102625, end 798.964833
    Metadata:
      title           : Chapter 03
    Chapter #0:3: start 798.964833, end 1270.560958
    Metadata:
      title           : Chapter 04
    Chapter #0:4: start 1270.560958, end 1701.408042
    Metadata:
      title           : Chapter 05
    Chapter #0:5: start 1701.408042, end 2227.767208
    Metadata:
      title           : Chapter 06
    Chapter #0:6: start 2227.767208, end 2640.346042
    Metadata:
      title           : Chapter 07
    Chapter #0:7: start 2640.346042, end 2894.975417
    Metadata:
      title           : Chapter 08
    Chapter #0:8: start 2894.975417, end 3101.932167
    Metadata:
      title           : Chapter 09
    Chapter #0:9: start 3101.932167, end 3410.990917
    Metadata:
      title           : Chapter 10
    Chapter #0:10: start 3410.990917, end 3590.753833
    Metadata:
      title           : Chapter 11
    Chapter #0:11: start 3590.753833, end 3811.474333
    Metadata:
      title           : Chapter 12
    Chapter #0:12: start 3811.474333, end 4312.057750
    Metadata:
      title           : Chapter 13
    Chapter #0:13: start 4312.057750, end 4595.799542
    Metadata:
      title           : Chapter 14
    Chapter #0:14: start 4595.799542, end 4882.377500
    Metadata:
      title           : Chapter 15
    Chapter #0:15: start 4882.377500, end 5311.139167
    Metadata:
      title           : Chapter 16
    Chapter #0:16: start 5311.139167, end 5849.760583
    Metadata:
      title           : Chapter 17
    Chapter #0:17: start 5849.760583, end 6524.267750
    Metadata:
      title           : Chapter 18
    Chapter #0:18: start 6524.267750, end 6788.782000
    Metadata:
      title           : Chapter 19
    Chapter #0:19: start 6788.782000, end 7145.763625
    Metadata:
      title           : Chapter 20
    Chapter #0:20: start 7145.763625, end 7376.702667
    Metadata:
      title           : Chapter 21
    Chapter #0:21: start 7376.702667, end 8144.928458
    Metadata:
      title           : Chapter 22
    Chapter #0:22: start 8144.928458, end 8570.895667
    Metadata:
      title           : Chapter 23
    Chapter #0:23: start 8570.895667, end 9381.376000
    Metadata:
      title           : Chapter 24
    Stream #0:0(eng): Video: h264 (High), yuv420p(progressive), 1920x1080 [SAR 1:1 DAR 16:9], 23.98 fps, 23.98 tbr, 1k tbn, 47.95 tbc
    Metadata:
      BPS-eng         : 25474880
      DURATION-eng    : 02:36:21.372000000
      NUMBER_OF_FRAMES-eng: 224928
      NUMBER_OF_BYTES-eng: 29873666812
      SOURCE_ID-eng   : 001011
      _STATISTICS_WRITING_APP-eng: MakeMKV v1.12.3 win(x64-release)
      _STATISTICS_WRITING_DATE_UTC-eng: 2018-10-31 21:34:21
      _STATISTICS_TAGS-eng: BPS DURATION NUMBER_OF_FRAMES NUMBER_OF_BYTES SOURCE_ID
    Stream #0:1(eng): Audio: ac3, 48000 Hz, 5.1(side), fltp, 448 kb/s (default)
    Metadata:
      title           : Surround 5.1
      BPS-eng         : 448000
      DURATION-eng    : 02:36:21.376000000
      NUMBER_OF_FRAMES-eng: 293168
      NUMBER_OF_BYTES-eng: 525357056
      SOURCE_ID-eng   : 001101
      _STATISTICS_WRITING_APP-eng: MakeMKV v1.12.3 win(x64-release)
      _STATISTICS_WRITING_DATE_UTC-eng: 2018-10-31 21:34:21
      _STATISTICS_TAGS-eng: BPS DURATION NUMBER_OF_FRAMES NUMBER_OF_BYTES SOURCE_ID
    Stream #0:2(eng): Subtitle: hdmv_pgs_subtitle
    Metadata:
      BPS-eng         : 21654
      DURATION-eng    : 02:25:18.772562500
      NUMBER_OF_FRAMES-eng: 2533
      NUMBER_OF_BYTES-eng: 23599912
      SOURCE_ID-eng   : 001200
      _STATISTICS_WRITING_APP-eng: MakeMKV v1.12.3 win(x64-release)
      _STATISTICS_WRITING_DATE_UTC-eng: 2018-10-31 21:34:21
      _STATISTICS_TAGS-eng: BPS DURATION NUMBER_OF_FRAMES NUMBER_OF_BYTES SOURCE_ID
[14:08:22] scan: decoding previews for title 1
[14:08:23] scan: audio 0x1: ac3, rate=48000Hz, bitrate=448000 English (AC3) (5.1 ch)
[14:08:24] scan: 10 previews, 1920x1080, 23.976 fps, autocrop = 138/138/0/0, aspect 16:9, PAR 1:1
[14:08:24] libhb: scan thread found 1 valid title(s)
[14:08:24] starting job
[14:08:24] decomb filter thread started for segment 0
[14:08:24] decomb filter thread started for segment 2
[14:08:24] decomb filter thread started for segment 3
[14:08:24] decomb check thread started for segment 0
[14:08:24] decomb check thread started for segment 2
[14:08:24] decomb check thread started for segment 3
[14:08:24] decomb check thread started for segment 1
[14:08:24] mask filter thread started for segment 0
[14:08:24] mask filter thread started for segment 1
[14:08:24] mask filter thread started for segment 2
[14:08:24] mask filter thread started for segment 3
[14:08:24] mask erode thread started for segment 0
[14:08:24] mask erode thread started for segment 1
[14:08:24] mask erode thread started for segment 2
[14:08:24] mask erode thread started for segment 3
[14:08:24] mask dilate thread started for segment 0
[14:08:24] mask dilate thread started for segment 1
[14:08:24] decomb filter thread started for segment 1
[14:08:24] mask dilate thread started for segment 2
[14:08:24] yadif thread started for segment 0
[14:08:24] yadif thread started for segment 3
[14:08:24] job configuration:
[14:08:24]  * source
[14:08:24]    + /run/user/1000/gvfs/smb-share:server=sean-pc,share=seans%20d/Video/The_Revenant/The_Revenant_t00.mkv
[14:08:24]    + title 1, chapter(s) 3 to 3
[14:08:24]    + container: matroska,webm
[14:08:24]    + data rate: 25945 kbps
[14:08:24]  * destination
[14:08:24]    + /home/sean/Videos/The_Revenant_t00.m4v
[14:08:24]    + container: MPEG-4 (libavformat)
[14:08:24]      + align initial A/V stream timestamps
[14:08:24]  * video track
[14:08:24]    + decoder: h264
[14:08:24]    + filters
[14:08:24]      + Comb Detect (mode=3:spatial-metric=2:motion-thresh=1:spatial-thresh=1:filter-mode=2:block-thresh=40:block-width=16:block-height=16)
[14:08:24]      + Decomb (mode=39)
[14:08:24]      + Framerate Shaper (mode=2:rate=27000000/900000)
[14:08:24]        + frame rate: 23.976 fps -> peak rate limited to 30.000 fps
[14:08:24]      + Crop and Scale (width=1920:height=804:crop-top=138:crop-bottom=138:crop-left=0:crop-right=0)
[14:08:24]        + source: 1920 * 1080, crop (138/138/0/0): 1920 * 804, scale: 1920 * 804
[14:08:24]    + Output geometry
[14:08:24]      + storage dimensions: 1920 x 804
[14:08:24]      + pixel aspect ratio: 1 : 1
[14:08:24]      + display dimensions: 1920 x 804
[14:08:24]  * Foreign Audio Search: Render/Burn-in, Forced Only
[14:08:24]    + subtitle, English [PGS] (track 0, id 0x2, Picture)
[14:08:24] yadif thread started for segment 2
[14:08:24] mask dilate thread started for segment 3
[14:08:24] yadif thread started for segment 1
[14:08:26] sync: expecting 7692 video frames
[14:09:26] reader: end of chapter 3 (media 3) reached at media chapter 4
[14:09:26] reader: done. 1 scr changes
[14:09:26] work: average encoding speed for job is 0.000000 fps
[14:09:26] comb detect: heavy 0 | light 0 | uncombed 0 | total 0
[14:09:26] decomb: deinterlaced 0 | blended 0 | unfiltered 0 | total 0
[14:09:26] vfr: 0 frames output, 0 dropped and 0 duped for CFR/PFR
[14:09:26] vfr: lost time: 0 (0 frames)
[14:09:26] vfr: gained time: 0 (0 frames) (0 not accounted for)
[14:09:26] h264-decoder done: 0 frames, 0 decoder errors
[14:09:26] sync: got 0 frames, 7692 expected
[14:09:26] Subtitle track 0 (id 0x2) 'English [PGS]': 45 hits (0 forced)
[14:09:26] No candidate detected during subtitle scan
[14:09:26] starting job
[14:09:26] decomb filter thread started for segment 0
[14:09:26] decomb filter thread started for segment 2
[14:09:26] decomb filter thread started for segment 1
[14:09:26] decomb check thread started for segment 1
[14:09:26] decomb check thread started for segment 2
[14:09:26] decomb check thread started for segment 3
[14:09:26] mask filter thread started for segment 0
[14:09:26] mask filter thread started for segment 1
[14:09:26] mask filter thread started for segment 2
[14:09:26] mask filter thread started for segment 3
[14:09:26] mask erode thread started for segment 0
[14:09:26] mask erode thread started for segment 1
[14:09:26] mask erode thread started for segment 2
[14:09:26] decomb filter thread started for segment 3
[14:09:26] mask erode thread started for segment 3
[14:09:26] mask dilate thread started for segment 0
[14:09:26] mask dilate thread started for segment 1
[14:09:26] mask dilate thread started for segment 2
[14:09:26] mask dilate thread started for segment 3
[14:09:26] yadif thread started for segment 0
[14:09:26] yadif thread started for segment 1
[14:09:26] yadif thread started for segment 2
[14:09:26] yadif thread started for segment 3
[14:09:26] job configuration:
[14:09:26]  * source
[14:09:26]    + /run/user/1000/gvfs/smb-share:server=sean-pc,share=seans%20d/Video/The_Revenant/The_Revenant_t00.mkv
[14:09:26]    + title 1, chapter(s) 3 to 3
[14:09:26]    + container: matroska,webm
[14:09:26]    + data rate: 25945 kbps
[14:09:26]  * destination
[14:09:26]    + /home/sean/Videos/The_Revenant_t00.m4v
[14:09:26]    + container: MPEG-4 (libavformat)
[14:09:26]      + align initial A/V stream timestamps
[14:09:26]  * video track
[14:09:26]    + decoder: h264
[14:09:26]    + filters
[14:09:26] decomb check thread started for segment 0
[14:09:26]      + Comb Detect (mode=3:spatial-metric=2:motion-thresh=1:spatial-thresh=1:filter-mode=2:block-thresh=40:block-width=16:block-height=16)
[14:09:26]      + Decomb (mode=39)
[14:09:26]      + Framerate Shaper (mode=2:rate=27000000/900000)
[14:09:26]        + frame rate: 23.976 fps -> peak rate limited to 30.000 fps
[14:09:26]      + Subtitle renderer ()
[14:09:26]      + Crop and Scale (width=1920:height=804:crop-top=138:crop-bottom=138:crop-left=0:crop-right=0)
[14:09:26]        + source: 1920 * 1080, crop (138/138/0/0): 1920 * 804, scale: 1920 * 804
[14:09:26]    + Output geometry
[14:09:26]      + storage dimensions: 1920 x 804
[14:09:26]      + pixel aspect ratio: 1 : 1
[14:09:26]      + display dimensions: 1920 x 804
[14:09:26]    + encoder: H.264 (libx264)
[14:09:26]      + preset:  slow
[14:09:26]      + profile: high
[14:09:26]      + level:   4.0
[14:09:26]      + quality: 20.00 (RF)
[14:09:26]      + color profile: 1-1-1
[14:09:26]  * subtitle track 1, English [PGS] (track 0, id 0x2, Picture) -> Render/Burn-in
[14:09:26]  * audio track 1
[14:09:26]    + decoder: English (AC3) (5.1 ch) (track 1, id 0x1)
[14:09:26]      + bitrate: 448 kbps, samplerate: 48000 Hz
[14:09:26]    + mixdown: Stereo
[14:09:26]    + dither: triangular
[14:09:26]    + encoder: AAC (libavcodec)
[14:09:26]      + bitrate: 160 kbps, samplerate: 48000 Hz
[14:09:26]  * audio track 2
[14:09:26]    + decoder: English (AC3) (5.1 ch) (track 1, id 0x1)
[14:09:26]      + bitrate: 448 kbps, samplerate: 48000 Hz
[14:09:26]    + AC3 Passthru
[14:09:28] sync: expecting 7692 video frames
[14:09:28] encx264: min-keyint: 24, keyint: 240
[14:09:28] encx264: encoding at constant RF 20.000000
[14:09:28] encx264: unparsed options: level=4.0:ref=5:direct=auto:subme=8:trellis=2:vbv-bufsize=31250:vbv-maxrate=25000:rc-lookahead=50
x264 [info]: using SAR=1/1
x264 [info]: using cpu capabilities: MMX2 SSE2Fast SSSE3 SSE4.2 AVX FMA3 BMI2 AVX2
x264 [info]: profile High, level 4.0
[14:09:28] sync: first pts video is 0
[14:09:28] sync: "Chapter 3" (3) at frame 1 time 0
[14:09:28] sync: first pts audio 0x1 is 810
[14:09:28] sync: first pts audio 0x1 is 810
[14:09:33] sync: first pts subtitle 0x2 is 476730
[14:23:35] reader: end of chapter 3 (media 3) reached at media chapter 4
[14:23:35] reader: done. 1 scr changes
[14:23:45] work: average encoding speed for job is 9.021040 fps
[14:23:45] comb detect: heavy 47 | light 434 | uncombed 7213 | total 7694
[14:23:45] decomb: deinterlaced 47 | blended 434 | unfiltered 7213 | total 7694
[14:23:45] vfr: 7694 frames output, 0 dropped and 0 duped for CFR/PFR
[14:23:45] vfr: lost time: 0 (0 frames)
[14:23:45] vfr: gained time: 0 (0 frames) (0 not accounted for)
[14:23:45] ac3-decoder done: 10026 frames, 0 decoder errors
[14:23:45] ac3-decoder done: 10026 frames, 0 decoder errors
[14:23:45] h264-decoder done: 7694 frames, 0 decoder errors
[14:23:45] sync: got 7694 frames, 7692 expected
[14:23:45] sync: framerate min 23.981 fps, max 23.981 fps, avg 23.976 fps
x264 [info]: frame I:56    Avg QP:17.84  size:114021
x264 [info]: frame P:2697  Avg QP:20.92  size: 58428
x264 [info]: frame B:4941  Avg QP:22.54  size: 24636
x264 [info]: consecutive B-frames: 12.0%  5.0%  6.2% 76.8%
x264 [info]: mb I  I16..4: 10.3% 78.2% 11.5%
x264 [info]: mb P  I16..4:  3.5% 25.3%  2.3%  P16..4: 39.0% 17.0%  6.8%  0.0%  0.0%    skip: 6.1%
x264 [info]: mb B  I16..4:  0.3%  3.6%  0.8%  B16..8: 45.7%  9.9%  2.1%  direct: 6.1%  skip:31.5%  L0:41.2% L1:47.9% BI:10.8%
x264 [info]: 8x8 transform intra:80.3% inter:77.5%
x264 [info]: direct mvs  spatial:99.9% temporal:0.1%
x264 [info]: coded y,uvDC,uvAC intra: 76.1% 56.4% 11.2% inter: 29.4% 23.9% 0.3%
x264 [info]: i16 v,h,dc,p: 16% 21%  9% 54%
x264 [info]: i8 v,h,dc,ddl,ddr,vr,hd,vl,hu:  9% 13%  7%  8% 13% 11% 16%  9% 14%
x264 [info]: i4 v,h,dc,ddl,ddr,vr,hd,vl,hu: 24% 10%  6%  7% 12% 10% 14%  7% 11%
x264 [info]: i8c dc,h,v,p: 39% 34% 18%  8%
x264 [info]: Weighted P-Frames: Y:3.8% UV:1.2%
x264 [info]: ref P L0: 58.5% 19.2% 12.0%  5.1%  4.2%  1.0%  0.0%
x264 [info]: ref B L0: 91.0%  5.9%  2.3%  0.8%
x264 [info]: ref B L1: 98.1%  1.9%
x264 [info]: kb/s:7122.20
[14:23:45] mux: track 0, 7694 frames, 285690255 bytes, 7122.14 kbps, fifo 1024
[14:23:45] mux: track 1, 15040 frames, 6456359 bytes, 160.95 kbps, fifo 2048
[14:23:45] mux: track 2, 10026 frames, 17966592 bytes, 447.90 kbps, fifo 1024
[14:23:45] libhb: work result = 0

mduell
Veteran User
Posts: 6532
Joined: Sat Apr 21, 2007 8:54 pm

Re: High Profile deprecated?

Post by mduell » Fri Jan 11, 2019 9:54 pm

And the "High Profile preset" encode for the same chapter on the same computer?

stoc2528
Posts: 10
Joined: Fri Jan 11, 2019 6:48 pm

Re: High Profile deprecated?

Post by stoc2528 » Fri Jan 11, 2019 10:01 pm

I'm having trouble doing just that. My laptop is running ubuntu 19.04 beta. Handbrake 1.1.2 doesn't want to install, only 1.2.0 I'll have to re-run the test with a different computer where I can run different versions of Handbrake.

stoc2528
Posts: 10
Joined: Fri Jan 11, 2019 6:48 pm

Re: High Profile deprecated?

Post by stoc2528 » Thu Jan 17, 2019 2:52 pm

Now I'm confused. On Ubuntu, albeit 19.04 beta, there is no High Profile preset for HandBrake 1.2.0 In Windows 10, HandBrake 1.2.0 does have a High Profile preset and it works fine.

Has High Profile only been deprecated in the Linux versions?

mduell
Veteran User
Posts: 6532
Joined: Sat Apr 21, 2007 8:54 pm

Re: High Profile deprecated?

Post by mduell » Thu Jan 17, 2019 9:48 pm

Update your presets on Windows.

stoc2528
Posts: 10
Joined: Fri Jan 11, 2019 6:48 pm

Re: High Profile deprecated?

Post by stoc2528 » Thu Jan 17, 2019 10:06 pm

If I "update presets" I get a message that says "You cannot modify built in presets. Please select one of your own presets"

User avatar
s55
HandBrake Team
Posts: 9446
Joined: Sun Dec 24, 2006 1:05 pm

Re: High Profile deprecated?

Post by s55 » Thu Jan 17, 2019 10:18 pm

It's called "reset built-in presets"

stoc2528
Posts: 10
Joined: Fri Jan 11, 2019 6:48 pm

Re: High Profile deprecated?

Post by stoc2528 » Fri Jan 18, 2019 10:56 pm

Okay, I ripped the same BluRay into an .mkv file and then ran it through HandBrake on the same computer which wasn't doing anything else during the process, in both "HQ 1080P" and again in "High Profile". I'm including the logs for both jobs.

The speed for HQ 1080P was: "work: average encoding speed for job is 14.256748 fps"

The speed for the old High Profile was: "work: average encoding speed for job is 19.855522 fps"


The log for HQ 1080P is below

Code: Select all


HandBrake 1.2.0 (2018121700)
OS: Microsoft Windows NT 6.1.7601 Service Pack 1
Ram: 10239 MB, 
GPU Information:
  AMD FirePro V4900 (FireGL V) - 15.201.2401.0
Screen: 2560x1440
Temp Dir: C:\Users\ssmith\AppData\Local\Temp\
Install Dir: C:\Program Files\Handbrake
Data Dir: C:\Users\ssmith\AppData\Roaming\HandBrake

-------------------------------------------


# Starting Encode ...

[08:50:19] hb_init: starting libhb thread
[08:50:20] 1 job(s) to process
[08:50:20] json job:
{
  "Audio": {
    "AudioList": [
      {
        "Bitrate": 160,
        "DRC": 0.0,
        "Encoder": "av_aac",
        "Gain": 0.0,
        "Mixdown": 6,
        "NormalizeMixLevel": false,
        "Samplerate": 0,
        "Track": 0,
        "DitherMethod": 0
      },
      {
        "Bitrate": 224,
        "DRC": 0.0,
        "Encoder": "ac3",
        "Gain": 0.0,
        "Mixdown": 7,
        "NormalizeMixLevel": false,
        "Samplerate": 0,
        "Track": 0,
        "DitherMethod": 0
      }
    ],
    "CopyMask": [
      "copy:aac",
      "copy:ac3",
      "copy:dtshd",
      "copy:dts",
      "copy:eac3",
      "copy:flac",
      "copy:mp3",
      "copy:truehd"
    ],
    "FallbackEncoder": "ac3"
  },
  "Destination": {
    "ChapterList": [
      {
        "Name": "Chapter 1"
      },
      {
        "Name": "Chapter 2"
      },
      {
        "Name": "Chapter 3"
      },
      {
        "Name": "Chapter 4"
      },
      {
        "Name": "Chapter 5"
      },
      {
        "Name": "Chapter 6"
      },
      {
        "Name": "Chapter 7"
      },
      {
        "Name": "Chapter 8"
      },
      {
        "Name": "Chapter 9"
      },
      {
        "Name": "Chapter 10"
      },
      {
        "Name": "Chapter 11"
      },
      {
        "Name": "Chapter 12"
      },
      {
        "Name": "Chapter 13"
      },
      {
        "Name": "Chapter 14"
      },
      {
        "Name": "Chapter 15"
      },
      {
        "Name": "Chapter 16"
      },
      {
        "Name": "Chapter 17"
      },
      {
        "Name": "Chapter 18"
      },
      {
        "Name": "Chapter 19"
      },
      {
        "Name": "Chapter 20"
      },
      {
        "Name": "Chapter 21"
      },
      {
        "Name": "Chapter 22"
      },
      {
        "Name": "Chapter 23"
      },
      {
        "Name": "Chapter 24"
      }
    ],
    "ChapterMarkers": true,
    "AlignAVStart": false,
    "File": "D:\\Video\\The Revenant\\The Revenant (2015).m4v",
    "Mp4Options": {
      "IpodAtom": false,
      "Mp4Optimize": false
    },
    "Mux": "mp4"
  },
  "Filters": {
    "FilterList": [
      {
        "ID": 4,
        "Settings": {
          "mode": "7"
        }
      },
      {
        "ID": 3,
        "Settings": {
          "block-height": "16",
          "block-thresh": "40",
          "block-width": "16",
          "filter-mode": "2",
          "mode": "3",
          "motion-thresh": "1",
          "spatial-metric": "2",
          "spatial-thresh": "1"
        }
      },
      {
        "ID": 11,
        "Settings": {
          "crop-bottom": "138",
          "crop-left": "0",
          "crop-right": "0",
          "crop-top": "138",
          "height": "804",
          "width": "1920"
        }
      },
      {
        "ID": 6,
        "Settings": {
          "mode": "2",
          "rate": "27000000/900000"
        }
      }
    ]
  },
  "PAR": {
    "Num": 1,
    "Den": 1
  },
  "Metadata": {},
  "SequenceID": 0,
  "Source": {
    "Angle": 1,
    "Range": {
      "Type": "chapter",
      "Start": 1,
      "End": 24
    },
    "Title": 1,
    "Path": "D:\\Video\\The Revenant\\The Revenant_t00.mkv"
  },
  "Subtitle": {
    "Search": {
      "Burn": false,
      "Default": false,
      "Enable": false,
      "Forced": false
    },
    "SubtitleList": [
      {
        "Burn": true,
        "Default": false,
        "Forced": true,
        "ID": 1,
        "Offset": 0,
        "Track": 0
      }
    ]
  },
  "Video": {
    "Encoder": "x264",
    "Level": "4.0",
    "TwoPass": false,
    "Turbo": false,
    "ColorMatrixCode": 0,
    "Options": "",
    "Preset": "slow",
    "Profile": "high",
    "Quality": 20.0,
    "QSV": {
      "Decode": false,
      "AsyncDepth": 0
    }
  }
}
[08:50:20] CPU: Intel(R) Xeon(R) CPU           E5420  @ 2.50GHz
[08:50:20]  - logical processor count: 8
[08:50:20] Intel Quick Sync Video support: no
[08:50:20] hb_scan: path=D:\Video\The Revenant\The Revenant_t00.mkv, title_index=1
udfread ERROR: ECMA 167 Volume Recognition failed
src/libbluray/disc/disc.c:323: failed opening UDF image D:\Video\The Revenant\The Revenant_t00.mkv
src/libbluray/disc/disc.c:424: error opening file BDMV\index.bdmv
src/libbluray/disc/disc.c:424: error opening file BDMV\BACKUP\index.bdmv
[08:50:20] bd: not a bd - trying as a stream/file instead
libdvdnav: Using dvdnav version 6.0.0
libdvdread:DVDOpenFileUDF:UDFFindFile /VIDEO_TS/VIDEO_TS.IFO failed
libdvdread:DVDOpenFileUDF:UDFFindFile /VIDEO_TS/VIDEO_TS.BUP failed
libdvdread: Can't open file VIDEO_TS.IFO.
libdvdnav: vm: failed to read VIDEO_TS.IFO
[08:50:20] dvd: not a dvd - trying as a stream/file instead
Input #0, matroska,webm, from 'D:\Video\The Revenant\The Revenant_t00.mkv':
  Metadata:
    title           : The Revenant
    encoder         : libmakemkv v1.14.2 (1.3.5/1.4.7) win(x64-release)
    creation_time   : 2019-01-18T14:20:39.000000Z
  Duration: 02:36:21.38, start: 0.000000, bitrate: 33447 kb/s
    Chapter #0:0: start 0.000000, end 304.846208
    Metadata:
      title           : Chapter 01
    Chapter #0:1: start 304.846208, end 478.102625
    Metadata:
      title           : Chapter 02
    Chapter #0:2: start 478.102625, end 798.964833
    Metadata:
      title           : Chapter 03
    Chapter #0:3: start 798.964833, end 1270.560958
    Metadata:
      title           : Chapter 04
    Chapter #0:4: start 1270.560958, end 1701.408042
    Metadata:
      title           : Chapter 05
    Chapter #0:5: start 1701.408042, end 2227.767208
    Metadata:
      title           : Chapter 06
    Chapter #0:6: start 2227.767208, end 2640.346042
    Metadata:
      title           : Chapter 07
    Chapter #0:7: start 2640.346042, end 2894.975417
    Metadata:
      title           : Chapter 08
    Chapter #0:8: start 2894.975417, end 3101.932167
    Metadata:
      title           : Chapter 09
    Chapter #0:9: start 3101.932167, end 3410.990917
    Metadata:
      title           : Chapter 10
    Chapter #0:10: start 3410.990917, end 3590.753833
    Metadata:
      title           : Chapter 11
    Chapter #0:11: start 3590.753833, end 3811.474333
    Metadata:
      title           : Chapter 12
    Chapter #0:12: start 3811.474333, end 4312.057750
    Metadata:
      title           : Chapter 13
    Chapter #0:13: start 4312.057750, end 4595.799542
    Metadata:
      title           : Chapter 14
    Chapter #0:14: start 4595.799542, end 4882.377500
    Metadata:
      title           : Chapter 15
    Chapter #0:15: start 4882.377500, end 5311.139167
    Metadata:
      title           : Chapter 16
    Chapter #0:16: start 5311.139167, end 5849.760583
    Metadata:
      title           : Chapter 17
    Chapter #0:17: start 5849.760583, end 6524.267750
    Metadata:
      title           : Chapter 18
    Chapter #0:18: start 6524.267750, end 6788.782000
    Metadata:
      title           : Chapter 19
    Chapter #0:19: start 6788.782000, end 7145.763625
    Metadata:
      title           : Chapter 20
    Chapter #0:20: start 7145.763625, end 7376.702667
    Metadata:
      title           : Chapter 21
    Chapter #0:21: start 7376.702667, end 8144.928458
    Metadata:
      title           : Chapter 22
    Chapter #0:22: start 8144.928458, end 8570.895667
    Metadata:
      title           : Chapter 23
    Chapter #0:23: start 8570.895667, end 9381.376000
    Metadata:
      title           : Chapter 24
    Stream #0:0(eng): Video: h264 (High), yuv420p(progressive), 1920x1080 [SAR 1:1 DAR 16:9], 23.98 fps, 23.98 tbr, 1k tbn, 47.95 tbc
    Metadata:
      BPS-eng         : 25474880
      DURATION-eng    : 02:36:21.372000000
      NUMBER_OF_FRAMES-eng: 224928
      NUMBER_OF_BYTES-eng: 29873666812
      SOURCE_ID-eng   : 001011
      _STATISTICS_WRITING_APP-eng: MakeMKV v1.14.2 win(x64-release)
      _STATISTICS_WRITING_DATE_UTC-eng: 2019-01-18 14:20:39
      _STATISTICS_TAGS-eng: BPS DURATION NUMBER_OF_FRAMES NUMBER_OF_BYTES SOURCE_ID
    Stream #0:1(eng): Audio: dts (DTS-HD MA), 48000 Hz, 7.1, s32p (24 bit) (default)
    Metadata:
      title           : Surround 7.1
      BPS-eng         : 4602518
      DURATION-eng    : 02:36:21.376000000
      NUMBER_OF_FRAMES-eng: 879504
      NUMBER_OF_BYTES-eng: 5397244144
      SOURCE_ID-eng   : 001100
      _STATISTICS_WRITING_APP-eng: MakeMKV v1.14.2 win(x64-release)
      _STATISTICS_WRITING_DATE_UTC-eng: 2019-01-18 14:20:39
      _STATISTICS_TAGS-eng: BPS DURATION NUMBER_OF_FRAMES NUMBER_OF_BYTES SOURCE_ID
    Stream #0:2(eng): Audio: dts (DTS), 48000 Hz, 5.1(side), fltp, 1536 kb/s
    Metadata:
      title           : Surround 5.1
      BPS-eng         : 1509000
      DURATION-eng    : 02:36:21.376000000
      NUMBER_OF_FRAMES-eng: 879504
      NUMBER_OF_BYTES-eng: 1769562048
      SOURCE_ID-eng   : 001100
      _STATISTICS_WRITING_APP-eng: MakeMKV v1.14.2 win(x64-release)
      _STATISTICS_WRITING_DATE_UTC-eng: 2019-01-18 14:20:39
      _STATISTICS_TAGS-eng: BPS DURATION NUMBER_OF_FRAMES NUMBER_OF_BYTES SOURCE_ID
    Stream #0:3(eng): Audio: ac3, 48000 Hz, 5.1(side), fltp, 448 kb/s
    Metadata:
      title           : Surround 5.1
      BPS-eng         : 448000
      DURATION-eng    : 02:36:21.376000000
      NUMBER_OF_FRAMES-eng: 293168
      NUMBER_OF_BYTES-eng: 525357056
      SOURCE_ID-eng   : 001101
      _STATISTICS_WRITING_APP-eng: MakeMKV v1.14.2 win(x64-release)
      _STATISTICS_WRITING_DATE_UTC-eng: 2019-01-18 14:20:39
      _STATISTICS_TAGS-eng: BPS DURATION NUMBER_OF_FRAMES NUMBER_OF_BYTES SOURCE_ID
    Stream #0:4(spa): Audio: ac3, 48000 Hz, 5.1(side), fltp, 448 kb/s
    Metadata:
      title           : Surround 5.1
      BPS-eng         : 448000
      DURATION-eng    : 02:36:21.376000000
      NUMBER_OF_FRAMES-eng: 293168
      NUMBER_OF_BYTES-eng: 525357056
      SOURCE_ID-eng   : 001102
      _STATISTICS_WRITING_APP-eng: MakeMKV v1.14.2 win(x64-release)
      _STATISTICS_WRITING_DATE_UTC-eng: 2019-01-18 14:20:39
      _STATISTICS_TAGS-eng: BPS DURATION NUMBER_OF_FRAMES NUMBER_OF_BYTES SOURCE_ID
    Stream #0:5(fra): Audio: ac3, 48000 Hz, 5.1(side), fltp, 448 kb/s
    Metadata:
      title           : Surround 5.1
      BPS-eng         : 448000
      DURATION-eng    : 02:36:21.376000000
      NUMBER_OF_FRAMES-eng: 293168
      NUMBER_OF_BYTES-eng: 525357056
      SOURCE_ID-eng   : 001103
      _STATISTICS_WRITING_APP-eng: MakeMKV v1.14.2 win(x64-release)
      _STATISTICS_WRITING_DATE_UTC-eng: 2019-01-18 14:20:39
      _STATISTICS_TAGS-eng: BPS DURATION NUMBER_OF_FRAMES NUMBER_OF_BYTES SOURCE_ID
    Stream #0:6(por): Audio: ac3, 48000 Hz, 5.1(side), fltp, 448 kb/s
    Metadata:
      title           : Surround 5.1
      BPS-eng         : 448000
      DURATION-eng    : 02:36:21.376000000
      NUMBER_OF_FRAMES-eng: 293168
      NUMBER_OF_BYTES-eng: 525357056
      SOURCE_ID-eng   : 001104
      _STATISTICS_WRITING_APP-eng: MakeMKV v1.14.2 win(x64-release)
      _STATISTICS_WRITING_DATE_UTC-eng: 2019-01-18 14:20:39
      _STATISTICS_TAGS-eng: BPS DURATION NUMBER_OF_FRAMES NUMBER_OF_BYTES SOURCE_ID
    Stream #0:7(eng): Subtitle: hdmv_pgs_subtitle
    Metadata:
      BPS-eng         : 21654
      DURATION-eng    : 02:25:18.772562500
      NUMBER_OF_FRAMES-eng: 2533
      NUMBER_OF_BYTES-eng: 23599912
      SOURCE_ID-eng   : 001200
      _STATISTICS_WRITING_APP-eng: MakeMKV v1.14.2 win(x64-release)
      _STATISTICS_WRITING_DATE_UTC-eng: 2019-01-18 14:20:39
      _STATISTICS_TAGS-eng: BPS DURATION NUMBER_OF_FRAMES NUMBER_OF_BYTES SOURCE_ID
    Stream #0:8(eng): Subtitle: hdmv_pgs_subtitle
    Metadata:
      BPS-eng         : 1342
      DURATION-eng    : 02:20:59.054770833
      NUMBER_OF_FRAMES-eng: 254
      NUMBER_OF_BYTES-eng: 1419113
      SOURCE_ID-eng   : 001201
      _STATISTICS_WRITING_APP-eng: MakeMKV v1.14.2 win(x64-release)
      _STATISTICS_WRITING_DATE_UTC-eng: 2019-01-18 14:20:39
      _STATISTICS_TAGS-eng: BPS DURATION NUMBER_OF_FRAMES NUMBER_OF_BYTES SOURCE_ID
    Stream #0:9(eng): Subtitle: hdmv_pgs_subtitle
    Metadata:
      BPS-eng         : 1342
      DURATION-eng    : 02:20:59.054770833
      NUMBER_OF_FRAMES-eng: 254
      NUMBER_OF_BYTES-eng: 1419113
      SOURCE_ID-eng   : 001201
      _STATISTICS_WRITING_APP-eng: MakeMKV v1.14.2 win(x64-release)
      _STATISTICS_WRITING_DATE_UTC-eng: 2019-01-18 14:20:39
      _STATISTICS_TAGS-eng: BPS DURATION NUMBER_OF_FRAMES NUMBER_OF_BYTES SOURCE_ID
    Stream #0:10(spa): Subtitle: hdmv_pgs_subtitle
    Metadata:
      BPS-eng         : 11969
      DURATION-eng    : 02:35:07.443979166
      NUMBER_OF_FRAMES-eng: 1672
      NUMBER_OF_BYTES-eng: 13925780
      SOURCE_ID-eng   : 001202
      _STATISTICS_WRITING_APP-eng: MakeMKV v1.14.2 win(x64-release)
      _STATISTICS_WRITING_DATE_UTC-eng: 2019-01-18 14:20:39
      _STATISTICS_TAGS-eng: BPS DURATION NUMBER_OF_FRAMES NUMBER_OF_BYTES SOURCE_ID
    Stream #0:11(spa): Subtitle: hdmv_pgs_subtitle
    Metadata:
      BPS-eng         : 1751
      DURATION-eng    : 02:35:07.443979166
      NUMBER_OF_FRAMES-eng: 272
      NUMBER_OF_BYTES-eng: 2037236
      SOURCE_ID-eng   : 001202
      _STATISTICS_WRITING_APP-eng: MakeMKV v1.14.2 win(x64-release)
      _STATISTICS_WRITING_DATE_UTC-eng: 2019-01-18 14:20:39
      _STATISTICS_TAGS-eng: BPS DURATION NUMBER_OF_FRAMES NUMBER_OF_BYTES SOURCE_ID
    Stream #0:12(fra): Subtitle: hdmv_pgs_subtitle
    Metadata:
      BPS-eng         : 11925
      DURATION-eng    : 02:35:07.443979166
      NUMBER_OF_FRAMES-eng: 1615
      NUMBER_OF_BYTES-eng: 13874159
      SOURCE_ID-eng   : 001203
      _STATISTICS_WRITING_APP-eng: MakeMKV v1.14.2 win(x64-release)
      _STATISTICS_WRITING_DATE_UTC-eng: 2019-01-18 14:20:39
      _STATISTICS_TAGS-eng: BPS DURATION NUMBER_OF_FRAMES NUMBER_OF_BYTES SOURCE_ID
    Stream #0:13(fra): Subtitle: hdmv_pgs_subtitle
    Metadata:
      BPS-eng         : 1461
      DURATION-eng    : 02:35:07.443979166
      NUMBER_OF_FRAMES-eng: 217
      NUMBER_OF_BYTES-eng: 1700382
      SOURCE_ID-eng   : 001203
      _STATISTICS_WRITING_APP-eng: MakeMKV v1.14.2 win(x64-release)
      _STATISTICS_WRITING_DATE_UTC-eng: 2019-01-18 14:20:39
      _STATISTICS_TAGS-eng: BPS DURATION NUMBER_OF_FRAMES NUMBER_OF_BYTES SOURCE_ID
    Stream #0:14(por): Subtitle: hdmv_pgs_subtitle
    Metadata:
      BPS-eng         : 11195
      DURATION-eng    : 02:35:06.442979166
      NUMBER_OF_FRAMES-eng: 1654
      NUMBER_OF_BYTES-eng: 13023872
      SOURCE_ID-eng   : 001204
      _STATISTICS_WRITING_APP-eng: MakeMKV v1.14.2 win(x64-release)
      _STATISTICS_WRITING_DATE_UTC-eng: 2019-01-18 14:20:39
      _STATISTICS_TAGS-eng: BPS DURATION NUMBER_OF_FRAMES NUMBER_OF_BYTES SOURCE_ID
    Stream #0:15(por): Subtitle: hdmv_pgs_subtitle
    Metadata:
      BPS-eng         : 1615
      DURATION-eng    : 02:35:06.442979166
      NUMBER_OF_FRAMES-eng: 258
      NUMBER_OF_BYTES-eng: 1879017
      SOURCE_ID-eng   : 001204
      _STATISTICS_WRITING_APP-eng: MakeMKV v1.14.2 win(x64-release)
      _STATISTICS_WRITING_DATE_UTC-eng: 2019-01-18 14:20:39
      _STATISTICS_TAGS-eng: BPS DURATION NUMBER_OF_FRAMES NUMBER_OF_BYTES SOURCE_ID
[08:50:20] scan: decoding previews for title 1
[08:50:20] scan: audio 0x1: dca, rate=48000Hz, bitrate=1 English (DTS-HD MA) (7.1 ch)
[08:50:20] scan: audio 0x2: dca, rate=48000Hz, bitrate=1536000 English (DTS) (5.1 ch)
[08:50:20] scan: audio 0x3: ac3, rate=48000Hz, bitrate=448000 English (AC3) (5.1 ch)
[08:50:20] scan: audio 0x4: ac3, rate=48000Hz, bitrate=448000 español (AC3) (5.1 ch)
[08:50:20] scan: audio 0x5: ac3, rate=48000Hz, bitrate=448000 Francais (AC3) (5.1 ch)
[08:50:20] scan: audio 0x6: ac3, rate=48000Hz, bitrate=448000 Portugues (AC3) (5.1 ch)
[08:50:21] scan: 10 previews, 1920x1080, 23.976 fps, autocrop = 138/138/0/0, aspect 16:9, PAR 1:1
[08:50:21] scan: supported video decoders: avcodec qsv
[08:50:21] libhb: scan thread found 1 valid title(s)
[08:50:22] starting job
[08:50:22] decomb filter thread started for segment 0
[08:50:22] decomb filter thread started for segment 1
[08:50:22] decomb filter thread started for segment 2
[08:50:22] decomb filter thread started for segment 3
[08:50:22] decomb filter thread started for segment 4
[08:50:22] decomb filter thread started for segment 5
[08:50:22] decomb filter thread started for segment 6
[08:50:22] decomb filter thread started for segment 7
[08:50:22] decomb check thread started for segment 0
[08:50:22] decomb check thread started for segment 1
[08:50:22] decomb check thread started for segment 2
[08:50:22] decomb check thread started for segment 3
[08:50:22] decomb check thread started for segment 4
[08:50:22] decomb check thread started for segment 5
[08:50:22] decomb check thread started for segment 6
[08:50:22] decomb check thread started for segment 7
[08:50:22] mask filter thread started for segment 0
[08:50:22] mask filter thread started for segment 1
[08:50:22] mask filter thread started for segment 2
[08:50:22] mask filter thread started for segment 3
[08:50:22] mask filter thread started for segment 4
[08:50:22] mask filter thread started for segment 5
[08:50:22] mask filter thread started for segment 6
[08:50:22] mask filter thread started for segment 7
[08:50:22] mask erode thread started for segment 0
[08:50:22] mask erode thread started for segment 1
[08:50:22] mask erode thread started for segment 2
[08:50:22] mask erode thread started for segment 3
[08:50:22] mask erode thread started for segment 4
[08:50:22] mask erode thread started for segment 5
[08:50:22] mask erode thread started for segment 6
[08:50:22] mask erode thread started for segment 7
[08:50:22] mask dilate thread started for segment 0
[08:50:22] mask dilate thread started for segment 1
[08:50:22] mask dilate thread started for segment 2
[08:50:22] mask dilate thread started for segment 3
[08:50:22] mask dilate thread started for segment 4
[08:50:22] mask dilate thread started for segment 5
[08:50:22] mask dilate thread started for segment 6
[08:50:22] mask dilate thread started for segment 7
[08:50:22] yadif thread started for segment 0
[08:50:22] yadif thread started for segment 1
[08:50:22] yadif thread started for segment 2
[08:50:22] yadif thread started for segment 3
[08:50:22] yadif thread started for segment 4
[08:50:22] yadif thread started for segment 5
[08:50:22] yadif thread started for segment 6
[08:50:22] yadif thread started for segment 7
[08:50:22] job configuration:
[08:50:22]  * source
[08:50:22]    + D:\Video\The Revenant\The Revenant_t00.mkv
[08:50:22]    + title 1, chapter(s) 1 to 24
[08:50:22]    + container: matroska,webm
[08:50:22]    + data rate: 33447 kbps
[08:50:22]  * destination
[08:50:22]    + D:\Video\The Revenant\The Revenant (2015).m4v
[08:50:22]    + container: MPEG-4 (libavformat)
[08:50:22]      + chapter markers
[08:50:22]  * video track
[08:50:22]    + decoder: h264
[08:50:22]    + filters
[08:50:22]      + Comb Detect (mode=3:spatial-metric=2:motion-thresh=1:spatial-thresh=1:filter-mode=2:block-thresh=40:block-width=16:block-height=16)
[08:50:22]      + Decomb (mode=39)
[08:50:22]      + Framerate Shaper (mode=2:rate=27000000/900000)
[08:50:22]        + frame rate: 23.976 fps -> peak rate limited to 30.000 fps
[08:50:22]      + Subtitle renderer ()
[08:50:22]      + Crop and Scale (width=1920:height=804:crop-top=138:crop-bottom=138:crop-left=0:crop-right=0)
[08:50:22]        + source: 1920 * 1080, crop (138/138/0/0): 1920 * 804, scale: 1920 * 804
[08:50:22]    + Output geometry
[08:50:22]      + storage dimensions: 1920 x 804
[08:50:22]      + pixel aspect ratio: 1 : 1
[08:50:22]      + display dimensions: 1920 x 804
[08:50:22]    + encoder: H.264 (libx264)
[08:50:22]      + preset:  slow
[08:50:22]      + profile: high
[08:50:22]      + level:   4.0
[08:50:22]      + quality: 20.00 (RF)
[08:50:22]      + color profile: 1-1-1
[08:50:22]  * subtitle track 1, English [PGS] (track 0, id 0x7, Picture) -> Render/Burn-in, Forced Only
[08:50:22]  * audio track 1
[08:50:22]    + decoder: English (DTS-HD MA) (7.1 ch) (track 1, id 0x1)
[08:50:22]      + samplerate: 48000 Hz
[08:50:22]    + mixdown: Dolby Pro Logic II
[08:50:22]    + dither: none
[08:50:22]    + encoder: AAC (libavcodec)
[08:50:22]      + bitrate: 160 kbps, samplerate: 48000 Hz
[08:50:22]  * audio track 2
[08:50:22]    + decoder: English (DTS-HD MA) (7.1 ch) (track 1, id 0x1)
[08:50:22]      + samplerate: 48000 Hz
[08:50:22]    + mixdown: 5.1 Channels
[08:50:22]    + dither: none
[08:50:22]    + encoder: AC3 (libavcodec)
[08:50:22]      + bitrate: 224 kbps, samplerate: 48000 Hz
[08:50:22] sync: expecting 224928 video frames
[08:50:22] encx264: min-keyint: 24, keyint: 240
[08:50:22] encx264: encoding at constant RF 20.000000
[08:50:22] encx264: unparsed options: level=4.0:ref=5:direct=auto:subme=8:trellis=2:vbv-bufsize=31250:vbv-maxrate=25000:rc-lookahead=50
x264 [info]: using SAR=1/1
x264 [info]: using cpu capabilities: MMX2 SSE2Fast SSSE3 SSE4.1 Cache64
x264 [info]: profile High, level 4.0, 4:2:0, 8-bit
[08:50:22] sync: first pts video is 0
[08:50:22] sync: "Chapter 1" (1) at frame 1 time 0
[08:50:22] sync: first pts audio 0x1 is 0
[08:50:22] sync: first pts audio 0x1 is 0
[08:59:48] sync: "Chapter 2" (2) at frame 7312 time 27443666
[09:05:42] sync: "Chapter 3" (3) at frame 11464 time 43029236
[09:16:41] sync: "Chapter 4" (4) at frame 19157 time 71906835
[09:29:40] sync: "Chapter 5" (5) at frame 30464 time 114350486
[09:42:08] sync: "Chapter 6" (6) at frame 40796 time 153134231
[09:58:09] sync: "Chapter 7" (7) at frame 53416 time 200506556
[10:08:58] sync: "Chapter 8" (8) at frame 63308 time 237638651
[10:16:47] sync: "Chapter 9" (9) at frame 69413 time 260555295
[10:22:29] sync: "Chapter 10" (10) at frame 74375 time 279181402
[10:31:23] sync: "Chapter 11" (11) at frame 81783 time 306989182
[10:36:46] sync: "Chapter 12" (12) at frame 86093 time 323167845
[10:42:52] sync: "Chapter 13" (13) at frame 91387 time 343040197
[10:58:14] sync: "Chapter 14" (14) at frame 103387 time 388085197
[11:07:29] sync: "Chapter 15" (15) at frame 110190 time 413621958
[11:15:15] sync: "Chapter 16" (16) at frame 117061 time 439413975
[11:27:20] sync: "Chapter 17" (17) at frame 127343 time 478010032
[11:42:27] sync: "Chapter 18" (18) at frame 140255 time 526478452
[12:01:16] sync: "Chapter 19" (19) at frame 156427 time 587184097
[12:09:01] sync: "Chapter 20" (20) at frame 162769 time 610990380
[12:18:30] sync: "Chapter 21" (21) at frame 171328 time 643118726
[12:25:26] sync: "Chapter 22" (22) at frame 176865 time 663903240
[12:46:52] sync: "Chapter 23" (23) at frame 195286 time 733051068
[13:01:12] sync: "Chapter 24" (24) at frame 205497 time 771380610
[13:13:14] reader: done. 1 scr changes
[13:13:16] work: average encoding speed for job is 14.256748 fps
[13:13:16] comb detect: heavy 681 | light 4143 | uncombed 220104 | total 224928
[13:13:16] decomb: deinterlaced 681 | blended 4143 | unfiltered 220104 | total 224928
[13:13:16] vfr: 224928 frames output, 0 dropped and 0 duped for CFR/PFR
[13:13:16] vfr: lost time: 0 (0 frames)
[13:13:16] vfr: gained time: 0 (0 frames) (0 not accounted for)
[13:13:16] dca-decoder done: 879504 frames, 0 decoder errors
[13:13:16] dca-decoder done: 879504 frames, 0 decoder errors
[13:13:16] h264-decoder done: 224928 frames, 0 decoder errors
[13:13:16] sync: got 224928 frames, 224928 expected
[13:13:16] sync: framerate min 23.981 fps, max 23.981 fps, avg 23.976 fps
x264 [info]: frame I:1680  Avg QP:16.10  size:143590
x264 [info]: frame P:64965 Avg QP:19.47  size: 47433
x264 [info]: frame B:158283 Avg QP:21.97  size: 13431
x264 [info]: consecutive B-frames:  4.8%  2.9%  3.6% 88.7%
x264 [info]: mb I  I16..4: 15.2% 70.2% 14.6%
x264 [info]: mb P  I16..4:  1.5%  9.4%  1.0%  P16..4: 42.0% 19.0% 10.6%  0.0%  0.0%    skip:16.5%
x264 [info]: mb B  I16..4:  0.1%  1.2%  0.2%  B16..8: 43.8%  5.7%  1.2%  direct: 3.4%  skip:44.4%  L0:42.6% L1:49.8% BI: 7.6%
x264 [info]: 8x8 transform intra:77.4% inter:70.7%
x264 [info]: direct mvs  spatial:99.9% temporal:0.1%
x264 [info]: coded y,uvDC,uvAC intra: 76.2% 62.6% 20.7% inter: 18.7% 17.6% 0.5%
x264 [info]: i16 v,h,dc,p: 24% 18% 10% 48%
x264 [info]: i8 v,h,dc,ddl,ddr,vr,hd,vl,hu: 10% 10%  6%  9% 14% 11% 15% 10% 14%
x264 [info]: i4 v,h,dc,ddl,ddr,vr,hd,vl,hu: 25%  8%  6%  8% 13% 10% 13%  8% 11%
x264 [info]: i8c dc,h,v,p: 41% 31% 18% 10%
x264 [info]: Weighted P-Frames: Y:5.4% UV:3.1%
x264 [info]: ref P L0: 59.2% 15.6% 13.6%  5.8%  5.0%  0.8%  0.0%
x264 [info]: ref B L0: 87.4%  8.6%  3.0%  1.0%
x264 [info]: ref B L1: 96.4%  3.6%
x264 [info]: kb/s:4646.29
[13:13:16] mux: track 0, 224928 frames, 5448512046 bytes, 4646.22 kbps, fifo 8192
[13:13:16] mux: track 1, 439753 frames, 187907419 bytes, 160.24 kbps, fifo 16384
[13:13:16] mux: track 2, 293168 frames, 262678528 bytes, 224.00 kbps, fifo 8192
[13:13:17] libhb: work result = 0

# Encode Completed ...



Below is the log for the old High Profile preset

Code: Select all


HandBrake 1.2.0 (2018121700)
OS: Microsoft Windows NT 6.1.7601 Service Pack 1
Ram: 10239 MB, 
GPU Information:
  AMD FirePro V4900 (FireGL V) - 15.201.2401.0
Screen: 2560x1440
Temp Dir: C:\Users\ssmith\AppData\Local\Temp\
Install Dir: C:\Program Files\Handbrake
Data Dir: C:\Users\ssmith\AppData\Roaming\HandBrake

-------------------------------------------


# Starting Encode ...

[13:33:05] hb_init: starting libhb thread
[13:33:05] 1 job(s) to process
[13:33:05] json job:
{
  "Audio": {
    "AudioList": [
      {
        "Bitrate": 160,
        "DRC": 0.0,
        "Encoder": "av_aac",
        "Gain": 0.0,
        "Mixdown": 6,
        "NormalizeMixLevel": false,
        "Samplerate": 0,
        "Track": 0,
        "DitherMethod": 0
      },
      {
        "Bitrate": 640,
        "DRC": 0.0,
        "Encoder": "ac3",
        "Gain": 0.0,
        "Mixdown": 7,
        "NormalizeMixLevel": false,
        "Samplerate": 0,
        "Track": 0,
        "DitherMethod": 0
      },
      {
        "Bitrate": 160,
        "DRC": 0.0,
        "Encoder": "av_aac",
        "Gain": 0.0,
        "Mixdown": 6,
        "NormalizeMixLevel": false,
        "Samplerate": 0,
        "Track": 4,
        "DitherMethod": 0
      },
      {
        "Bitrate": 160,
        "DRC": 0.0,
        "Encoder": "av_aac",
        "Gain": 0.0,
        "Mixdown": 6,
        "NormalizeMixLevel": false,
        "Samplerate": 0,
        "Track": 5,
        "DitherMethod": 0
      },
      {
        "Bitrate": 160,
        "DRC": 0.0,
        "Encoder": "av_aac",
        "Gain": 0.0,
        "Mixdown": 6,
        "NormalizeMixLevel": false,
        "Samplerate": 0,
        "Track": 3,
        "DitherMethod": 0
      }
    ],
    "CopyMask": [
      "copy:aac",
      "copy:ac3",
      "copy:dtshd",
      "copy:dts",
      "copy:eac3",
      "copy:flac",
      "copy:mp3",
      "copy:truehd"
    ],
    "FallbackEncoder": "ac3"
  },
  "Destination": {
    "ChapterList": [
      {
        "Name": "Chapter 1"
      },
      {
        "Name": "Chapter 2"
      },
      {
        "Name": "Chapter 3"
      },
      {
        "Name": "Chapter 4"
      },
      {
        "Name": "Chapter 5"
      },
      {
        "Name": "Chapter 6"
      },
      {
        "Name": "Chapter 7"
      },
      {
        "Name": "Chapter 8"
      },
      {
        "Name": "Chapter 9"
      },
      {
        "Name": "Chapter 10"
      },
      {
        "Name": "Chapter 11"
      },
      {
        "Name": "Chapter 12"
      },
      {
        "Name": "Chapter 13"
      },
      {
        "Name": "Chapter 14"
      },
      {
        "Name": "Chapter 15"
      },
      {
        "Name": "Chapter 16"
      },
      {
        "Name": "Chapter 17"
      },
      {
        "Name": "Chapter 18"
      },
      {
        "Name": "Chapter 19"
      },
      {
        "Name": "Chapter 20"
      },
      {
        "Name": "Chapter 21"
      },
      {
        "Name": "Chapter 22"
      },
      {
        "Name": "Chapter 23"
      },
      {
        "Name": "Chapter 24"
      }
    ],
    "ChapterMarkers": true,
    "AlignAVStart": false,
    "File": "D:\\Video\\The Revenant\\The Revenant (2015) HP.m4v",
    "Mp4Options": {
      "IpodAtom": false,
      "Mp4Optimize": false
    },
    "Mux": "mp4"
  },
  "Filters": {
    "FilterList": [
      {
        "ID": 4,
        "Settings": {
          "mode": "7"
        }
      },
      {
        "ID": 3,
        "Settings": {
          "block-height": "16",
          "block-thresh": "40",
          "block-width": "16",
          "filter-mode": "2",
          "mode": "3",
          "motion-thresh": "1",
          "spatial-metric": "2",
          "spatial-thresh": "1"
        }
      },
      {
        "ID": 11,
        "Settings": {
          "crop-bottom": "138",
          "crop-left": "0",
          "crop-right": "0",
          "crop-top": "138",
          "height": "804",
          "width": "1920"
        }
      },
      {
        "ID": 6,
        "Settings": {
          "mode": "0"
        }
      }
    ]
  },
  "PAR": {
    "Num": 1,
    "Den": 1
  },
  "Metadata": {},
  "SequenceID": 0,
  "Source": {
    "Angle": 1,
    "Range": {
      "Type": "chapter",
      "Start": 1,
      "End": 24
    },
    "Title": 1,
    "Path": "D:\\Video\\The Revenant\\The Revenant_t00.mkv"
  },
  "Subtitle": {
    "Search": {
      "Burn": false,
      "Default": false,
      "Enable": false,
      "Forced": false
    },
    "SubtitleList": [
      {
        "Burn": true,
        "Default": false,
        "Forced": true,
        "ID": 1,
        "Offset": 0,
        "Track": 0
      }
    ]
  },
  "Video": {
    "Encoder": "x264",
    "Level": "4.1",
    "TwoPass": false,
    "Turbo": false,
    "ColorMatrixCode": 0,
    "Options": "",
    "Preset": "medium",
    "Profile": "high",
    "Quality": 20.0,
    "QSV": {
      "Decode": false,
      "AsyncDepth": 0
    }
  }
}
[13:33:05] CPU: Intel(R) Xeon(R) CPU           E5420  @ 2.50GHz
[13:33:05]  - logical processor count: 8
[13:33:05] Intel Quick Sync Video support: no
[13:33:05] hb_scan: path=D:\Video\The Revenant\The Revenant_t00.mkv, title_index=1
udfread ERROR: ECMA 167 Volume Recognition failed
src/libbluray/disc/disc.c:323: failed opening UDF image D:\Video\The Revenant\The Revenant_t00.mkv
src/libbluray/disc/disc.c:424: error opening file BDMV\index.bdmv
src/libbluray/disc/disc.c:424: error opening file BDMV\BACKUP\index.bdmv
[13:33:05] bd: not a bd - trying as a stream/file instead
libdvdnav: Using dvdnav version 6.0.0
libdvdread:DVDOpenFileUDF:UDFFindFile /VIDEO_TS/VIDEO_TS.IFO failed
libdvdread:DVDOpenFileUDF:UDFFindFile /VIDEO_TS/VIDEO_TS.BUP failed
libdvdread: Can't open file VIDEO_TS.IFO.
libdvdnav: vm: failed to read VIDEO_TS.IFO
[13:33:05] dvd: not a dvd - trying as a stream/file instead
Input #0, matroska,webm, from 'D:\Video\The Revenant\The Revenant_t00.mkv':
  Metadata:
    title           : The Revenant
    encoder         : libmakemkv v1.14.2 (1.3.5/1.4.7) win(x64-release)
    creation_time   : 2019-01-18T14:20:39.000000Z
  Duration: 02:36:21.38, start: 0.000000, bitrate: 33447 kb/s
    Chapter #0:0: start 0.000000, end 304.846208
    Metadata:
      title           : Chapter 01
    Chapter #0:1: start 304.846208, end 478.102625
    Metadata:
      title           : Chapter 02
    Chapter #0:2: start 478.102625, end 798.964833
    Metadata:
      title           : Chapter 03
    Chapter #0:3: start 798.964833, end 1270.560958
    Metadata:
      title           : Chapter 04
    Chapter #0:4: start 1270.560958, end 1701.408042
    Metadata:
      title           : Chapter 05
    Chapter #0:5: start 1701.408042, end 2227.767208
    Metadata:
      title           : Chapter 06
    Chapter #0:6: start 2227.767208, end 2640.346042
    Metadata:
      title           : Chapter 07
    Chapter #0:7: start 2640.346042, end 2894.975417
    Metadata:
      title           : Chapter 08
    Chapter #0:8: start 2894.975417, end 3101.932167
    Metadata:
      title           : Chapter 09
    Chapter #0:9: start 3101.932167, end 3410.990917
    Metadata:
      title           : Chapter 10
    Chapter #0:10: start 3410.990917, end 3590.753833
    Metadata:
      title           : Chapter 11
    Chapter #0:11: start 3590.753833, end 3811.474333
    Metadata:
      title           : Chapter 12
    Chapter #0:12: start 3811.474333, end 4312.057750
    Metadata:
      title           : Chapter 13
    Chapter #0:13: start 4312.057750, end 4595.799542
    Metadata:
      title           : Chapter 14
    Chapter #0:14: start 4595.799542, end 4882.377500
    Metadata:
      title           : Chapter 15
    Chapter #0:15: start 4882.377500, end 5311.139167
    Metadata:
      title           : Chapter 16
    Chapter #0:16: start 5311.139167, end 5849.760583
    Metadata:
      title           : Chapter 17
    Chapter #0:17: start 5849.760583, end 6524.267750
    Metadata:
      title           : Chapter 18
    Chapter #0:18: start 6524.267750, end 6788.782000
    Metadata:
      title           : Chapter 19
    Chapter #0:19: start 6788.782000, end 7145.763625
    Metadata:
      title           : Chapter 20
    Chapter #0:20: start 7145.763625, end 7376.702667
    Metadata:
      title           : Chapter 21
    Chapter #0:21: start 7376.702667, end 8144.928458
    Metadata:
      title           : Chapter 22
    Chapter #0:22: start 8144.928458, end 8570.895667
    Metadata:
      title           : Chapter 23
    Chapter #0:23: start 8570.895667, end 9381.376000
    Metadata:
      title           : Chapter 24
    Stream #0:0(eng): Video: h264 (High), yuv420p(progressive), 1920x1080 [SAR 1:1 DAR 16:9], 23.98 fps, 23.98 tbr, 1k tbn, 47.95 tbc
    Metadata:
      BPS-eng         : 25474880
      DURATION-eng    : 02:36:21.372000000
      NUMBER_OF_FRAMES-eng: 224928
      NUMBER_OF_BYTES-eng: 29873666812
      SOURCE_ID-eng   : 001011
      _STATISTICS_WRITING_APP-eng: MakeMKV v1.14.2 win(x64-release)
      _STATISTICS_WRITING_DATE_UTC-eng: 2019-01-18 14:20:39
      _STATISTICS_TAGS-eng: BPS DURATION NUMBER_OF_FRAMES NUMBER_OF_BYTES SOURCE_ID
    Stream #0:1(eng): Audio: dts (DTS-HD MA), 48000 Hz, 7.1, s32p (24 bit) (default)
    Metadata:
      title           : Surround 7.1
      BPS-eng         : 4602518
      DURATION-eng    : 02:36:21.376000000
      NUMBER_OF_FRAMES-eng: 879504
      NUMBER_OF_BYTES-eng: 5397244144
      SOURCE_ID-eng   : 001100
      _STATISTICS_WRITING_APP-eng: MakeMKV v1.14.2 win(x64-release)
      _STATISTICS_WRITING_DATE_UTC-eng: 2019-01-18 14:20:39
      _STATISTICS_TAGS-eng: BPS DURATION NUMBER_OF_FRAMES NUMBER_OF_BYTES SOURCE_ID
    Stream #0:2(eng): Audio: dts (DTS), 48000 Hz, 5.1(side), fltp, 1536 kb/s
    Metadata:
      title           : Surround 5.1
      BPS-eng         : 1509000
      DURATION-eng    : 02:36:21.376000000
      NUMBER_OF_FRAMES-eng: 879504
      NUMBER_OF_BYTES-eng: 1769562048
      SOURCE_ID-eng   : 001100
      _STATISTICS_WRITING_APP-eng: MakeMKV v1.14.2 win(x64-release)
      _STATISTICS_WRITING_DATE_UTC-eng: 2019-01-18 14:20:39
      _STATISTICS_TAGS-eng: BPS DURATION NUMBER_OF_FRAMES NUMBER_OF_BYTES SOURCE_ID
    Stream #0:3(eng): Audio: ac3, 48000 Hz, 5.1(side), fltp, 448 kb/s
    Metadata:
      title           : Surround 5.1
      BPS-eng         : 448000
      DURATION-eng    : 02:36:21.376000000
      NUMBER_OF_FRAMES-eng: 293168
      NUMBER_OF_BYTES-eng: 525357056
      SOURCE_ID-eng   : 001101
      _STATISTICS_WRITING_APP-eng: MakeMKV v1.14.2 win(x64-release)
      _STATISTICS_WRITING_DATE_UTC-eng: 2019-01-18 14:20:39
      _STATISTICS_TAGS-eng: BPS DURATION NUMBER_OF_FRAMES NUMBER_OF_BYTES SOURCE_ID
    Stream #0:4(spa): Audio: ac3, 48000 Hz, 5.1(side), fltp, 448 kb/s
    Metadata:
      title           : Surround 5.1
      BPS-eng         : 448000
      DURATION-eng    : 02:36:21.376000000
      NUMBER_OF_FRAMES-eng: 293168
      NUMBER_OF_BYTES-eng: 525357056
      SOURCE_ID-eng   : 001102
      _STATISTICS_WRITING_APP-eng: MakeMKV v1.14.2 win(x64-release)
      _STATISTICS_WRITING_DATE_UTC-eng: 2019-01-18 14:20:39
      _STATISTICS_TAGS-eng: BPS DURATION NUMBER_OF_FRAMES NUMBER_OF_BYTES SOURCE_ID
    Stream #0:5(fra): Audio: ac3, 48000 Hz, 5.1(side), fltp, 448 kb/s
    Metadata:
      title           : Surround 5.1
      BPS-eng         : 448000
      DURATION-eng    : 02:36:21.376000000
      NUMBER_OF_FRAMES-eng: 293168
      NUMBER_OF_BYTES-eng: 525357056
      SOURCE_ID-eng   : 001103
      _STATISTICS_WRITING_APP-eng: MakeMKV v1.14.2 win(x64-release)
      _STATISTICS_WRITING_DATE_UTC-eng: 2019-01-18 14:20:39
      _STATISTICS_TAGS-eng: BPS DURATION NUMBER_OF_FRAMES NUMBER_OF_BYTES SOURCE_ID
    Stream #0:6(por): Audio: ac3, 48000 Hz, 5.1(side), fltp, 448 kb/s
    Metadata:
      title           : Surround 5.1
      BPS-eng         : 448000
      DURATION-eng    : 02:36:21.376000000
      NUMBER_OF_FRAMES-eng: 293168
      NUMBER_OF_BYTES-eng: 525357056
      SOURCE_ID-eng   : 001104
      _STATISTICS_WRITING_APP-eng: MakeMKV v1.14.2 win(x64-release)
      _STATISTICS_WRITING_DATE_UTC-eng: 2019-01-18 14:20:39
      _STATISTICS_TAGS-eng: BPS DURATION NUMBER_OF_FRAMES NUMBER_OF_BYTES SOURCE_ID
    Stream #0:7(eng): Subtitle: hdmv_pgs_subtitle
    Metadata:
      BPS-eng         : 21654
      DURATION-eng    : 02:25:18.772562500
      NUMBER_OF_FRAMES-eng: 2533
      NUMBER_OF_BYTES-eng: 23599912
      SOURCE_ID-eng   : 001200
      _STATISTICS_WRITING_APP-eng: MakeMKV v1.14.2 win(x64-release)
      _STATISTICS_WRITING_DATE_UTC-eng: 2019-01-18 14:20:39
      _STATISTICS_TAGS-eng: BPS DURATION NUMBER_OF_FRAMES NUMBER_OF_BYTES SOURCE_ID
    Stream #0:8(eng): Subtitle: hdmv_pgs_subtitle
    Metadata:
      BPS-eng         : 1342
      DURATION-eng    : 02:20:59.054770833
      NUMBER_OF_FRAMES-eng: 254
      NUMBER_OF_BYTES-eng: 1419113
      SOURCE_ID-eng   : 001201
      _STATISTICS_WRITING_APP-eng: MakeMKV v1.14.2 win(x64-release)
      _STATISTICS_WRITING_DATE_UTC-eng: 2019-01-18 14:20:39
      _STATISTICS_TAGS-eng: BPS DURATION NUMBER_OF_FRAMES NUMBER_OF_BYTES SOURCE_ID
    Stream #0:9(eng): Subtitle: hdmv_pgs_subtitle
    Metadata:
      BPS-eng         : 1342
      DURATION-eng    : 02:20:59.054770833
      NUMBER_OF_FRAMES-eng: 254
      NUMBER_OF_BYTES-eng: 1419113
      SOURCE_ID-eng   : 001201
      _STATISTICS_WRITING_APP-eng: MakeMKV v1.14.2 win(x64-release)
      _STATISTICS_WRITING_DATE_UTC-eng: 2019-01-18 14:20:39
      _STATISTICS_TAGS-eng: BPS DURATION NUMBER_OF_FRAMES NUMBER_OF_BYTES SOURCE_ID
    Stream #0:10(spa): Subtitle: hdmv_pgs_subtitle
    Metadata:
      BPS-eng         : 11969
      DURATION-eng    : 02:35:07.443979166
      NUMBER_OF_FRAMES-eng: 1672
      NUMBER_OF_BYTES-eng: 13925780
      SOURCE_ID-eng   : 001202
      _STATISTICS_WRITING_APP-eng: MakeMKV v1.14.2 win(x64-release)
      _STATISTICS_WRITING_DATE_UTC-eng: 2019-01-18 14:20:39
      _STATISTICS_TAGS-eng: BPS DURATION NUMBER_OF_FRAMES NUMBER_OF_BYTES SOURCE_ID
    Stream #0:11(spa): Subtitle: hdmv_pgs_subtitle
    Metadata:
      BPS-eng         : 1751
      DURATION-eng    : 02:35:07.443979166
      NUMBER_OF_FRAMES-eng: 272
      NUMBER_OF_BYTES-eng: 2037236
      SOURCE_ID-eng   : 001202
      _STATISTICS_WRITING_APP-eng: MakeMKV v1.14.2 win(x64-release)
      _STATISTICS_WRITING_DATE_UTC-eng: 2019-01-18 14:20:39
      _STATISTICS_TAGS-eng: BPS DURATION NUMBER_OF_FRAMES NUMBER_OF_BYTES SOURCE_ID
    Stream #0:12(fra): Subtitle: hdmv_pgs_subtitle
    Metadata:
      BPS-eng         : 11925
      DURATION-eng    : 02:35:07.443979166
      NUMBER_OF_FRAMES-eng: 1615
      NUMBER_OF_BYTES-eng: 13874159
      SOURCE_ID-eng   : 001203
      _STATISTICS_WRITING_APP-eng: MakeMKV v1.14.2 win(x64-release)
      _STATISTICS_WRITING_DATE_UTC-eng: 2019-01-18 14:20:39
      _STATISTICS_TAGS-eng: BPS DURATION NUMBER_OF_FRAMES NUMBER_OF_BYTES SOURCE_ID
    Stream #0:13(fra): Subtitle: hdmv_pgs_subtitle
    Metadata:
      BPS-eng         : 1461
      DURATION-eng    : 02:35:07.443979166
      NUMBER_OF_FRAMES-eng: 217
      NUMBER_OF_BYTES-eng: 1700382
      SOURCE_ID-eng   : 001203
      _STATISTICS_WRITING_APP-eng: MakeMKV v1.14.2 win(x64-release)
      _STATISTICS_WRITING_DATE_UTC-eng: 2019-01-18 14:20:39
      _STATISTICS_TAGS-eng: BPS DURATION NUMBER_OF_FRAMES NUMBER_OF_BYTES SOURCE_ID
    Stream #0:14(por): Subtitle: hdmv_pgs_subtitle
    Metadata:
      BPS-eng         : 11195
      DURATION-eng    : 02:35:06.442979166
      NUMBER_OF_FRAMES-eng: 1654
      NUMBER_OF_BYTES-eng: 13023872
      SOURCE_ID-eng   : 001204
      _STATISTICS_WRITING_APP-eng: MakeMKV v1.14.2 win(x64-release)
      _STATISTICS_WRITING_DATE_UTC-eng: 2019-01-18 14:20:39
      _STATISTICS_TAGS-eng: BPS DURATION NUMBER_OF_FRAMES NUMBER_OF_BYTES SOURCE_ID
    Stream #0:15(por): Subtitle: hdmv_pgs_subtitle
    Metadata:
      BPS-eng         : 1615
      DURATION-eng    : 02:35:06.442979166
      NUMBER_OF_FRAMES-eng: 258
      NUMBER_OF_BYTES-eng: 1879017
      SOURCE_ID-eng   : 001204
      _STATISTICS_WRITING_APP-eng: MakeMKV v1.14.2 win(x64-release)
      _STATISTICS_WRITING_DATE_UTC-eng: 2019-01-18 14:20:39
      _STATISTICS_TAGS-eng: BPS DURATION NUMBER_OF_FRAMES NUMBER_OF_BYTES SOURCE_ID
[13:33:05] scan: decoding previews for title 1
[13:33:05] scan: audio 0x1: dca, rate=48000Hz, bitrate=1 English (DTS-HD MA) (7.1 ch)
[13:33:05] scan: audio 0x2: dca, rate=48000Hz, bitrate=1536000 English (DTS) (5.1 ch)
[13:33:05] scan: audio 0x3: ac3, rate=48000Hz, bitrate=448000 English (AC3) (5.1 ch)
[13:33:05] scan: audio 0x4: ac3, rate=48000Hz, bitrate=448000 español (AC3) (5.1 ch)
[13:33:05] scan: audio 0x5: ac3, rate=48000Hz, bitrate=448000 Francais (AC3) (5.1 ch)
[13:33:05] scan: audio 0x6: ac3, rate=48000Hz, bitrate=448000 Portugues (AC3) (5.1 ch)
[13:33:07] scan: 10 previews, 1920x1080, 23.976 fps, autocrop = 138/138/0/0, aspect 16:9, PAR 1:1
[13:33:07] scan: supported video decoders: avcodec qsv
[13:33:07] libhb: scan thread found 1 valid title(s)
[13:33:07] starting job
[13:33:07] decomb filter thread started for segment 0
[13:33:07] decomb filter thread started for segment 1
[13:33:07] decomb filter thread started for segment 2
[13:33:07] decomb filter thread started for segment 3
[13:33:07] decomb filter thread started for segment 4
[13:33:07] decomb filter thread started for segment 5
[13:33:07] decomb filter thread started for segment 6
[13:33:07] decomb filter thread started for segment 7
[13:33:07] decomb check thread started for segment 0
[13:33:07] decomb check thread started for segment 1
[13:33:07] decomb check thread started for segment 2
[13:33:07] decomb check thread started for segment 3
[13:33:07] decomb check thread started for segment 4
[13:33:07] decomb check thread started for segment 5
[13:33:07] decomb check thread started for segment 6
[13:33:07] decomb check thread started for segment 7
[13:33:07] mask filter thread started for segment 0
[13:33:07] mask filter thread started for segment 1
[13:33:07] mask filter thread started for segment 2
[13:33:07] mask filter thread started for segment 3
[13:33:07] mask filter thread started for segment 4
[13:33:07] mask filter thread started for segment 5
[13:33:07] mask filter thread started for segment 6
[13:33:07] mask filter thread started for segment 7
[13:33:07] mask erode thread started for segment 0
[13:33:07] mask erode thread started for segment 1
[13:33:07] mask erode thread started for segment 2
[13:33:07] mask erode thread started for segment 3
[13:33:07] mask erode thread started for segment 4
[13:33:07] mask erode thread started for segment 5
[13:33:07] mask erode thread started for segment 6
[13:33:07] mask erode thread started for segment 7
[13:33:07] mask dilate thread started for segment 0
[13:33:07] mask dilate thread started for segment 1
[13:33:07] mask dilate thread started for segment 2
[13:33:07] mask dilate thread started for segment 3
[13:33:07] mask dilate thread started for segment 4
[13:33:07] mask dilate thread started for segment 5
[13:33:07] mask dilate thread started for segment 6
[13:33:07] mask dilate thread started for segment 7
[13:33:07] yadif thread started for segment 0
[13:33:07] yadif thread started for segment 1
[13:33:07] yadif thread started for segment 2
[13:33:07] yadif thread started for segment 3
[13:33:07] yadif thread started for segment 4
[13:33:07] yadif thread started for segment 5
[13:33:07] yadif thread started for segment 6
[13:33:07] yadif thread started for segment 7
[13:33:07] job configuration:
[13:33:07]  * source
[13:33:07]    + D:\Video\The Revenant\The Revenant_t00.mkv
[13:33:07]    + title 1, chapter(s) 1 to 24
[13:33:07]    + container: matroska,webm
[13:33:07]    + data rate: 33447 kbps
[13:33:07]  * destination
[13:33:07]    + D:\Video\The Revenant\The Revenant (2015) HP.m4v
[13:33:07]    + container: MPEG-4 (libavformat)
[13:33:07]      + chapter markers
[13:33:07]  * video track
[13:33:07]    + decoder: h264
[13:33:07]    + filters
[13:33:07]      + Comb Detect (mode=3:spatial-metric=2:motion-thresh=1:spatial-thresh=1:filter-mode=2:block-thresh=40:block-width=16:block-height=16)
[13:33:07]      + Decomb (mode=39)
[13:33:07]      + Framerate Shaper (mode=0)
[13:33:07]        + frame rate: same as source (around 23.976 fps)
[13:33:07]      + Subtitle renderer ()
[13:33:07]      + Crop and Scale (width=1920:height=804:crop-top=138:crop-bottom=138:crop-left=0:crop-right=0)
[13:33:07]        + source: 1920 * 1080, crop (138/138/0/0): 1920 * 804, scale: 1920 * 804
[13:33:07]    + Output geometry
[13:33:07]      + storage dimensions: 1920 x 804
[13:33:07]      + pixel aspect ratio: 1 : 1
[13:33:07]      + display dimensions: 1920 x 804
[13:33:07]    + encoder: H.264 (libx264)
[13:33:07]      + preset:  medium
[13:33:07]      + profile: high
[13:33:07]      + level:   4.1
[13:33:07]      + quality: 20.00 (RF)
[13:33:07]      + color profile: 1-1-1
[13:33:07]  * subtitle track 1, English [PGS] (track 0, id 0x7, Picture) -> Render/Burn-in, Forced Only
[13:33:07]  * audio track 1
[13:33:07]    + decoder: English (DTS-HD MA) (7.1 ch) (track 1, id 0x1)
[13:33:07]      + samplerate: 48000 Hz
[13:33:07]    + mixdown: Dolby Pro Logic II
[13:33:07]    + dither: none
[13:33:07]    + encoder: AAC (libavcodec)
[13:33:07]      + bitrate: 160 kbps, samplerate: 48000 Hz
[13:33:07]  * audio track 2
[13:33:07]    + decoder: English (DTS-HD MA) (7.1 ch) (track 1, id 0x1)
[13:33:07]      + samplerate: 48000 Hz
[13:33:07]    + mixdown: 5.1 Channels
[13:33:07]    + dither: none
[13:33:07]    + encoder: AC3 (libavcodec)
[13:33:07]      + bitrate: 640 kbps, samplerate: 48000 Hz
[13:33:07]  * audio track 3
[13:33:07]    + decoder: Francais (AC3) (5.1 ch) (track 5, id 0x5)
[13:33:07]      + bitrate: 448 kbps, samplerate: 48000 Hz
[13:33:07]    + mixdown: Dolby Pro Logic II
[13:33:07]    + dither: none
[13:33:07]    + encoder: AAC (libavcodec)
[13:33:07]      + bitrate: 160 kbps, samplerate: 48000 Hz
[13:33:07]  * audio track 4
[13:33:07]    + decoder: Portugues (AC3) (5.1 ch) (track 6, id 0x6)
[13:33:07]      + bitrate: 448 kbps, samplerate: 48000 Hz
[13:33:07]    + mixdown: Dolby Pro Logic II
[13:33:07]    + dither: none
[13:33:07]    + encoder: AAC (libavcodec)
[13:33:07]      + bitrate: 160 kbps, samplerate: 48000 Hz
[13:33:07]  * audio track 5
[13:33:07]    + decoder: español (AC3) (5.1 ch) (track 4, id 0x4)
[13:33:07]      + bitrate: 448 kbps, samplerate: 48000 Hz
[13:33:07]    + mixdown: Dolby Pro Logic II
[13:33:07]    + dither: none
[13:33:07]    + encoder: AAC (libavcodec)
[13:33:07]      + bitrate: 160 kbps, samplerate: 48000 Hz
[13:33:07] sync: expecting 224928 video frames
[13:33:07] encx264: min-keyint: 24, keyint: 240
[13:33:07] encx264: encoding at constant RF 20.000000
[13:33:07] encx264: unparsed options: level=4.1:vbv-bufsize=78125:vbv-maxrate=62500
x264 [info]: using SAR=1/1
x264 [info]: using cpu capabilities: MMX2 SSE2Fast SSSE3 SSE4.1 Cache64
x264 [info]: profile High, level 4.1, 4:2:0, 8-bit
[13:33:07] sync: first pts video is 0
[13:33:07] sync: "Chapter 1" (1) at frame 1 time 0
[13:33:07] sync: first pts audio 0x1 is 0
[13:33:07] sync: first pts audio 0x1 is 0
[13:33:07] sync: first pts audio 0x5 is 0
[13:33:07] sync: first pts audio 0x6 is 0
[13:33:07] sync: first pts audio 0x4 is 0
[13:39:44] sync: "Chapter 2" (2) at frame 7312 time 27443666
[13:43:45] sync: "Chapter 3" (3) at frame 11464 time 43029236
[13:51:24] sync: "Chapter 4" (4) at frame 19157 time 71906835
[14:00:47] sync: "Chapter 5" (5) at frame 30464 time 114350486
[14:09:46] sync: "Chapter 6" (6) at frame 40796 time 153134231
[14:20:43] sync: "Chapter 7" (7) at frame 53416 time 200506556
[14:28:31] sync: "Chapter 8" (8) at frame 63308 time 237638651
[14:33:58] sync: "Chapter 9" (9) at frame 69413 time 260555295
[14:38:05] sync: "Chapter 10" (10) at frame 74375 time 279181402
[14:44:30] sync: "Chapter 11" (11) at frame 81783 time 306989182
[14:48:17] sync: "Chapter 12" (12) at frame 86093 time 323167845
[14:52:38] sync: "Chapter 13" (13) at frame 91387 time 343040197
[15:03:35] sync: "Chapter 14" (14) at frame 103387 time 388085197
[15:09:58] sync: "Chapter 15" (15) at frame 110190 time 413621958
[15:15:42] sync: "Chapter 16" (16) at frame 117061 time 439413975
[15:24:29] sync: "Chapter 17" (17) at frame 127343 time 478010032
[15:35:12] sync: "Chapter 18" (18) at frame 140255 time 526478452
[15:48:46] sync: "Chapter 19" (19) at frame 156427 time 587184097
[15:54:24] sync: "Chapter 20" (20) at frame 162769 time 610990380
[16:01:14] sync: "Chapter 21" (21) at frame 171328 time 643118726
[16:06:18] sync: "Chapter 22" (22) at frame 176865 time 663903240
[16:22:15] sync: "Chapter 23" (23) at frame 195286 time 733051068
[16:32:18] sync: "Chapter 24" (24) at frame 205497 time 771380610
[16:41:52] reader: done. 1 scr changes
[16:41:54] work: average encoding speed for job is 19.855522 fps
[16:41:54] comb detect: heavy 681 | light 4143 | uncombed 220104 | total 224928
[16:41:54] decomb: deinterlaced 681 | blended 4143 | unfiltered 220104 | total 224928
[16:41:54] vfr: lost time: 0 (0 frames)
[16:41:54] vfr: gained time: 0 (0 frames) (0 not accounted for)
[16:41:54] dca-decoder done: 879504 frames, 0 decoder errors
[16:41:54] dca-decoder done: 879504 frames, 0 decoder errors
[16:41:54] ac3-decoder done: 293168 frames, 0 decoder errors
[16:41:54] ac3-decoder done: 293168 frames, 0 decoder errors
[16:41:54] ac3-decoder done: 293168 frames, 0 decoder errors
[16:41:54] h264-decoder done: 224928 frames, 0 decoder errors
[16:41:54] sync: got 224928 frames, 224928 expected
[16:41:54] sync: framerate min 23.981 fps, max 23.981 fps, avg 23.976 fps
x264 [info]: frame I:1680  Avg QP:16.12  size:137861
x264 [info]: frame P:64966 Avg QP:19.45  size: 46858
x264 [info]: frame B:158282 Avg QP:21.88  size: 14523
x264 [info]: consecutive B-frames:  4.8%  2.9%  3.5% 88.7%
x264 [info]: mb I  I16..4: 11.8% 68.0% 20.2%
x264 [info]: mb P  I16..4:  1.7% 11.3%  2.1%  P16..4: 38.2% 18.3% 11.2%  0.0%  0.0%    skip:17.1%
x264 [info]: mb B  I16..4:  0.2%  1.6%  0.4%  B16..8: 44.0%  5.5%  1.3%  direct: 3.1%  skip:43.8%  L0:42.7% L1:50.1% BI: 7.2%
x264 [info]: 8x8 transform intra:73.3% inter:75.5%
x264 [info]: coded y,uvDC,uvAC intra: 73.7% 65.5% 21.4% inter: 21.8% 19.8% 0.5%
x264 [info]: i16 v,h,dc,p: 28% 18%  7% 48%
x264 [info]: i8 v,h,dc,ddl,ddr,vr,hd,vl,hu: 15% 17% 16%  7%  9%  8% 11%  7% 10%
x264 [info]: i4 v,h,dc,ddl,ddr,vr,hd,vl,hu: 29% 16% 11%  6%  9%  7% 10%  5%  7%
x264 [info]: i8c dc,h,v,p: 58% 20% 18%  4%
x264 [info]: Weighted P-Frames: Y:5.4% UV:3.1%
x264 [info]: ref P L0: 62.0% 16.3% 14.4%  6.7%  0.6%
x264 [info]: ref B L0: 91.2%  6.9%  1.9%
x264 [info]: ref B L1: 96.3%  3.7%
x264 [info]: kb/s:4753.64
[16:41:54] mux: track 0, 224928 frames, 5574392008 bytes, 4753.56 kbps, fifo 2048
[16:41:54] mux: track 1, 439753 frames, 187907419 bytes, 160.24 kbps, fifo 4096
[16:41:54] mux: track 2, 293168 frames, 750510080 bytes, 640.00 kbps, fifo 2048
[16:41:54] mux: track 3, 439753 frames, 188346045 bytes, 160.61 kbps, fifo 4096
[16:41:54] mux: track 4, 439753 frames, 188368934 bytes, 160.63 kbps, fifo 4096
[16:41:54] mux: track 5, 439753 frames, 188366463 bytes, 160.63 kbps, fifo 4096
[16:41:54] libhb: work result = 0

# Encode Completed ...


User avatar
s55
HandBrake Team
Posts: 9446
Joined: Sun Dec 24, 2006 1:05 pm

Re: High Profile deprecated?

Post by s55 » Fri Jan 18, 2019 11:09 pm

What your seeing is absolutely correct. It is by design, a slightly slower preset which should give slightly better results than the older high profile preset it superseeds.

[08:50:22] + encoder: H.264 (libx264)
[08:50:22] + preset: slow
vs

3:33:07] + encoder: H.264 (libx264)
[13:33:07] + preset: medium



The difference would probably be slightly larger if you didn't have more audio tracks on your legacy "High Profile" encode.

If the speed difference bothers you, try moving the Encode Preset on the Video tab back to "Medium" and save it as your own custom preset.

Post Reply