Move letterbox black bars to bottom (crop and pad blu ray rips)

HandBrake for Windows support
Forum rules
An Activity Log is required for support requests. Please read How-to get an activity log? for details on how and why this should be provided.
User avatar
Rodeo
HandBrake Team
Posts: 12234
Joined: Tue Mar 03, 2009 8:55 pm

Re: Bizarre request - move letterbox black bars to bottom

Post by Rodeo » Thu May 31, 2018 10:51 am

Yes.

jcwillia1
Posts: 44
Joined: Tue May 15, 2018 2:28 pm

Re: Bizarre request - move letterbox black bars to bottom

Post by jcwillia1 » Thu May 31, 2018 2:27 pm

jcwillia1 wrote:
Thu May 31, 2018 9:23 am
thank you

where do I put the quality indicator?

HandBrakeCLI -i "Z:\1 Discs\Transformers.mkv" --subtitle=none --preset-import-gui --preset=“Super HQ 1080p30 Surround” --pad="width=1920:height=1080:y=2" -o "Z:\1 Discs\Top\Transformers.mkv”

Can someone help me change from this preset to quality = 16? And can we make the audio as lossless as possible?

User avatar
BradleyS
Moderator
Posts: 1666
Joined: Thu Aug 09, 2007 12:16 pm

Re: Bizarre request - move letterbox black bars to bottom

Post by BradleyS » Thu May 31, 2018 2:41 pm

Just add -q=16 before the -o. I doubt you will see any difference from the default.

jcwillia1
Posts: 44
Joined: Tue May 15, 2018 2:28 pm

Re: Bizarre request - move letterbox black bars to bottom

Post by jcwillia1 » Thu May 31, 2018 2:51 pm

BradleyS wrote:
Thu May 31, 2018 2:41 pm
Just add -q=16 before the -o. I doubt you will see any difference from the default.
Thank you all for being so patient with my questions.

Does that affect audio as well?

Also is there a way to do just the first couple chapters for testing purposes?

User avatar
BradleyS
Moderator
Posts: 1666
Joined: Thu Aug 09, 2007 12:16 pm

Re: Bizarre request - move letterbox black bars to bottom

Post by BradleyS » Thu May 31, 2018 7:21 pm

That’s video only. Have a look at the following for more options https://handbrake.fr/docs/en/1.1.0/cli/cli-guide.html

jcwillia1
Posts: 44
Joined: Tue May 15, 2018 2:28 pm

Re: Bizarre request - move letterbox black bars to bottom

Post by jcwillia1 » Fri Jun 01, 2018 9:41 am

i broke it - no audio...

Code: Select all

C:\Users\jcwil\Downloads\HandBrakeCLI>HandBrakeCLI -i "Z:\1 Discs\Transformers.mkv" --subtitle=none --preset-import-gui --preset="Super HQ 1080p30 Surround" --pad="width=1920:height=1080:y=2" -q=16 -aq=copy -chapter:2 -o "Z:\1 Discs\Top\Transformers.mkv"
[18:53:34] hb_init: starting libhb thread
[18:53:34] thread 33166d0 started ("libhb")
[18:53:34] Failed to load GUI presets file
[18:53:34] Attempted: HandBrake\presets.json
[18:53:34] Attempted: HandBrake\presets.xml
chapters: Invalid syntax (hapter:2)

HandBrake has exited.

Code: Select all

C:\Users\jcwil\Downloads\HandBrakeCLI>HandBrakeCLI -i "Z:\1 Discs\Transformers.mkv" --subtitle=none --preset-import-gui --preset="Super HQ 1080p30 Surround" --pad="width=1920:height=1080:y=2" -q=16 -aq=copy -chapter:2 -o "Z:\1 Discs\Top\Transformers.mkv"
[18:54:50] hb_init: starting libhb thread
[18:54:50] thread 5ec8290 started ("libhb")
[18:54:50] Failed to load GUI presets file
[18:54:50] Attempted: HandBrake\presets.json
[18:54:50] Attempted: HandBrake\presets.xml
chapters: Invalid syntax (hapter:2)

HandBrake has exited.

Code: Select all

C:\Users\jcwil\Downloads\HandBrakeCLI>HandBrakeCLI -i "Z:\1 Discs\Transformers.mkv" --subtitle=none --preset-import-gui --preset="Super HQ 1080p30 Surround" --pad="width=1920:height=1080:y=2" -q=16 -aq=copy -chapter=2 -o "Z:\1 Discs\Top\Transformers.mkv"
[18:55:09] hb_init: starting libhb thread
[18:55:09] thread 5398290 started ("libhb")
[18:55:09] Failed to load GUI presets file
[18:55:09] Attempted: HandBrake\presets.json
[18:55:09] Attempted: HandBrake\presets.xml
chapters: Invalid syntax (hapter=2)

HandBrake has exited.

Code: Select all

C:\Users\jcwil\Downloads\HandBrakeCLI>HandBrakeCLI -i "Z:\1 Discs\Transformers.mkv" --subtitle=none --preset-import-gui --preset="Super HQ 1080p30 Surround" --pad="width=1920:height=1080:y=2" -q=16 -aq=copy -c=2 -o "Z:\1 Discs\Top\Transformers.mkv"
[18:56:42] hb_init: starting libhb thread
[18:56:42] thread 336e4e0 started ("libhb")
[18:56:42] Failed to load GUI presets file
[18:56:42] Attempted: HandBrake\presets.json
[18:56:42] Attempted: HandBrake\presets.xml
chapters: Invalid syntax (=2)

HandBrake has exited.

Code: Select all

C:\Users\jcwil\Downloads\HandBrakeCLI>HandBrakeCLI -i "Z:\1 Discs\Transformers.mkv" --subtitle=none --preset-import-gui --preset="Super HQ 1080p30 Surround" --pad="width=1920:height=1080:y=2" -q=16 -aq=copy -c:2 -o "Z:\1 Discs\Top\Transformers.mkv"
[18:57:03] hb_init: starting libhb thread
[18:57:03] thread 520e4e0 started ("libhb")
[18:57:03] Failed to load GUI presets file
[18:57:03] Attempted: HandBrake\presets.json
[18:57:03] Attempted: HandBrake\presets.xml
chapters: Invalid syntax (:2)

HandBrake has exited.

Code: Select all

C:\Users\jcwil\Downloads\HandBrakeCLI>HandBrakeCLI -i "Z:\1 Discs\Transformers.mkv" --subtitle=none --preset-import-gui --preset="Super HQ 1080p30 Surround" --pad="width=1920:height=1080:y=2" -q=16 -aq=copy -c 2 -o "Z:\1 Discs\Top\Transformers.mkv"
[18:58:40] hb_init: starting libhb thread
[18:58:40] thread 5af8780 started ("libhb")
[18:58:40] Failed to load GUI presets file
[18:58:40] Attempted: HandBrake\presets.json
[18:58:40] Attempted: HandBrake\presets.xml
HandBrake 1.1.0 (2018040700) - MinGW x86_64 - https://handbrake.fr
4 CPUs detected
Opening Z:\1 Discs\Transformers.mkv...
[18:58:40] CPU: Intel(R) Core(TM)2 Quad CPU    Q8400  @ 2.66GHz
[18:58:40]  - logical processor count: 4
[18:58:40] Intel Quick Sync Video support: no
[18:58:40] hb_scan: path=Z:\1 Discs\Transformers.mkv, title_index=1
udfread ERROR: ECMA 167 Volume Recognition failed
src/libbluray/disc/disc.c:323: failed opening UDF image Z:\1 Discs\Transformers.mkv
src/libbluray/disc/disc.c:424: error opening file BDMV\index.bdmv
src/libbluray/disc/disc.c:424: error opening file BDMV\BACKUP\index.bdmv
[18:58:40] bd: not a bd - trying as a stream/file instead
libdvdnav: Using dvdnav version 5.0.3
libdvdread: Encrypted DVD support unavailable.
libdvdread:DVDOpenFileUDF:UDFFindFile /VIDEO_TS/VIDEO_TS.IFO failed
libdvdread:DVDOpenFileUDF:UDFFindFile /VIDEO_TS/VIDEO_TS.BUP failed
libdvdread: Can't open file VIDEO_TS.IFO.
libdvdnav: vm: failed to read VIDEO_TS.IFO
[18:58:40] dvd: not a dvd - trying as a stream/file instead
Scanning title 1 of 1, 0.00 %Input #0, matroska,webm, from 'Z:\1 Discs\Transformers.mkv':
  Metadata:
    title           : Transformers Disc 1
  Duration: 02:23:27.30, start: 0.000000, bitrate: N/A
    Chapter #0:0: start 0.000000, end 124.707917
    Metadata:
      title           : Chapter 01
    Chapter #0:1: start 124.707917, end 534.534000
    Metadata:
      title           : Chapter 02
    Chapter #0:2: start 534.534000, end 933.641042
    Metadata:
      title           : Chapter 03
    Chapter #0:3: start 933.641042, end 1341.381708
    Metadata:
      title           : Chapter 04
    Chapter #0:4: start 1341.381708, end 1662.661000
    Metadata:
      title           : Chapter 05
    Chapter #0:5: start 1662.661000, end 2005.378375
    Metadata:
      title           : Chapter 06
    Chapter #0:6: start 2005.378375, end 2338.002333
    Metadata:
      title           : Chapter 07
    Chapter #0:7: start 2338.002333, end 2713.919542
    Metadata:
      title           : Chapter 08
    Chapter #0:8: start 2713.919542, end 3106.436667
    Metadata:
      title           : Chapter 09
    Chapter #0:9: start 3106.436667, end 3524.687833
    Metadata:
      title           : Chapter 10
    Chapter #0:10: start 3524.687833, end 4008.421083
    Metadata:
      title           : Chapter 11
    Chapter #0:11: start 4008.421083, end 4313.559250
    Metadata:
      title           : Chapter 12
    Chapter #0:12: start 4313.559250, end 4616.445167
    Metadata:
      title           : Chapter 13
    Chapter #0:13: start 4616.445167, end 5017.345667
    Metadata:
      title           : Chapter 14
    Chapter #0:14: start 5017.345667, end 5344.172167
    Metadata:
      title           : Chapter 15
    Chapter #0:15: start 5344.172167, end 5788.741292
    Metadata:
      title           : Chapter 16
    Chapter #0:16: start 5788.741292, end 6238.106875
    Metadata:
      title           : Chapter 17
    Chapter #0:17: start 6238.106875, end 6585.745833
    Metadata:
      title           : Chapter 18
    Chapter #0:18: start 6585.745833, end 7014.007000
    Metadata:
      title           : Chapter 19
    Chapter #0:19: start 7014.007000, end 7389.882500
    Metadata:
      title           : Chapter 20
    Chapter #0:20: start 7389.882500, end 7843.919417
    Metadata:
      title           : Chapter 21
    Chapter #0:21: start 7843.919417, end 8102.302542
    Metadata:
      title           : Chapter 22
    Chapter #0:22: start 8102.302542, end 8607.307042
    Metadata:
      title           : Chapter 23
    Stream #0:0(eng): Video: h264 (High)
      yuv420p, tv, bt709/bt709/bt709
      1920x1080 [PAR 1:1 DAR 16:9], PAR 1:1 DAR 16:9
      23.98 fps, 1k tbn
    Stream #0:1(eng): Audio: ac3
      48000 Hz, 5.1, fltp, 640 kb/s (default)
    Metadata:
      title           : Surround 5.1
    Stream #0:2(fra): Audio: ac3
      48000 Hz, 5.1, fltp, 640 kb/s
    Metadata:
      title           : Surround 5.1
    Stream #0:3(spa): Audio: ac3
      48000 Hz, 5.1, fltp, 640 kb/s
    Metadata:
      title           : Surround 5.1
    Stream #0:4(eng): Subtitle: hdmv_pgs_subtitle
    Stream #0:5(eng): Subtitle: hdmv_pgs_subtitle
    Stream #0:6(fra): Subtitle: hdmv_pgs_subtitle
    Stream #0:7(spa): Subtitle: hdmv_pgs_subtitle
    Stream #0:8(por): Subtitle: hdmv_pgs_subtitle
    Stream #0:9(fra): Subtitle: hdmv_pgs_subtitle
    Stream #0:10(fra): Subtitle: hdmv_pgs_subtitle
    Stream #0:11(spa): Subtitle: hdmv_pgs_subtitle
    Stream #0:12(spa): Subtitle: hdmv_pgs_subtitle
    Stream #0:13(eng): Subtitle: hdmv_pgs_subtitle
    Stream #0:14(eng): Subtitle: hdmv_pgs_subtitle
[18:58:40] scan: decoding previews for title 1
Scanning title 1 of 1, preview 1, 0.00 %[18:58:40] scan: audio 0x1: ac3, rate=48000Hz, bitrate=640000 English (AC3) (5.1 ch)
[18:58:40] scan: audio 0x2: ac3, rate=48000Hz, bitrate=640000 Francais (AC3) (5.1 ch)
[18:58:40] scan: audio 0x3: ac3, rate=48000Hz, bitrate=640000 español (AC3) (5.1 ch)
Scanning title 1 of 1, preview 10, 100.00 %[18:58:43] scan: 10 previews, 1920x1080, 23.976 fps, autocrop = 144/136/0/0, aspect 16:9, PAR 1:1
[18:58:43] scan: supported video decoders: avcodec qsv
[18:58:43] libhb: scan thread found 1 valid title(s)
+ Using preset: Super HQ 1080p30 Surround
+ title 1:
  + stream: Z:\1 Discs\Transformers.mkv
  + duration: 02:23:27
  + size: 1920x1080, pixel aspect: 1/1, display aspect: 1.78, 23.976 fps
  + autocrop: 144/136/0/0
  + chapters:
    + 1: cells 0->0, 0 blocks, duration 00:02:05
    + 2: cells 0->0, 0 blocks, duration 00:06:50
    + 3: cells 0->0, 0 blocks, duration 00:06:39
    + 4: cells 0->0, 0 blocks, duration 00:06:48
    + 5: cells 0->0, 0 blocks, duration 00:05:21
    + 6: cells 0->0, 0 blocks, duration 00:05:43
    + 7: cells 0->0, 0 blocks, duration 00:05:33
    + 8: cells 0->0, 0 blocks, duration 00:06:16
    + 9: cells 0->0, 0 blocks, duration 00:06:33
    + 10: cells 0->0, 0 blocks, duration 00:06:58
    + 11: cells 0->0, 0 blocks, duration 00:08:04
    + 12: cells 0->0, 0 blocks, duration 00:05:05
    + 13: cells 0->0, 0 blocks, duration 00:05:03
    + 14: cells 0->0, 0 blocks, duration 00:06:41
    + 15: cells 0->0, 0 blocks, duration 00:05:27
    + 16: cells 0->0, 0 blocks, duration 00:07:25
    + 17: cells 0->0, 0 blocks, duration 00:07:29
    + 18: cells 0->0, 0 blocks, duration 00:05:48
    + 19: cells 0->0, 0 blocks, duration 00:07:08
    + 20: cells 0->0, 0 blocks, duration 00:06:16
    + 21: cells 0->0, 0 blocks, duration 00:07:34
    + 22: cells 0->0, 0 blocks, duration 00:04:18
    + 23: cells 0->0, 0 blocks, duration 00:08:25
  + audio tracks:
    + 1, English (AC3) (5.1 ch) (iso639-2: eng), 48000Hz, 640000bps
    + 2, Francais (AC3) (5.1 ch) (iso639-2: fra), 48000Hz, 640000bps
    + 3, espa├▒ol (AC3) (5.1 ch) (iso639-2: spa), 48000Hz, 640000bps
  + subtitle tracks:
    + 1, English [PGS]
    + 2, English [PGS]
    + 3, Francais [PGS]
    + 4, espa├▒ol [PGS]
    + 5, Portugues [PGS]
    + 6, Francais [PGS]
    + 7, Francais [PGS]
    + 8, espa├▒ol [PGS]
    + 9, espa├▒ol [PGS]
    + 10, English [PGS]
    + 11, English [PGS]
ERROR: unable to parse audio input "q=copy", skipping
[18:58:44] 1 job(s) to process
[18:58:44] json job:
{
    "Audio": {
        "AudioList": [],
        "CopyMask": [
            "copy:aac",
            "copy:ac3"
        ],
        "FallbackEncoder": "av_aac"
    },
    "Destination": {
        "AlignAVStart": true,
        "ChapterList": [
            {
                "Name": "Chapter 1"
            },
            {
                "Name": "Chapter 2"
            },
            {
                "Name": "Chapter 3"
            },
            {
                "Name": "Chapter 4"
            },
            {
                "Name": "Chapter 5"
            },
            {
                "Name": "Chapter 6"
            },
            {
                "Name": "Chapter 7"
            },
            {
                "Name": "Chapter 8"
            },
            {
                "Name": "Chapter 9"
            },
            {
                "Name": "Chapter 10"
            },
            {
                "Name": "Chapter 11"
            },
            {
                "Name": "Chapter 12"
            },
            {
                "Name": "Chapter 13"
            },
            {
                "Name": "Chapter 14"
            },
            {
                "Name": "Chapter 15"
            },
            {
                "Name": "Chapter 16"
            },
            {
                "Name": "Chapter 17"
            },
            {
                "Name": "Chapter 18"
            },
            {
                "Name": "Chapter 19"
            },
            {
                "Name": "Chapter 20"
            },
            {
                "Name": "Chapter 21"
            },
            {
                "Name": "Chapter 22"
            },
            {
                "Name": "Chapter 23"
            }
        ],
        "ChapterMarkers": true,
        "File": "Z:\\1 Discs\\Top\\Transformers.mkv",
        "InlineParameterSets": false,
        "Mp4Options": {
            "IpodAtom": false,
            "Mp4Optimize": false
        },
        "Mux": "mkv"
    },
    "Filters": {
        "FilterList": [
            {
                "ID": 3,
                "Settings": {
                    "block-height": "16",
                    "block-thresh": "40",
                    "block-width": "16",
                    "filter-mode": "2",
                    "mode": "3",
                    "motion-thresh": "1",
                    "spatial-metric": "2",
                    "spatial-thresh": "1"
                }
            },
            {
                "ID": 4,
                "Settings": {
                    "mode": "7"
                }
            },
            {
                "ID": 6,
                "Settings": {
                    "mode": 2,
                    "rate": "27000000/900000"
                }
            },
            {
                "ID": 11,
                "Settings": {
                    "crop-bottom": 136,
                    "crop-left": 0,
                    "crop-right": 0,
                    "crop-top": 144,
                    "height": 800,
                    "width": 1920
                }
            },
            {
                "ID": 16,
                "Settings": {
                    "height": "1080",
                    "width": "1920",
                    "y": "2"
                }
            }
        ]
    },
    "Metadata": {
        "Name": "Transformers Disc 1"
    },
    "PAR": {
        "Den": 1,
        "Num": 1
    },
    "SequenceID": 0,
    "Source": {
        "Angle": 0,
        "Path": "Z:\\1 Discs\\Transformers.mkv",
        "Range": {
            "End": 2,
            "Start": 2,
            "Type": "chapter"
        },
        "Title": 1
    },
    "Subtitle": {
        "Search": {
            "Burn": true,
            "Default": false,
            "Enable": false,
            "Forced": false
        },
        "SubtitleList": []
    },
    "Video": {
        "ColorMatrixCode": 0,
        "Encoder": "x264",
        "Level": "4.0",
        "Options": "ref=5:bframes=5",
        "Preset": "veryslow",
        "Profile": "high",
        "QSV": {
            "AsyncDepth": 4,
            "Decode": false
        },
        "Quality": 0.0,
        "Tune": "",
        "Turbo": false,
        "TwoPass": false
    }
}
[18:58:44] starting job
[18:58:44] decomb filter thread started for segment 0
[18:58:44] decomb filter thread started for segment 1
[18:58:44] decomb filter thread started for segment 2
[18:58:44] decomb filter thread started for segment 3
[18:58:44] decomb check thread started for segment 0
[18:58:44] decomb check thread started for segment 1
[18:58:44] decomb check thread started for segment 2
[18:58:44] decomb check thread started for segment 3
[18:58:44] mask filter thread started for segment 0
[18:58:44] mask filter thread started for segment 1
[18:58:44] mask filter thread started for segment 2
[18:58:44] mask filter thread started for segment 3
[18:58:44] mask erode thread started for segment 0
[18:58:44] mask erode thread started for segment 1
[18:58:44] mask erode thread started for segment 2
[18:58:44] mask erode thread started for segment 3
[18:58:44] mask dilate thread started for segment 0
[18:58:44] mask dilate thread started for segment 1
[18:58:44] mask dilate thread started for segment 2
[18:58:44] mask dilate thread started for segment 3
[18:58:44] yadif thread started for segment 0
[18:58:44] yadif thread started for segment 1
[18:58:44] yadif thread started for segment 2
[18:58:44] yadif thread started for segment 3
[18:58:44] work: only 1 chapter, disabling chapter markers
[18:58:44] job configuration:
[18:58:44]  * source
[18:58:44]    + Z:\1 Discs\Transformers.mkv
[18:58:44]    + title 1, chapter(s) 2 to 2
[18:58:44]    + container: matroska,webm
[18:58:44]  * destination
[18:58:44]    + Z:\1 Discs\Top\Transformers.mkv
[18:58:44]    + container: Matroska (libavformat)
[18:58:44]      + align initial A/V stream timestamps
[18:58:44]  * video track
[18:58:44]    + decoder: h264
[18:58:44]    + filters
[18:58:44]      + Comb Detect (mode=3:spatial-metric=2:motion-thresh=1:spatial-thresh=1:filter-mode=2:block-thresh=40:block-width=16:block-height=16)
[18:58:44]      + Decomb (mode=39)
[18:58:44]      + Framerate Shaper (mode=2:rate=27000000/900000)
[18:58:44]        + frame rate: 23.976 fps -> peak rate limited to 30.000 fps
[18:58:44]      + Crop and Scale (width=1920:height=800:crop-top=144:crop-bottom=136:crop-left=0:crop-right=0)
[18:58:44]        + source: 1920 * 1080, crop (144/136/0/0): 1920 * 800, scale: 1920 * 800
[18:58:44]      + avfilter (pad='width=1920:height=1080:x=(out_w-in_w)/2:y=2')
[18:58:44]        + pad: width=1920, height=1080, x=(out_w-in_w)/2, y=2
[18:58:44]    + Output geometry
[18:58:44]      + storage dimensions: 1920 x 1080
[18:58:44]      + pixel aspect ratio: 1 : 1
[18:58:44]      + display dimensions: 1920 x 1080
[18:58:44]    + encoder: H.264 (libx264)
[18:58:44]      + preset:  veryslow
[18:58:44]      + options: ref=5:bframes=5
[18:58:44]      + profile: high
[18:58:44]      + level:   4.0
[18:58:44]      + quality: 0.00 (RF)
Encoding: task 1 of 1, 0.00 %[18:58:44] sync: expecting 9826 video frames
[18:58:44] encx264: min-keyint: 24, keyint: 240
[18:58:44] encx264: encoding at constant RF 0.000000
[18:58:44] apply_h264_profile [warning]: lossless requires high444 profile, disabling
[18:58:44] encx264: unparsed options: ref=4:bframes=5:level=4.0:b-adapt=2:direct=auto:analyse=all:me=umh:merange=24:subme=10:trellis=2:vbv-bufsize=31250:vbv-maxrate=25000:rc-lookahead=60
x264 [info]: using SAR=1/1
x264 [info]: using cpu capabilities: MMX2 SSE2Fast SSSE3 SSE4.1 Cache64
x264 [info]: profile High, level 4.0
[18:58:45] sync: first pts video is 0
E[18:58:45] sync: "Chapter 2" (2) at frame 1 time 0n
Encoding: task 1 of 1, 99.40 % (1.89 fps, avg 1.98 fps, ETA 00h00m30s)[20:21:08] reader: end of chapter 2 (media 2) reached at media chapter 3
[20:21:08] reader: done. 1 scr changes
Encoding: task 1 of 1, 99.80 % (1.90 fps, avg 1.98 fps, ETA 00h00m11s)[20:22:32] work: average encoding speed for job is 1.975680 fps
Encoding: task 1 of 1, 99.80 % (1.90 fps, avg 1.98 fps, ETA 00h00m11s)[20:22:32] comb detect: heavy 361 | light 3017 | uncombed 6449 | total 9827
[20:22:32] decomb: deinterlaced 361 | blended 3017 | unfiltered 6449 | total 9827
[20:22:32] vfr: 9827 frames output, 0 dropped and 0 duped for CFR/PFR
[20:22:32] vfr: lost time: 0 (0 frames)
[20:22:32] vfr: gained time: 0 (0 frames) (0 not accounted for)
[20:22:32] h264-decoder done: 9827 frames, 0 decoder errors
[20:22:32] sync: got 9827 frames, 9826 expected
[20:22:32] sync: framerate min 23.981 fps, max 23.981 fps, avg 23.976 fps
x264 [info]: frame I:86    Avg QP:10.35  size:358214
x264 [info]: frame P:2900  Avg QP:16.96  size:167139
x264 [info]: frame B:6841  Avg QP:18.35  size:111315
2E6n4c o[diinnfgo:] :t aconsecutive B-frames:  6.6%  8.2% 12.1% 35.0% 18.0% 20.1%
sxk2 614  o[fi n1f,o ]9:9 .mb I  I16..4: 22.8% 67.3%  9.9%
8x02 6%4  ([1i.n9f0o ]f:p smb P  I16..4:  2.8% 40.3%  3.0%  P16..4: 12.6%  9.5%  4.3%  0.4%  0.1%    skip:27.0%
,x 2a6v4g  [1i.n9f8o ]f:p smb B  I16..4:  0.6% 12.6%  0.7%  B16..8: 28.7% 13.2%  4.2%  direct: 8.7%  skip:31.2%  L0:39.1% L1:32.0% BI:28.9%
,x 2E6T4A  [0i0nhf0o0]m:1 18x8 transform intra:88.0% inter:67.5%
sx)264 [info]: direct mvs  spatial:100.0% temporal:0.0%
x264 [info]: coded y,uvDC,uvAC intra: 89.9% 91.9% 85.3% inter: 46.0% 43.7% 20.8%
x264 [info]: i16 v,h,dc,p: 59% 24%  5% 12%
x264 [info]: i8 v,h,dc,ddl,ddr,vr,hd,vl,hu:  9% 12% 13%  9% 12% 10% 12% 10% 13%
x264 [info]: i4 v,h,dc,ddl,ddr,vr,hd,vl,hu:  8% 16%  6%  8% 13% 11% 13% 10% 14%
x264 [info]: i8c dc,h,v,p: 51% 20% 14% 15%
x264 [info]: Weighted P-Frames: Y:4.5% UV:3.3%
x264 [info]: ref P L0: 54.0% 14.8% 20.6%  9.6%  1.0%  0.0%
x264 [info]: ref B L0: 88.5%  9.5%  2.0%
x264 [info]: ref B L1: 96.4%  3.6%
x264 [info]: kb/s:24925.42
Muxing: this may take awhile...[20:22:33] mux: track 0, 9827 frames, 1277012143 bytes, 24925.35 kbps, fifo 128
[20:22:33] libhb: work result = 0

Encode done!

HandBrake has exited.
Last edited by Rodeo on Fri Jun 01, 2018 12:55 pm, edited 1 time in total.
Reason: Logs in [code][/code] blocks please

User avatar
BradleyS
Moderator
Posts: 1666
Joined: Thu Aug 09, 2007 12:16 pm

Re: Bizarre request - move letterbox black bars to bottom

Post by BradleyS » Fri Jun 01, 2018 9:52 am

-aq copy is not valid.

Try:

Code: Select all

--audio-lang-list=eng --first-audio --audio-copy-mask=aac,ac3,eac3,truehd,dts,dtshd,mp3,flac --audio-fallback=flac --aencoder copy
This basically says, use the first English audio track, copy any of the types in this list (all types), if you can't copy for some reason then encode to FLAC lossless.

User avatar
BradleyS
Moderator
Posts: 1666
Joined: Thu Aug 09, 2007 12:16 pm

Re: Bizarre request - move letterbox black bars to bottom

Post by BradleyS » Fri Jun 01, 2018 9:53 am

-chapter=2 is not valid; you probably mean --chapters=2

jcwillia1
Posts: 44
Joined: Tue May 15, 2018 2:28 pm

Re: Bizarre request - move letterbox black bars to bottom

Post by jcwillia1 » Fri Jun 01, 2018 3:41 pm

chapter worked fine.

ok re-reading that CLI doc link above I have no idea where I came up with aq copy....

User avatar
BradleyS
Moderator
Posts: 1666
Joined: Thu Aug 09, 2007 12:16 pm

Re: Bizarre request - move letterbox black bars to bottom

Post by BradleyS » Fri Jun 01, 2018 3:46 pm

It really didn't. "chapters: Invalid syntax (hapter:2)"

Also, I see "Failed to load GUI presets file" in the log. Just to clarify, you do have HandBrake 1.1.0, the graphical interface installed?

jcwillia1
Posts: 44
Joined: Tue May 15, 2018 2:28 pm

Re: Bizarre request - move letterbox black bars to bottom

Post by jcwillia1 » Fri Jun 01, 2018 3:55 pm

I installed CLI first, then installed GUI.

This is a different PC than the one I used earlier in the week.

I also saw that but then it went and started anyways...?

Do I need to reboot?

User avatar
BradleyS
Moderator
Posts: 1666
Joined: Thu Aug 09, 2007 12:16 pm

Re: Bizarre request - move letterbox black bars to bottom

Post by BradleyS » Fri Jun 01, 2018 3:59 pm

Ah. `--preset-import-gui` will be ignored if you do not have the GUI installed on the machine and run once, meaning you can't select the Super HQ 1080p30 Surround preset as your starting point.

Launch the HandBrake GUI once and see if that clears up the CLI error.

jcwillia1
Posts: 44
Joined: Tue May 15, 2018 2:28 pm

Re: Bizarre request - move letterbox black bars to bottom

Post by jcwillia1 » Fri Jun 01, 2018 10:25 pm

BradleyS wrote:
Fri Jun 01, 2018 3:46 pm
It really didn't. "chapters: Invalid syntax (hapter:2)"
I forgot i got it wrong multiple times before it finally worked.

this is my current string

HandBrakeCLI -i "Z:\1 Discs\Transformers.mkv" --subtitle=none --preset-import-gui --preset=“Super HQ 1080p30 Surround” --pad="width=1920:height=1080:y=2" -q=16 --audio-lang-list=eng --first-audio --audio-copy-mask=aac,ac3,eac3,truehd,dts,dtshd,mp3,flac --audio-fallback=flac --aencoder copy -c:2 -o "Z:\1 Discs\Top\Transformers.mkv”

also who knew you can use control v in dos windows now? thats awesome...

jcwillia1
Posts: 44
Joined: Tue May 15, 2018 2:28 pm

Re: Bizarre request - move letterbox black bars to bottom

Post by jcwillia1 » Fri Jun 01, 2018 10:28 pm

Microsoft Windows [Version 10.0.17134.81]
(c) 2018 Microsoft Corporation. All rights reserved.

Code: Select all


C:\Users\jcwil\Downloads\HandBrakeCLI>HandBrakeCLI -i "Z:\1 Discs\Transformers.mkv" --subtitle=none --preset-import-gui --preset="Super HQ 1080p30 Surround" --pad="width=1920:height=1080:y=2" -q=16 --audio-lang-list=eng --first-audio --audio-copy-mask=aac,ac3,eac3,truehd,dts,dtshd,mp3,flac --audio-fallback=flac --aencoder copy -c 2 -o "Z:\1 Discs\Top\Transformers.mkv"
[17:28:15] hb_init: starting libhb thread
[17:28:15] thread 338ede0 started ("libhb")
HandBrake 1.1.0 (2018040700) - MinGW x86_64 - https://handbrake.fr
4 CPUs detected
Opening Z:\1 Discs\Transformers.mkv...
[17:28:15] CPU: Intel(R) Core(TM)2 Quad CPU    Q8400  @ 2.66GHz
[17:28:15]  - logical processor count: 4
[17:28:15] Intel Quick Sync Video support: no
[17:28:15] hb_scan: path=Z:\1 Discs\Transformers.mkv, title_index=1
udfread ERROR: ECMA 167 Volume Recognition failed
src/libbluray/disc/disc.c:323: failed opening UDF image Z:\1 Discs\Transformers.mkv
src/libbluray/disc/disc.c:424: error opening file BDMV\index.bdmv
src/libbluray/disc/disc.c:424: error opening file BDMV\BACKUP\index.bdmv
[17:28:15] bd: not a bd - trying as a stream/file instead
libdvdnav: Using dvdnav version 5.0.3
libdvdread: Encrypted DVD support unavailable.
libdvdread:DVDOpenFileUDF:UDFFindFile /VIDEO_TS/VIDEO_TS.IFO failed
libdvdread:DVDOpenFileUDF:UDFFindFile /VIDEO_TS/VIDEO_TS.BUP failed
libdvdread: Can't open file VIDEO_TS.IFO.
libdvdnav: vm: failed to read VIDEO_TS.IFO
[17:28:16] dvd: not a dvd - trying as a stream/file instead
Scanning title 1 of 1, 0.00 %Input #0, matroska,webm, from 'Z:\1 Discs\Transformers.mkv':
  Metadata:
    title           : Transformers Disc 1
  Duration: 02:23:27.30, start: 0.000000, bitrate: N/A
    Chapter #0:0: start 0.000000, end 124.707917
    Metadata:
      title           : Chapter 01
    Chapter #0:1: start 124.707917, end 534.534000
    Metadata:
      title           : Chapter 02
    Chapter #0:2: start 534.534000, end 933.641042
    Metadata:
      title           : Chapter 03
    Chapter #0:3: start 933.641042, end 1341.381708
    Metadata:
      title           : Chapter 04
    Chapter #0:4: start 1341.381708, end 1662.661000
    Metadata:
      title           : Chapter 05
    Chapter #0:5: start 1662.661000, end 2005.378375
    Metadata:
      title           : Chapter 06
    Chapter #0:6: start 2005.378375, end 2338.002333
    Metadata:
      title           : Chapter 07
    Chapter #0:7: start 2338.002333, end 2713.919542
    Metadata:
      title           : Chapter 08
    Chapter #0:8: start 2713.919542, end 3106.436667
    Metadata:
      title           : Chapter 09
    Chapter #0:9: start 3106.436667, end 3524.687833
    Metadata:
      title           : Chapter 10
    Chapter #0:10: start 3524.687833, end 4008.421083
    Metadata:
      title           : Chapter 11
    Chapter #0:11: start 4008.421083, end 4313.559250
    Metadata:
      title           : Chapter 12
    Chapter #0:12: start 4313.559250, end 4616.445167
    Metadata:
      title           : Chapter 13
    Chapter #0:13: start 4616.445167, end 5017.345667
    Metadata:
      title           : Chapter 14
    Chapter #0:14: start 5017.345667, end 5344.172167
    Metadata:
      title           : Chapter 15
    Chapter #0:15: start 5344.172167, end 5788.741292
    Metadata:
      title           : Chapter 16
    Chapter #0:16: start 5788.741292, end 6238.106875
    Metadata:
      title           : Chapter 17
    Chapter #0:17: start 6238.106875, end 6585.745833
    Metadata:
      title           : Chapter 18
    Chapter #0:18: start 6585.745833, end 7014.007000
    Metadata:
      title           : Chapter 19
    Chapter #0:19: start 7014.007000, end 7389.882500
    Metadata:
      title           : Chapter 20
    Chapter #0:20: start 7389.882500, end 7843.919417
    Metadata:
      title           : Chapter 21
    Chapter #0:21: start 7843.919417, end 8102.302542
    Metadata:
      title           : Chapter 22
    Chapter #0:22: start 8102.302542, end 8607.307042
    Metadata:
      title           : Chapter 23
    Stream #0:0(eng): Video: h264 (High)
      yuv420p, tv, bt709/bt709/bt709
      1920x1080 [PAR 1:1 DAR 16:9], PAR 1:1 DAR 16:9
      23.98 fps, 1k tbn
    Stream #0:1(eng): Audio: ac3
      48000 Hz, 5.1, fltp, 640 kb/s (default)
    Metadata:
      title           : Surround 5.1
    Stream #0:2(fra): Audio: ac3
      48000 Hz, 5.1, fltp, 640 kb/s
    Metadata:
      title           : Surround 5.1
    Stream #0:3(spa): Audio: ac3
      48000 Hz, 5.1, fltp, 640 kb/s
    Metadata:
      title           : Surround 5.1
    Stream #0:4(eng): Subtitle: hdmv_pgs_subtitle
    Stream #0:5(eng): Subtitle: hdmv_pgs_subtitle
    Stream #0:6(fra): Subtitle: hdmv_pgs_subtitle
    Stream #0:7(spa): Subtitle: hdmv_pgs_subtitle
    Stream #0:8(por): Subtitle: hdmv_pgs_subtitle
    Stream #0:9(fra): Subtitle: hdmv_pgs_subtitle
    Stream #0:10(fra): Subtitle: hdmv_pgs_subtitle
    Stream #0:11(spa): Subtitle: hdmv_pgs_subtitle
    Stream #0:12(spa): Subtitle: hdmv_pgs_subtitle
    Stream #0:13(eng): Subtitle: hdmv_pgs_subtitle
    Stream #0:14(eng): Subtitle: hdmv_pgs_subtitle
[17:28:16] scan: decoding previews for title 1
Scanning title 1 of 1, preview 1, 0.00 %[17:28:16] scan: audio 0x1: ac3, rate=48000Hz, bitrate=640000 English (AC3) (5.1 ch)
[17:28:16] scan: audio 0x2: ac3, rate=48000Hz, bitrate=640000 Francais (AC3) (5.1 ch)
[17:28:16] scan: audio 0x3: ac3, rate=48000Hz, bitrate=640000 español (AC3) (5.1 ch)
Scanning title 1 of 1, preview 10, 100.00 %[17:28:19] scan: 10 previews, 1920x1080, 23.976 fps, autocrop = 144/136/0/0, aspect 16:9, PAR 1:1
[17:28:19] scan: supported video decoders: avcodec qsv
Scanning title 1 of 1, preview 10, 100.00 %[17:28:19] libhb: scan thread found 1 valid title(s)
+ Using preset: Super HQ 1080p30 Surround
+ title 1:
  + stream: Z:\1 Discs\Transformers.mkv
  + duration: 02:23:27
  + size: 1920x1080, pixel aspect: 1/1, display aspect: 1.78, 23.976 fps
  + autocrop: 144/136/0/0
  + chapters:
    + 1: cells 0->0, 0 blocks, duration 00:02:05
    + 2: cells 0->0, 0 blocks, duration 00:06:50
    + 3: cells 0->0, 0 blocks, duration 00:06:39
    + 4: cells 0->0, 0 blocks, duration 00:06:48
    + 5: cells 0->0, 0 blocks, duration 00:05:21
    + 6: cells 0->0, 0 blocks, duration 00:05:43
    + 7: cells 0->0, 0 blocks, duration 00:05:33
    + 8: cells 0->0, 0 blocks, duration 00:06:16
    + 9: cells 0->0, 0 blocks, duration 00:06:33
    + 10: cells 0->0, 0 blocks, duration 00:06:58
    + 11: cells 0->0, 0 blocks, duration 00:08:04
    + 12: cells 0->0, 0 blocks, duration 00:05:05
    + 13: cells 0->0, 0 blocks, duration 00:05:03
    + 14: cells 0->0, 0 blocks, duration 00:06:41
    + 15: cells 0->0, 0 blocks, duration 00:05:27
    + 16: cells 0->0, 0 blocks, duration 00:07:25
    + 17: cells 0->0, 0 blocks, duration 00:07:29
    + 18: cells 0->0, 0 blocks, duration 00:05:48
    + 19: cells 0->0, 0 blocks, duration 00:07:08
    + 20: cells 0->0, 0 blocks, duration 00:06:16
    + 21: cells 0->0, 0 blocks, duration 00:07:34
    + 22: cells 0->0, 0 blocks, duration 00:04:18
    + 23: cells 0->0, 0 blocks, duration 00:08:25
  + audio tracks:
    + 1, English (AC3) (5.1 ch) (iso639-2: eng), 48000Hz, 640000bps
    + 2, Francais (AC3) (5.1 ch) (iso639-2: fra), 48000Hz, 640000bps
    + 3, espa├▒ol (AC3) (5.1 ch) (iso639-2: spa), 48000Hz, 640000bps
  + subtitle tracks:
    + 1, English [PGS]
    + 2, English [PGS]
    + 3, Francais [PGS]
    + 4, espa├▒ol [PGS]
    + 5, Portugues [PGS]
    + 6, Francais [PGS]
    + 7, Francais [PGS]
    + 8, espa├▒ol [PGS]
    + 9, espa├▒ol [PGS]
    + 10, English [PGS]
    + 11, English [PGS]
ERROR: Invalid fallback audio codec (flac)
Failed to initialize job

HandBrake has exited.
C:\Users\jcwil\Downloads\HandBrakeCLI>
Last edited by jcwillia1 on Fri Jun 01, 2018 10:31 pm, edited 1 time in total.

jcwillia1
Posts: 44
Joined: Tue May 15, 2018 2:28 pm

Re: Bizarre request - move letterbox black bars to bottom

Post by jcwillia1 » Fri Jun 01, 2018 10:30 pm

deleted the fallback audio and it is working

User avatar
Rodeo
HandBrake Team
Posts: 12234
Joined: Tue Mar 03, 2009 8:55 pm

Re: Bizarre request - move letterbox black bars to bottom

Post by Rodeo » Fri Jun 01, 2018 10:50 pm

FLAC encoder should be either of flac16 or flac24 (probably the latter). In theory flac should be sanitized to flac16 somewhere, but clearly it's not happening.

jcwillia1
Posts: 44
Joined: Tue May 15, 2018 2:28 pm

Re: Bizarre request - move letterbox black bars to bottom

Post by jcwillia1 » Sat Jun 02, 2018 12:59 am

subtitles are back for some reason

Code: Select all

HandBrakeCLI -i "Z:\1 Discs\Transformers.mkv"  --subtitle=none --preset-import-gui --preset=“Super HQ 1080p30 Surround” --pad="width=1920:height=1080:y=2" -q=16 --audio-lang-list=eng --first-audio --audio-copy-mask=aac,ac3,eac3,truehd,dts,dtshd,mp3,flac --aencoder copy -c 2 -o "Z:\1 Discs\Top\Transformers.mkv”

Code: Select all

C:\Users\jcwil\Downloads\HandBrakeCLI>HandBrakeCLI -i "Z:\1 Discs\Transformers.mkv" --subtitle=none --preset-import-gui --preset="Super HQ 1080p30 Surround" --pad="width=1920:height=1080:y=2" -q=16 --audio-lang-list=eng --first-audio --audio-copy-mask=aac,ac3,eac3,truehd,dts,dtshd,mp3,flac --aencoder copy -c 2 -o "Z:\1 Discs\Top\Transformers.mkv"
[17:29:22] hb_init: starting libhb thread
[17:29:22] thread 536b890 started ("libhb")
HandBrake 1.1.0 (2018040700) - MinGW x86_64 - https://handbrake.fr
4 CPUs detected
Opening Z:\1 Discs\Transformers.mkv...
[17:29:22] CPU: Intel(R) Core(TM)2 Quad CPU    Q8400  @ 2.66GHz
[17:29:22]  - logical processor count: 4
[17:29:22] Intel Quick Sync Video support: no
[17:29:22] hb_scan: path=Z:\1 Discs\Transformers.mkv, title_index=1
udfread ERROR: ECMA 167 Volume Recognition failed
src/libbluray/disc/disc.c:323: failed opening UDF image Z:\1 Discs\Transformers.mkv
src/libbluray/disc/disc.c:424: error opening file BDMV\index.bdmv
src/libbluray/disc/disc.c:424: error opening file BDMV\BACKUP\index.bdmv
[17:29:22] bd: not a bd - trying as a stream/file instead
libdvdnav: Using dvdnav version 5.0.3
libdvdread: Encrypted DVD support unavailable.
libdvdread:DVDOpenFileUDF:UDFFindFile /VIDEO_TS/VIDEO_TS.IFO failed
libdvdread:DVDOpenFileUDF:UDFFindFile /VIDEO_TS/VIDEO_TS.BUP failed
libdvdread: Can't open file VIDEO_TS.IFO.
libdvdnav: vm: failed to read VIDEO_TS.IFO
[17:29:22] dvd: not a dvd - trying as a stream/file instead
Scanning title 1 of 1, 0.00 %Input #0, matroska,webm, from 'Z:\1 Discs\Transformers.mkv':
  Metadata:
    title           : Transformers Disc 1
  Duration: 02:23:27.30, start: 0.000000, bitrate: N/A
    Chapter #0:0: start 0.000000, end 124.707917
    Metadata:
      title           : Chapter 01
    Chapter #0:1: start 124.707917, end 534.534000
    Metadata:
      title           : Chapter 02
    Chapter #0:2: start 534.534000, end 933.641042
    Metadata:
      title           : Chapter 03
    Chapter #0:3: start 933.641042, end 1341.381708
    Metadata:
      title           : Chapter 04
    Chapter #0:4: start 1341.381708, end 1662.661000
    Metadata:
      title           : Chapter 05
    Chapter #0:5: start 1662.661000, end 2005.378375
    Metadata:
      title           : Chapter 06
    Chapter #0:6: start 2005.378375, end 2338.002333
    Metadata:
      title           : Chapter 07
    Chapter #0:7: start 2338.002333, end 2713.919542
    Metadata:
      title           : Chapter 08
    Chapter #0:8: start 2713.919542, end 3106.436667
    Metadata:
      title           : Chapter 09
    Chapter #0:9: start 3106.436667, end 3524.687833
    Metadata:
      title           : Chapter 10
    Chapter #0:10: start 3524.687833, end 4008.421083
    Metadata:
      title           : Chapter 11
    Chapter #0:11: start 4008.421083, end 4313.559250
    Metadata:
      title           : Chapter 12
    Chapter #0:12: start 4313.559250, end 4616.445167
    Metadata:
      title           : Chapter 13
    Chapter #0:13: start 4616.445167, end 5017.345667
    Metadata:
      title           : Chapter 14
    Chapter #0:14: start 5017.345667, end 5344.172167
    Metadata:
      title           : Chapter 15
    Chapter #0:15: start 5344.172167, end 5788.741292
    Metadata:
      title           : Chapter 16
    Chapter #0:16: start 5788.741292, end 6238.106875
    Metadata:
      title           : Chapter 17
    Chapter #0:17: start 6238.106875, end 6585.745833
    Metadata:
      title           : Chapter 18
    Chapter #0:18: start 6585.745833, end 7014.007000
    Metadata:
      title           : Chapter 19
    Chapter #0:19: start 7014.007000, end 7389.882500
    Metadata:
      title           : Chapter 20
    Chapter #0:20: start 7389.882500, end 7843.919417
    Metadata:
      title           : Chapter 21
    Chapter #0:21: start 7843.919417, end 8102.302542
    Metadata:
      title           : Chapter 22
    Chapter #0:22: start 8102.302542, end 8607.307042
    Metadata:
      title           : Chapter 23
    Stream #0:0(eng): Video: h264 (High)
      yuv420p, tv, bt709/bt709/bt709
      1920x1080 [PAR 1:1 DAR 16:9], PAR 1:1 DAR 16:9
      23.98 fps, 1k tbn
    Stream #0:1(eng): Audio: ac3
      48000 Hz, 5.1, fltp, 640 kb/s (default)
    Metadata:
      title           : Surround 5.1
    Stream #0:2(fra): Audio: ac3
      48000 Hz, 5.1, fltp, 640 kb/s
    Metadata:
      title           : Surround 5.1
    Stream #0:3(spa): Audio: ac3
      48000 Hz, 5.1, fltp, 640 kb/s
    Metadata:
      title           : Surround 5.1
    Stream #0:4(eng): Subtitle: hdmv_pgs_subtitle
    Stream #0:5(eng): Subtitle: hdmv_pgs_subtitle
    Stream #0:6(fra): Subtitle: hdmv_pgs_subtitle
    Stream #0:7(spa): Subtitle: hdmv_pgs_subtitle
    Stream #0:8(por): Subtitle: hdmv_pgs_subtitle
    Stream #0:9(fra): Subtitle: hdmv_pgs_subtitle
    Stream #0:10(fra): Subtitle: hdmv_pgs_subtitle
    Stream #0:11(spa): Subtitle: hdmv_pgs_subtitle
    Stream #0:12(spa): Subtitle: hdmv_pgs_subtitle
    Stream #0:13(eng): Subtitle: hdmv_pgs_subtitle
    Stream #0:14(eng): Subtitle: hdmv_pgs_subtitle
[17:29:23] scan: decoding previews for title 1
Scanning title 1 of 1, preview 1, 10.00 %[17:29:23] scan: audio 0x1: ac3, rate=48000Hz, bitrate=640000 English (AC3) (5.1 ch)
[17:29:23] scan: audio 0x2: ac3, rate=48000Hz, bitrate=640000 Francais (AC3) (5.1 ch)
[17:29:23] scan: audio 0x3: ac3, rate=48000Hz, bitrate=640000 español (AC3) (5.1 ch)
Scanning title 1 of 1, preview 10, 100.00 %[17:29:25] scan: 10 previews, 1920x1080, 23.976 fps, autocrop = 144/136/0/0, aspect 16:9, PAR 1:1
[17:29:25] scan: supported video decoders: avcodec qsv
[17:29:25] libhb: scan thread found 1 valid title(s)
+ Using preset: Super HQ 1080p30 Surround
+ title 1:
  + stream: Z:\1 Discs\Transformers.mkv
  + duration: 02:23:27
  + size: 1920x1080, pixel aspect: 1/1, display aspect: 1.78, 23.976 fps
  + autocrop: 144/136/0/0
  + chapters:
    + 1: cells 0->0, 0 blocks, duration 00:02:05
    + 2: cells 0->0, 0 blocks, duration 00:06:50
    + 3: cells 0->0, 0 blocks, duration 00:06:39
    + 4: cells 0->0, 0 blocks, duration 00:06:48
    + 5: cells 0->0, 0 blocks, duration 00:05:21
    + 6: cells 0->0, 0 blocks, duration 00:05:43
    + 7: cells 0->0, 0 blocks, duration 00:05:33
    + 8: cells 0->0, 0 blocks, duration 00:06:16
    + 9: cells 0->0, 0 blocks, duration 00:06:33
    + 10: cells 0->0, 0 blocks, duration 00:06:58
    + 11: cells 0->0, 0 blocks, duration 00:08:04
    + 12: cells 0->0, 0 blocks, duration 00:05:05
    + 13: cells 0->0, 0 blocks, duration 00:05:03
    + 14: cells 0->0, 0 blocks, duration 00:06:41
    + 15: cells 0->0, 0 blocks, duration 00:05:27
    + 16: cells 0->0, 0 blocks, duration 00:07:25
    + 17: cells 0->0, 0 blocks, duration 00:07:29
    + 18: cells 0->0, 0 blocks, duration 00:05:48
    + 19: cells 0->0, 0 blocks, duration 00:07:08
    + 20: cells 0->0, 0 blocks, duration 00:06:16
    + 21: cells 0->0, 0 blocks, duration 00:07:34
    + 22: cells 0->0, 0 blocks, duration 00:04:18
    + 23: cells 0->0, 0 blocks, duration 00:08:25
  + audio tracks:
    + 1, English (AC3) (5.1 ch) (iso639-2: eng), 48000Hz, 640000bps
    + 2, Francais (AC3) (5.1 ch) (iso639-2: fra), 48000Hz, 640000bps
    + 3, espa├▒ol (AC3) (5.1 ch) (iso639-2: spa), 48000Hz, 640000bps
  + subtitle tracks:
    + 1, English [PGS]
    + 2, English [PGS]
    + 3, Francais [PGS]
    + 4, espa├▒ol [PGS]
    + 5, Portugues [PGS]
    + 6, Francais [PGS]
    + 7, Francais [PGS]
    + 8, espa├▒ol [PGS]
    + 9, espa├▒ol [PGS]
    + 10, English [PGS]
    + 11, English [PGS]
[17:29:26] 1 job(s) to process
[17:29:26] json job:
{
    "Audio": {
        "AudioList": [
            {
                "Bitrate": 0,
                "DRC": 0.0,
                "Encoder": "copy:ac3",
                "Mixdown": "none",
                "PresetEncoder": "copy",
                "Quality": -3.0,
                "Samplerate": 0,
                "Track": 0
            },
            {
                "Bitrate": 0,
                "DRC": 0.0,
                "Encoder": "copy:ac3",
                "Mixdown": "none",
                "PresetEncoder": "copy:ac3",
                "Quality": -3.0,
                "Samplerate": 0,
                "Track": 0
            }
        ],
        "CopyMask": [
            "copy:aac",
            "copy:ac3",
            "copy:eac3",
            "copy:truehd",
            "copy:dts",
            "copy:dtshd",
            "copy:mp3",
            "copy:flac"
        ],
        "FallbackEncoder": "av_aac"
    },
    "Destination": {
        "AlignAVStart": true,
        "ChapterList": [
            {
                "Name": "Chapter 1"
            },
            {
                "Name": "Chapter 2"
            },
            {
                "Name": "Chapter 3"
            },
            {
                "Name": "Chapter 4"
            },
            {
                "Name": "Chapter 5"
            },
            {
                "Name": "Chapter 6"
            },
            {
                "Name": "Chapter 7"
            },
            {
                "Name": "Chapter 8"
            },
            {
                "Name": "Chapter 9"
            },
            {
                "Name": "Chapter 10"
            },
            {
                "Name": "Chapter 11"
            },
            {
                "Name": "Chapter 12"
            },
            {
                "Name": "Chapter 13"
            },
            {
                "Name": "Chapter 14"
            },
            {
                "Name": "Chapter 15"
            },
            {
                "Name": "Chapter 16"
            },
            {
                "Name": "Chapter 17"
            },
            {
                "Name": "Chapter 18"
            },
            {
                "Name": "Chapter 19"
            },
            {
                "Name": "Chapter 20"
            },
            {
                "Name": "Chapter 21"
            },
            {
                "Name": "Chapter 22"
            },
            {
                "Name": "Chapter 23"
            }
        ],
        "ChapterMarkers": true,
        "File": "Z:\\1 Discs\\Top\\Transformers.mkv",
        "InlineParameterSets": false,
        "Mp4Options": {
            "IpodAtom": false,
            "Mp4Optimize": false
        },
        "Mux": "mkv"
    },
    "Filters": {
        "FilterList": [
            {
                "ID": 3,
                "Settings": {
                    "block-height": "16",
                    "block-thresh": "40",
                    "block-width": "16",
                    "filter-mode": "2",
                    "mode": "3",
                    "motion-thresh": "1",
                    "spatial-metric": "2",
                    "spatial-thresh": "1"
                }
            },
            {
                "ID": 4,
                "Settings": {
                    "mode": "7"
                }
            },
            {
                "ID": 6,
                "Settings": {
                    "mode": 2,
                    "rate": "27000000/900000"
                }
            },
            {
                "ID": 11,
                "Settings": {
                    "crop-bottom": 136,
                    "crop-left": 0,
                    "crop-right": 0,
                    "crop-top": 144,
                    "height": 800,
                    "width": 1920
                }
            },
            {
                "ID": 16,
                "Settings": {
                    "height": "1080",
                    "width": "1920",
                    "y": "2"
                }
            }
        ]
    },
    "Metadata": {
        "Name": "Transformers Disc 1"
    },
    "PAR": {
        "Den": 1,
        "Num": 1
    },
    "SequenceID": 0,
    "Source": {
        "Angle": 0,
        "Path": "Z:\\1 Discs\\Transformers.mkv",
        "Range": {
            "End": 2,
            "Start": 2,
            "Type": "chapter"
        },
        "Title": 1
    },
    "Subtitle": {
        "Search": {
            "Burn": true,
            "Default": false,
            "Enable": true,
            "Forced": true
        },
        "SubtitleList": []
    },
    "Video": {
        "ColorMatrixCode": 0,
        "Encoder": "x264",
        "Level": "4.0",
        "Options": "ref=5:bframes=5",
        "Preset": "veryslow",
        "Profile": "high",
        "QSV": {
            "AsyncDepth": 4,
            "Decode": false
        },
        "Quality": 0.0,
        "Tune": "",
        "Turbo": false,
        "TwoPass": false
    }
}
[17:29:26] starting job
[17:29:26] decomb filter thread started for segment 0
[17:29:26] decomb filter thread started for segment 1
[17:29:26] decomb check thread started for segment 0
[17:29:26] decomb filter thread started for segment 3
[17:29:26] decomb filter thread started for segment 2
[17:29:26] decomb check thread started for segment 1
[17:29:26] decomb check thread started for segment 2
[17:29:26] decomb check thread started for segment 3
[17:29:26] mask filter thread started for segment 0
[17:29:26] mask filter thread started for segment 1
[17:29:26] mask filter thread started for segment 2
[17:29:26] mask filter thread started for segment 3
[17:29:26] mask erode thread started for segment 0
[17:29:26] mask erode thread started for segment 1
[17:29:26] mask erode thread started for segment 2
[17:29:26] mask erode thread started for segment 3
[17:29:26] mask dilate thread started for segment 0
[17:29:26] mask dilate thread started for segment 1
[17:29:26] mask dilate thread started for segment 2
[17:29:26] mask dilate thread started for segment 3
[17:29:26] yadif thread started for segment 0
[17:29:26] yadif thread started for segment 1
[17:29:26] yadif thread started for segment 2
[17:29:26] yadif thread started for segment 3
[17:29:26] work: only 1 chapter, disabling chapter markers
[17:29:26] job configuration:
[17:29:26]  * source
[17:29:26]    + Z:\1 Discs\Transformers.mkv
[17:29:26]    + title 1, chapter(s) 2 to 2
[17:29:26]    + container: matroska,webm
[17:29:26]  * destination
[17:29:26]    + Z:\1 Discs\Top\Transformers.mkv
[17:29:26]    + container: Matroska (libavformat)
[17:29:26]      + align initial A/V stream timestamps
[17:29:26]  * video track
[17:29:26]    + decoder: h264
[17:29:26]    + filters
[17:29:26]      + Comb Detect (mode=3:spatial-metric=2:motion-thresh=1:spatial-thresh=1:filter-mode=2:block-thresh=40:block-width=16:block-height=16)
[17:29:26]      + Decomb (mode=39)
[17:29:26]      + Framerate Shaper (mode=2:rate=27000000/900000)
[17:29:26]        + frame rate: 23.976 fps -> peak rate limited to 30.000 fps
[17:29:26]      + Crop and Scale (width=1920:height=800:crop-top=144:crop-bottom=136:crop-left=0:crop-right=0)
[17:29:26]        + source: 1920 * 1080, crop (144/136/0/0): 1920 * 800, scale: 1920 * 800
[17:29:26]      + avfilter (pad='width=1920:height=1080:x=(out_w-in_w)/2:y=2')
[17:29:26]        + pad: width=1920, height=1080, x=(out_w-in_w)/2, y=2
[17:29:26]    + Output geometry
[17:29:26]      + storage dimensions: 1920 x 1080
[17:29:26]      + pixel aspect ratio: 1 : 1
[17:29:26]      + display dimensions: 1920 x 1080
[17:29:26]  * Foreign Audio Search: Render/Burn-in, Forced Only
[17:29:26]    + subtitle, English [PGS] (track 0, id 0x4, Picture)
[17:29:26]    + subtitle, English [PGS] (track 1, id 0x5, Picture)
[17:29:26]    + subtitle, English [PGS] (track 9, id 0xd, Picture)
[17:29:26]    + subtitle, English [PGS] (track 10, id 0xe, Picture)
Encoding: task 1 of 2, 0.00 %[17:29:26] sync: expecting 9826 video frames
Encoding: task 1 of 2, 99.55 % (0.00 fps, avg 0.00 fps, ETA 00h00m00s)[17:29:49] reader: end of chapter 2 (media 2) reached at media chapter 3
[17:29:49] reader: done. 1 scr changes
Encoding: task 1 of 2, 100.00 % (0.00 fps, avg 0.00 fps, ETA 00h00m00s)[17:29:49] work: average encoding speed for job is 0.000000 fps
[17:29:49] comb detect: heavy 0 | light 0 | uncombed 0 | total 0
[17:29:49] decomb: deinterlaced 0 | blended 0 | unfiltered 0 | total 0
[17:29:49] vfr: 0 frames output, 0 dropped and 0 duped for CFR/PFR
[17:29:49] vfr: lost time: 0 (0 frames)
[17:29:49] vfr: gained time: 0 (0 frames) (0 not accounted for)
[17:29:49] h264-decoder done: 0 frames, 0 decoder errors
[17:29:49] sync: got 0 frames, 9826 expected
[17:29:49] Subtitle track 0 (id 0x4) 'English [PGS]': 77 hits (0 forced)
[17:29:49] Subtitle track 1 (id 0x5) 'English [PGS]': 86 hits (0 forced)
[17:29:49] Subtitle track 9 (id 0xd) 'English [PGS]': 297 hits (285 forced)
[17:29:49] Subtitle track 10 (id 0xe) 'English [PGS]': 50 hits (50 forced)
[17:29:49] Found a subtitle candidate with id 0xe (contains forced subs)
[17:29:49] starting job
[17:29:49] decomb filter thread started for segment 0
[17:29:49] decomb filter thread started for segment 1
[17:29:49] decomb filter thread started for segment 2
[17:29:49] decomb filter thread started for segment 3
[17:29:49] decomb check thread started for segment 0
[17:29:49] decomb check thread started for segment 1
[17:29:49] decomb check thread started for segment 3
[17:29:49] mask filter thread started for segment 0
[17:29:49] mask filter thread started for segment 1
[17:29:49] mask filter thread started for segment 3
[17:29:49] mask filter thread started for segment 2
[17:29:49] mask erode thread started for segment 0
[17:29:49] mask erode thread started for segment 1
[17:29:49] mask erode thread started for segment 2
[17:29:49] mask erode thread started for segment 3
[17:29:49] mask dilate thread started for segment 0
[17:29:49] mask dilate thread started for segment 1
[17:29:49] mask dilate thread started for segment 2
[17:29:49] mask dilate thread started for segment 3
[17:29:49] yadif thread started for segment 0
[17:29:49] yadif thread started for segment 1
[17:29:49] yadif thread started for segment 2
[17:29:49] yadif thread started for segment 3
[17:29:49] decomb check thread started for segment 2
[17:29:49] work: only 1 chapter, disabling chapter markers
[17:29:49] job configuration:
[17:29:49]  * source
[17:29:49]    + Z:\1 Discs\Transformers.mkv
[17:29:49]    + title 1, chapter(s) 2 to 2
[17:29:49]    + container: matroska,webm
[17:29:49]  * destination
[17:29:49]    + Z:\1 Discs\Top\Transformers.mkv
[17:29:49]    + container: Matroska (libavformat)
[17:29:49]      + align initial A/V stream timestamps
[17:29:49]  * video track
[17:29:49]    + decoder: h264
[17:29:49]    + filters
[17:29:49]      + Comb Detect (mode=3:spatial-metric=2:motion-thresh=1:spatial-thresh=1:filter-mode=2:block-thresh=40:block-width=16:block-height=16)
[17:29:49]      + Decomb (mode=39)
[17:29:49]      + Framerate Shaper (mode=2:rate=27000000/900000)
[17:29:49]        + frame rate: 23.976 fps -> peak rate limited to 30.000 fps
[17:29:49]      + Subtitle renderer ()
[17:29:49]      + Crop and Scale (width=1920:height=800:crop-top=144:crop-bottom=136:crop-left=0:crop-right=0)
[17:29:49]        + source: 1920 * 1080, crop (144/136/0/0): 1920 * 800, scale: 1920 * 800
[17:29:49]      + avfilter (pad='width=1920:height=1080:x=(out_w-in_w)/2:y=2')
[17:29:49]        + pad: width=1920, height=1080, x=(out_w-in_w)/2, y=2
[17:29:49]    + Output geometry
[17:29:49]      + storage dimensions: 1920 x 1080
[17:29:49]      + pixel aspect ratio: 1 : 1
[17:29:49]      + display dimensions: 1920 x 1080
[17:29:49]    + encoder: H.264 (libx264)
[17:29:49]      + preset:  veryslow
[17:29:49]      + options: ref=5:bframes=5
[17:29:49]      + profile: high
[17:29:49]      + level:   4.0
[17:29:49]      + quality: 0.00 (RF)
[17:29:49]  * subtitle track 1, English [PGS] (track 10, id 0xe, Picture) -> Render/Burn-in, Forced Only
[17:29:49]  * audio track 1
[17:29:49]    + decoder: English (AC3) (5.1 ch) (track 1, id 0x1)
[17:29:49]      + bitrate: 640 kbps, samplerate: 48000 Hz
[17:29:49]    + AC3 Passthru
[17:29:49]  * audio track 2
[17:29:49]    + decoder: English (AC3) (5.1 ch) (track 1, id 0x1)
[17:29:49]      + bitrate: 640 kbps, samplerate: 48000 Hz
[17:29:49]    + AC3 Passthru
Encoding: task 2 of 2, 0.00 %[17:29:50] sync: expecting 9826 video frames
[17:29:50] encx264: min-keyint: 24, keyint: 240
[17:29:50] encx264: encoding at constant RF 0.000000
[17:29:50] apply_h264_profile [warning]: lossless requires high444 profile, disabling
[17:29:50] encx264: unparsed options: ref=4:bframes=5:level=4.0:b-adapt=2:direct=auto:analyse=all:me=umh:merange=24:subme=10:trellis=2:vbv-bufsize=31250:vbv-maxrate=25000:rc-lookahead=60
x264 [info]: using SAR=1/1
x264 [info]: using cpu capabilities: MMX2 SSE2Fast SSSE3 SSE4.1 Cache64
Encoding: task 2 of 2, 0.00 %x264 [info]: profile High, level 4.0
Encoding: task 2 of 2, 0.00 %[17:29:50] sync: first pts video is 0
[17:29:50] sync: "Chapter 2" (2) at frame 1 time 0
[17:29:50] sync: first pts audio 0x1 is 2520
[17:29:50] sync: first pts audio 0x1 is 2520
Encoding: task 2 of 2, 0.05 %[17:29:51] sync: first pts subtitle 0xe is 127620
Encoding: task 2 of 2, 99.19 % (2.13 fps, avg 2.28 fps, ETA 00h00m35s)[18:41:01] reader: end of chapter 2 (media 2) reached at media chapter 3
Encoding: task 2 of 2, 99.21 % (2.37 fps, avg 2.28 fps, ETA 00h00m34s)[18:41:02] reader: done. 1 scr changes
En[18:42:31] work: average encoding speed for job is 2.281139 fpsm17s)
coding: task 2 of 2, 99.59 % (1.93 fps, avg 2.28 fps, ETA 00h00m17s)[18:42:31] comb detect: heavy 361 | light 3017 | uncombed 6449 | total 9827
[18:42:31] decomb: deinterlaced 361 | blended 3017 | unfiltered 6449 | total 9827
[18:42:31] vfr: 9827 frames output, 0 dropped and 0 duped for CFR/PFR
[18:42:32] vfr: lost time: 0 (0 frames)
[18:42:32] vfr: gained time: 0 (0 frames) (0 not accounted for)
Encoding: task 2 of 2, 99.[18:42:32] ac3-decoder done: 12807 frames, 0 decoder errors
59 % (1.93 fps[18:42:32] ac3-decoder done: 12807 frames, 0 decoder errors
,[18:42:32] h264-decoder done: 9827 frames, 0 decoder errors
 avg 2.28 fps, ETA 00h[18:42:32] sync: got 9827 frames, 9826 expected
0[18:42:32] sync: framerate min 23.981 fps, max 23.981 fps, avg 23.976 fps
0m17s)x264 [info]: frame I:51    Avg QP: 8.97  size:325038
x264 [info]: frame P:2838  Avg QP:15.51  size:164207
x264 [info]: frame B:6938  Avg QP:17.11  size:110796
x264 [info]: consecutive B-frames:  5.7%  8.0% 12.1% 33.3% 16.5% 24.4%
x264 [info]: mb I  I16..4: 31.1% 51.0% 17.9%
x264 [info]: mb P  I16..4:  4.3% 35.3%  4.0%  P16..4: 13.0%  7.6%  4.1%  0.4%  0.1%    skip:31.2%
x264 [info]: mb B  I16..4:  0.8% 13.0%  0.9%  B16..8: 24.5% 11.8%  3.9%  direct: 7.1%  skip:38.1%  L0:39.1% L1:32.1% BI:28.7%
x264 [info]: 8x8 transform intra:83.8% inter:64.9%
x264 [info]: direct mvs  spatial:100.0% temporal:0.0%
x264 [info]: coded y,uvDC,uvAC intra: 88.5% 90.9% 86.3% inter: 37.2% 35.4% 19.3%
x264 [info]: i16 v,h,dc,p: 52% 36%  5%  7%
x264 [info]: i8 v,h,dc,ddl,ddr,vr,hd,vl,hu: 10% 13% 16%  8% 11%  9% 11%  9% 13%
x264 [info]: i4 v,h,dc,ddl,ddr,vr,hd,vl,hu:  9% 22%  8%  8% 12%  9% 12%  9% 13%
x264 [info]: i8c dc,h,v,p: 52% 21% 13% 14%
x264 [info]: Weighted P-Frames: Y:1.4% UV:1.1%
x264 [info]: ref P L0: 52.7% 14.8% 20.4% 10.9%  1.1%  0.0%
x264 [info]: ref B L0: 87.6% 10.2%  2.2%
x264 [info]: ref B L1: 96.2%  3.8%
x264 [info]: kb/s:24423.43
Muxing: this may take awhile...[18:42:32] mux: track 0, 9827 frames, 1251295087 bytes, 24423.39 kbps, fifo 128
[18:42:32] mux: track 1, 12807 frames, 32785920 bytes, 639.93 kbps, fifo 512
[18:42:32] mux: track 2, 12807 frames, 32785920 bytes, 639.93 kbps, fifo 512
[18:42:32] libhb: work result = 0

Encode done!

HandBrake has exited.

C:\Users\jcwil\Downloads\HandBrakeCLI>
also not sure if this is a plex problem or the encode but it is not playing smoothly at all.

i thought it would be playing straight from the NAS drive but if plex is forcing it to route through the wifi connected (temporary) server then that would explain the choppiness

edit : confirmed that it is trying to route the file from the NAS to the PC to the Xbox by playing one of my blu-ray rips - same stuttering

jcwillia1
Posts: 44
Joined: Tue May 15, 2018 2:28 pm

Re: Bizarre request - move letterbox black bars to bottom

Post by jcwillia1 » Sat Jun 02, 2018 1:49 pm

do i need to move the no subtitle flag to the end?

not sure why those came back

User avatar
BradleyS
Moderator
Posts: 1666
Joined: Thu Aug 09, 2007 12:16 pm

Re: Bizarre request - move letterbox black bars to bottom

Post by BradleyS » Sat Jun 02, 2018 2:08 pm

Order typically does matter. Stick to input/source first, followed by preset stuffs, then other options (overriding the preset), then the output/destination.

jcwillia1
Posts: 44
Joined: Tue May 15, 2018 2:28 pm

Re: Move letterbox black bars to bottom (crop and pad blu ray rips)

Post by jcwillia1 » Sat Jun 02, 2018 5:14 pm

subs still there - clueless...

Code: Select all

C:\Users\jcwil\Downloads\HandBrakeCLI>HandBrakeCLI -i "Z:\1 Discs\Transformers.mkv"   --preset-import-gui --preset="Super HQ 1080p30 Surround" --pad="width=1920:height=1080:y=2" -q=16 --audio-lang-list=eng --first-audio --audio-copy-mask=aac,ac3,eac3,truehd,dts,dtshd,mp3,flac --aencoder copy -c 2 --subtitle=none -o "C:\Users\jcwil\Videos\Transformers.mkv"
[10:43:12] hb_init: starting libhb thread
[10:43:12] thread 5ecb890 started ("libhb")
HandBrake 1.1.0 (2018040700) - MinGW x86_64 - https://handbrake.fr
4 CPUs detected
Opening Z:\1 Discs\Transformers.mkv...
[10:43:12] CPU: Intel(R) Core(TM)2 Quad CPU    Q8400  @ 2.66GHz
[10:43:12]  - logical processor count: 4
[10:43:12] Intel Quick Sync Video support: no
[10:43:12] hb_scan: path=Z:\1 Discs\Transformers.mkv, title_index=1
udfread ERROR: ECMA 167 Volume Recognition failed
src/libbluray/disc/disc.c:323: failed opening UDF image Z:\1 Discs\Transformers.mkv
src/libbluray/disc/disc.c:424: error opening file BDMV\index.bdmv
src/libbluray/disc/disc.c:424: error opening file BDMV\BACKUP\index.bdmv
[10:43:12] bd: not a bd - trying as a stream/file instead
libdvdnav: Using dvdnav version 5.0.3
libdvdread: Encrypted DVD support unavailable.
libdvdread:DVDOpenFileUDF:UDFFindFile /VIDEO_TS/VIDEO_TS.IFO failed
libdvdread:DVDOpenFileUDF:UDFFindFile /VIDEO_TS/VIDEO_TS.BUP failed
libdvdread: Can't open file VIDEO_TS.IFO.
libdvdnav: vm: failed to read VIDEO_TS.IFO
[10:43:12] dvd: not a dvd - trying as a stream/file instead
Scanning title 1 of 1, 0.00 %Input #0, matroska,webm, from 'Z:\1 Discs\Transformers.mkv':
  Metadata:
    title           : Transformers Disc 1
  Duration: 02:23:27.30, start: 0.000000, bitrate: N/A
    Chapter #0:0: start 0.000000, end 124.707917
    Metadata:
      title           : Chapter 01
    Chapter #0:1: start 124.707917, end 534.534000
    Metadata:
      title           : Chapter 02
    Chapter #0:2: start 534.534000, end 933.641042
    Metadata:
      title           : Chapter 03
    Chapter #0:3: start 933.641042, end 1341.381708
    Metadata:
      title           : Chapter 04
    Chapter #0:4: start 1341.381708, end 1662.661000
    Metadata:
      title           : Chapter 05
    Chapter #0:5: start 1662.661000, end 2005.378375
    Metadata:
      title           : Chapter 06
    Chapter #0:6: start 2005.378375, end 2338.002333
    Metadata:
      title           : Chapter 07
    Chapter #0:7: start 2338.002333, end 2713.919542
    Metadata:
      title           : Chapter 08
    Chapter #0:8: start 2713.919542, end 3106.436667
    Metadata:
      title           : Chapter 09
    Chapter #0:9: start 3106.436667, end 3524.687833
    Metadata:
      title           : Chapter 10
    Chapter #0:10: start 3524.687833, end 4008.421083
    Metadata:
      title           : Chapter 11
    Chapter #0:11: start 4008.421083, end 4313.559250
    Metadata:
      title           : Chapter 12
    Chapter #0:12: start 4313.559250, end 4616.445167
    Metadata:
      title           : Chapter 13
    Chapter #0:13: start 4616.445167, end 5017.345667
    Metadata:
      title           : Chapter 14
    Chapter #0:14: start 5017.345667, end 5344.172167
    Metadata:
      title           : Chapter 15
    Chapter #0:15: start 5344.172167, end 5788.741292
    Metadata:
      title           : Chapter 16
    Chapter #0:16: start 5788.741292, end 6238.106875
    Metadata:
      title           : Chapter 17
    Chapter #0:17: start 6238.106875, end 6585.745833
    Metadata:
      title           : Chapter 18
    Chapter #0:18: start 6585.745833, end 7014.007000
    Metadata:
      title           : Chapter 19
    Chapter #0:19: start 7014.007000, end 7389.882500
    Metadata:
      title           : Chapter 20
    Chapter #0:20: start 7389.882500, end 7843.919417
    Metadata:
      title           : Chapter 21
    Chapter #0:21: start 7843.919417, end 8102.302542
    Metadata:
      title           : Chapter 22
    Chapter #0:22: start 8102.302542, end 8607.307042
    Metadata:
      title           : Chapter 23
    Stream #0:0(eng): Video: h264 (High)
      yuv420p, tv, bt709/bt709/bt709
      1920x1080 [PAR 1:1 DAR 16:9], PAR 1:1 DAR 16:9
      23.98 fps, 1k tbn
    Stream #0:1(eng): Audio: ac3
      48000 Hz, 5.1, fltp, 640 kb/s (default)
    Metadata:
      title           : Surround 5.1
    Stream #0:2(fra): Audio: ac3
      48000 Hz, 5.1, fltp, 640 kb/s
    Metadata:
      title           : Surround 5.1
    Stream #0:3(spa): Audio: ac3
      48000 Hz, 5.1, fltp, 640 kb/s
    Metadata:
      title           : Surround 5.1
    Stream #0:4(eng): Subtitle: hdmv_pgs_subtitle
    Stream #0:5(eng): Subtitle: hdmv_pgs_subtitle
    Stream #0:6(fra): Subtitle: hdmv_pgs_subtitle
    Stream #0:7(spa): Subtitle: hdmv_pgs_subtitle
    Stream #0:8(por): Subtitle: hdmv_pgs_subtitle
    Stream #0:9(fra): Subtitle: hdmv_pgs_subtitle
    Stream #0:10(fra): Subtitle: hdmv_pgs_subtitle
    Stream #0:11(spa): Subtitle: hdmv_pgs_subtitle
    Stream #0:12(spa): Subtitle: hdmv_pgs_subtitle
    Stream #0:13(eng): Subtitle: hdmv_pgs_subtitle
    Stream #0:14(eng): Subtitle: hdmv_pgs_subtitle
[10:43:13] scan: decoding previews for title 1
Scanning title 1 of 1, preview 1, 0.00 %[10:43:13] scan: audio 0x1: ac3, rate=48000Hz, bitrate=640000 English (AC3) (5.1 ch)
[10:43:13] scan: audio 0x2: ac3, rate=48000Hz, bitrate=640000 Francais (AC3) (5.1 ch)
[10:43:13] scan: audio 0x3: ac3, rate=48000Hz, bitrate=640000 español (AC3) (5.1 ch)
Scanning title 1 of 1, preview 10, 100.00 %[10:43:16] scan: 10 previews, 1920x1080, 23.976 fps, autocrop = 144/136/0/0, aspect 16:9, PAR 1:1
[10:43:16] scan: supported video decoders: avcodec qsv
[10:43:16] libhb: scan thread found 1 valid title(s)
+ Using preset: Super HQ 1080p30 Surround
+ title 1:
  + stream: Z:\1 Discs\Transformers.mkv
  + duration: 02:23:27
  + size: 1920x1080, pixel aspect: 1/1, display aspect: 1.78, 23.976 fps
  + autocrop: 144/136/0/0
  + chapters:
    + 1: cells 0->0, 0 blocks, duration 00:02:05
    + 2: cells 0->0, 0 blocks, duration 00:06:50
    + 3: cells 0->0, 0 blocks, duration 00:06:39
    + 4: cells 0->0, 0 blocks, duration 00:06:48
    + 5: cells 0->0, 0 blocks, duration 00:05:21
    + 6: cells 0->0, 0 blocks, duration 00:05:43
    + 7: cells 0->0, 0 blocks, duration 00:05:33
    + 8: cells 0->0, 0 blocks, duration 00:06:16
    + 9: cells 0->0, 0 blocks, duration 00:06:33
    + 10: cells 0->0, 0 blocks, duration 00:06:58
    + 11: cells 0->0, 0 blocks, duration 00:08:04
    + 12: cells 0->0, 0 blocks, duration 00:05:05
    + 13: cells 0->0, 0 blocks, duration 00:05:03
    + 14: cells 0->0, 0 blocks, duration 00:06:41
    + 15: cells 0->0, 0 blocks, duration 00:05:27
    + 16: cells 0->0, 0 blocks, duration 00:07:25
    + 17: cells 0->0, 0 blocks, duration 00:07:29
    + 18: cells 0->0, 0 blocks, duration 00:05:48
    + 19: cells 0->0, 0 blocks, duration 00:07:08
    + 20: cells 0->0, 0 blocks, duration 00:06:16
    + 21: cells 0->0, 0 blocks, duration 00:07:34
    + 22: cells 0->0, 0 blocks, duration 00:04:18
    + 23: cells 0->0, 0 blocks, duration 00:08:25
  + audio tracks:
    + 1, English (AC3) (5.1 ch) (iso639-2: eng), 48000Hz, 640000bps
    + 2, Francais (AC3) (5.1 ch) (iso639-2: fra), 48000Hz, 640000bps
    + 3, espa├▒ol (AC3) (5.1 ch) (iso639-2: spa), 48000Hz, 640000bps
  + subtitle tracks:
    + 1, English [PGS]
    + 2, English [PGS]
    + 3, Francais [PGS]
    + 4, espa├▒ol [PGS]
    + 5, Portugues [PGS]
    + 6, Francais [PGS]
    + 7, Francais [PGS]
    + 8, espa├▒ol [PGS]
    + 9, espa├▒ol [PGS]
    + 10, English [PGS]
    + 11, English [PGS]
[10:43:16] 1 job(s) to process
[10:43:16] json job:
{
    "Audio": {
        "AudioList": [
            {
                "Bitrate": 0,
                "DRC": 0.0,
                "Encoder": "copy:ac3",
                "Mixdown": "none",
                "PresetEncoder": "copy",
                "Quality": -3.0,
                "Samplerate": 0,
                "Track": 0
            },
            {
                "Bitrate": 0,
                "DRC": 0.0,
                "Encoder": "copy:ac3",
                "Mixdown": "none",
                "PresetEncoder": "copy:ac3",
                "Quality": -3.0,
                "Samplerate": 0,
                "Track": 0
            }
        ],
        "CopyMask": [
            "copy:aac",
            "copy:ac3",
            "copy:eac3",
            "copy:truehd",
            "copy:dts",
            "copy:dtshd",
            "copy:mp3",
            "copy:flac"
        ],
        "FallbackEncoder": "av_aac"
    },
    "Destination": {
        "AlignAVStart": true,
        "ChapterList": [
            {
                "Name": "Chapter 1"
            },
            {
                "Name": "Chapter 2"
            },
            {
                "Name": "Chapter 3"
            },
            {
                "Name": "Chapter 4"
            },
            {
                "Name": "Chapter 5"
            },
            {
                "Name": "Chapter 6"
            },
            {
                "Name": "Chapter 7"
            },
            {
                "Name": "Chapter 8"
            },
            {
                "Name": "Chapter 9"
            },
            {
                "Name": "Chapter 10"
            },
            {
                "Name": "Chapter 11"
            },
            {
                "Name": "Chapter 12"
            },
            {
                "Name": "Chapter 13"
            },
            {
                "Name": "Chapter 14"
            },
            {
                "Name": "Chapter 15"
            },
            {
                "Name": "Chapter 16"
            },
            {
                "Name": "Chapter 17"
            },
            {
                "Name": "Chapter 18"
            },
            {
                "Name": "Chapter 19"
            },
            {
                "Name": "Chapter 20"
            },
            {
                "Name": "Chapter 21"
            },
            {
                "Name": "Chapter 22"
            },
            {
                "Name": "Chapter 23"
            }
        ],
        "ChapterMarkers": true,
        "File": "C:\\Users\\jcwil\\Videos\\Transformers.mkv",
        "InlineParameterSets": false,
        "Mp4Options": {
            "IpodAtom": false,
            "Mp4Optimize": false
        },
        "Mux": "mkv"
    },
    "Filters": {
        "FilterList": [
            {
                "ID": 3,
                "Settings": {
                    "block-height": "16",
                    "block-thresh": "40",
                    "block-width": "16",
                    "filter-mode": "2",
                    "mode": "3",
                    "motion-thresh": "1",
                    "spatial-metric": "2",
                    "spatial-thresh": "1"
                }
            },
            {
                "ID": 4,
                "Settings": {
                    "mode": "7"
                }
            },
            {
                "ID": 6,
                "Settings": {
                    "mode": 2,
                    "rate": "27000000/900000"
                }
            },
            {
                "ID": 11,
                "Settings": {
                    "crop-bottom": 136,
                    "crop-left": 0,
                    "crop-right": 0,
                    "crop-top": 144,
                    "height": 800,
                    "width": 1920
                }
            },
            {
                "ID": 16,
                "Settings": {
                    "height": "1080",
                    "width": "1920",
                    "y": "2"
                }
            }
        ]
    },
    "Metadata": {
        "Name": "Transformers Disc 1"
    },
    "PAR": {
        "Den": 1,
        "Num": 1
    },
    "SequenceID": 0,
    "Source": {
        "Angle": 0,
        "Path": "Z:\\1 Discs\\Transformers.mkv",
        "Range": {
            "End": 2,
            "Start": 2,
            "Type": "chapter"
        },
        "Title": 1
    },
    "Subtitle": {
        "Search": {
            "Burn": true,
            "Default": false,
            "Enable": true,
            "Forced": true
        },
        "SubtitleList": []
    },
    "Video": {
        "ColorMatrixCode": 0,
        "Encoder": "x264",
        "Level": "4.0",
        "Options": "ref=5:bframes=5",
        "Preset": "veryslow",
        "Profile": "high",
        "QSV": {
            "AsyncDepth": 4,
            "Decode": false
        },
        "Quality": 0.0,
        "Tune": "",
        "Turbo": false,
        "TwoPass": false
    }
}
[10:43:16] starting job
[10:43:16] decomb filter thread started for segment 0
[10:43:16] decomb filter thread started for segment 1
[10:43:16] decomb filter thread started for segment 2
[10:43:16] decomb filter thread started for segment 3
[10:43:16] decomb check thread started for segment 0
[10:43:16] mask filter thread started for segment 3
[10:43:16] decomb check thread started for segment 2
[10:43:16] decomb check thread started for segment 3
[10:43:16] mask filter thread started for segment 0
[10:43:16] mask filter thread started for segment 1
[10:43:16] mask filter thread started for segment 2
[10:43:16] decomb check thread started for segment 1
[10:43:16] mask erode thread started for segment 0
[10:43:16] mask erode thread started for segment 1
[10:43:16] mask erode thread started for segment 2
[10:43:16] mask erode thread started for segment 3
[10:43:16] mask dilate thread started for segment 0
[10:43:16] mask dilate thread started for segment 1
[10:43:16] mask dilate thread started for segment 2
[10:43:16] mask dilate thread started for segment 3
[10:43:16] yadif thread started for segment 0
[10:43:16] yadif thread started for segment 1
[10:43:16] yadif thread started for segment 2
[10:43:16] yadif thread started for segment 3
[10:43:16] work: only 1 chapter, disabling chapter markers
[10:43:16] job configuration:
[10:43:16]  * source
[10:43:16]    + Z:\1 Discs\Transformers.mkv
[10:43:16]    + title 1, chapter(s) 2 to 2
[10:43:16]    + container: matroska,webm
[10:43:16]  * destination
[10:43:16]    + C:\Users\jcwil\Videos\Transformers.mkv
[10:43:16]    + container: Matroska (libavformat)
[10:43:16]      + align initial A/V stream timestamps
[10:43:16]  * video track
[10:43:16]    + decoder: h264
[10:43:16]    + filters
[10:43:16]      + Comb Detect (mode=3:spatial-metric=2:motion-thresh=1:spatial-thresh=1:filter-mode=2:block-thresh=40:block-width=16:block-height=16)
[10:43:16]      + Decomb (mode=39)
[10:43:16]      + Framerate Shaper (mode=2:rate=27000000/900000)
[10:43:16]        + frame rate: 23.976 fps -> peak rate limited to 30.000 fps
[10:43:16]      + Crop and Scale (width=1920:height=800:crop-top=144:crop-bottom=136:crop-left=0:crop-right=0)
[10:43:16]        + source: 1920 * 1080, crop (144/136/0/0): 1920 * 800, scale: 1920 * 800
[10:43:16]      + avfilter (pad='width=1920:height=1080:x=(out_w-in_w)/2:y=2')
[10:43:16]        + pad: width=1920, height=1080, x=(out_w-in_w)/2, y=2
[10:43:16]    + Output geometry
[10:43:16]      + storage dimensions: 1920 x 1080
[10:43:16]      + pixel aspect ratio: 1 : 1
[10:43:16]      + display dimensions: 1920 x 1080
[10:43:16]  * Foreign Audio Search: Render/Burn-in, Forced Only
[10:43:16]    + subtitle, English [PGS] (track 0, id 0x4, Picture)
[10:43:16]    + subtitle, English [PGS] (track 1, id 0x5, Picture)
[10:43:16]    + subtitle, English [PGS] (track 9, id 0xd, Picture)
[10:43:16]    + subtitle, English [PGS] (track 10, id 0xe, Picture)
Encoding: task 1 of 2, 0.00 %[10:43:16] sync: expecting 9826 video frames
Encoding: task 1 of 2, 99.85 % (0.0[10:43:40] reader: end of chapter 2 (media 2) reached at media chapter 30
 f[10:43:40] reader: done. 1 scr changes
ps, avg 0.00 fps, ETA 00h00m00s)[10:43:40] work: average encoding speed for job is 0.000000 fps
[10:43:40] comb detect: heavy 0 | light 0 | uncombed 0 | total 0
[10:43:40] decomb: deinterlaced 0 | blended 0 | unfiltered 0 | total 0
[10:43:40] vfr: 0 frames output, 0 dropped and 0 duped for CFR/PFR
[10:43:40] vfr: lost time: 0 (0 frames)
[10:43:40] vfr: gained time: 0 (0 frames) (0 not accounted for)
Encoding: task 1 of 2, 100.00 % (0.00 fps, avg 0.00 fps, ETA 00h00m00s)[10:43:40] h264-decoder done: 0 frames, 0 decoder errors
[10:43:40] sync: got 0 frames, 9826 expected
[10:43:40] Subtitle track 0 (id 0x4) 'English [PGS]': 77 hits (0 forced)
[10:43:40] Subtitle track 1 (id 0x5) 'English [PGS]': 86 hits (0 forced)
[10:43:40] Subtitle track 9 (id 0xd) 'English [PGS]': 297 hits (285 forced)
[10:43:40] Subtitle track 10 (id 0xe) 'English [PGS]': 50 hits (50 forced)
[10:43:40] Found a subtitle candidate with id 0xe (contains forced subs)
[10:43:40] starting job
[10:43:40] decomb filter thread started for segment 0
[10:43:40] decomb filter thread started for segment 2
[10:43:40] decomb filter thread started for segment 1
[10:43:40] decomb filter thread started for segment 3
[10:43:40] decomb check thread started for segment 0
[10:43:40] decomb check thread started for segment 1
[10:43:40] decomb check thread started for segment 2
[10:43:40] decomb check thread started for segment 3
[10:43:40] mask filter thread started for segment 0
[10:43:40] mask filter thread started for segment 1
[10:43:40] mask filter thread started for segment 2
[10:43:40] mask filter thread started for segment 3
[10:43:40] mask erode thread started for segment 0
[10:43:40] mask erode thread started for segment 1
[10:43:40] mask erode thread started for segment 2
[10:43:40] mask erode thread started for segment 3
[10:43:40] mask dilate thread started for segment 0
[10:43:40] mask dilate thread started for segment 1
[10:43:40] mask dilate thread started for segment 2
[10:43:40] mask dilate thread started for segment 3
[10:43:40] yadif thread started for segment 0
[10:43:40] yadif thread started for segment 1
[10:43:40] yadif thread started for segment 2
[10:43:40] yadif thread started for segment 3
[10:43:40] work: only 1 chapter, disabling chapter markers
[10:43:40] job configuration:
[10:43:40]  * source
[10:43:40]    + Z:\1 Discs\Transformers.mkv
[10:43:40]    + title 1, chapter(s) 2 to 2
[10:43:40]    + container: matroska,webm
[10:43:40]  * destination
[10:43:40]    + C:\Users\jcwil\Videos\Transformers.mkv
[10:43:40]    + container: Matroska (libavformat)
[10:43:40]      + align initial A/V stream timestamps
[10:43:40]  * video track
[10:43:40]    + decoder: h264
[10:43:40]    + filters
[10:43:40]      + Comb Detect (mode=3:spatial-metric=2:motion-thresh=1:spatial-thresh=1:filter-mode=2:block-thresh=40:block-width=16:block-height=16)
[10:43:40]      + Decomb (mode=39)
[10:43:40]      + Framerate Shaper (mode=2:rate=27000000/900000)
[10:43:40]        + frame rate: 23.976 fps -> peak rate limited to 30.000 fps
[10:43:40]      + Subtitle renderer ()
[10:43:40]      + Crop and Scale (width=1920:height=800:crop-top=144:crop-bottom=136:crop-left=0:crop-right=0)
[10:43:40]        + source: 1920 * 1080, crop (144/136/0/0): 1920 * 800, scale: 1920 * 800
[10:43:40]      + avfilter (pad='width=1920:height=1080:x=(out_w-in_w)/2:y=2')
[10:43:40]        + pad: width=1920, height=1080, x=(out_w-in_w)/2, y=2
[10:43:40]    + Output geometry
[10:43:40]      + storage dimensions: 1920 x 1080
[10:43:40]      + pixel aspect ratio: 1 : 1
[10:43:40]      + display dimensions: 1920 x 1080
[10:43:40]    + encoder: H.264 (libx264)
[10:43:40]      + preset:  veryslow
[10:43:40]      + options: ref=5:bframes=5
[10:43:40]      + profile: high
[10:43:40]      + level:   4.0
[10:43:40]      + quality: 0.00 (RF)
[10:43:40]  * subtitle track 1, English [PGS] (track 10, id 0xe, Picture) -> Render/Burn-in, Forced Only
[10:43:40]  * audio track 1
[10:43:40]    + decoder: English (AC3) (5.1 ch) (track 1, id 0x1)
[10:43:40]      + bitrate: 640 kbps, samplerate: 48000 Hz
[10:43:40]    + AC3 Passthru
[10:43:40]  * audio track 2
[10:43:40]    + decoder: English (AC3) (5.1 ch) (track 1, id 0x1)
[10:43:40]      + bitrate: 640 kbps, samplerate: 48000 Hz
[10:43:40]    + AC3 Passthru
Encoding: task 2 of 2, 0.00 %[10:43:41] sync: expecting 9826 video frames
[10:43:41] encx264: min-keyint: 24, keyint: 240
[10:43:41] encx264: encoding at constant RF 0.000000
[10:43:41] apply_h264_profile [warning]: lossless requires high444 profile, disabling
[10:43:41] encx264: unparsed options: ref=4:bframes=5:level=4.0:b-adapt=2:direct=auto:analyse=all:me=umh:merange=24:subme=10:trellis=2:vbv-bufsize=31250:vbv-maxrate=25000:rc-lookahead=60
x264 [info]: using SAR=1/1
x264 [info]: using cpu capabilities: MMX2 SSE2Fast SSSE3 SSE4.1 Cache64
x264 [info]: profile High, level 4.0
Encoding: task 2 of 2, 0.00 %[10:43:41] sync: first pts video is 0
[10:43:41] sync: "Chapter 2" (2) at frame 1 time 0
[10:43:41] sync: first pts audio 0x1 is 2520
[10:43:41] sync: first pts audio 0x1 is 2520
Encoding: task 2[10:43:42] sync: first pts subtitle 0xe is 127620
Encoding: task 2 of 2, 99.20 % (1.65 fps, avg 1.99 fps, ETA 00h00m41s)[12:05:23] reader: end of chapter 2 (media 2) reached at media chapter 3
Encoding: task 2 of 2, 99.20 % (1.65 fps, avg 1.99 fps, ETA 00h00m41s)[12:05:25] reader: done. 1 scr changes
Encoding: task 2 of 2, 99.59 % (1.35 fps, avg 1.99 fps, ETA 00h00m20s)[12:07:35] work: average encoding speed for job is 1.985290 fps
Encoding: task 2 of 2, 99.59 % (1.35 fps, avg 1.99 fps, ETA 00h00m20s)[12:07:35] comb detect: heavy 361 | light 3017 | uncombed 6449 | total 9827
[12:07:35] decomb: deinterlaced 361 | blended 3017 | unfiltered 6449 | total 9827
[12:07:35] vfr: 9827 frames output, 0 dropped and 0 duped for CFR/PFR
[12:07:35] vfr: lost time: 0 (0 frames)
[12:07:35] vfr: gained time: 0 (0 frames) (0 not accounted for)
[12:07:35] ac3-decoder done: 12807 frames, 0 decoder errors
[12:07:35] ac3-decoder done: 12807 frames, 0 decoder errors
[12:07:35] h264-decoder done: 9827 frames, 0 decoder errors
[12:07:35] sync: got 9827 frames, 9826 expected
[12:07:35] sync: framerate min 23.981 fps, max 23.981 fps, avg 23.976 fps
x264 [info]: frame I:51    Avg QP: 8.97  size:324284
x264 [info]: frame P:2838  Avg QP:15.48  size:164339
x264 [info]: frame B:6938  Avg QP:17.10  size:110843
x264 [info]: consecutive B-frames:  5.7%  8.0% 12.1% 33.3% 16.5% 24.4%
x264 [info]: mb I  I16..4: 32.0% 50.2% 17.8%
x264 [info]: mb P  I16..4:  4.3% 35.3%  4.0%  P16..4: 13.0%  7.6%  4.1%  0.4%  0.1%    skip:31.2%
x264 [info]: mb B  I16..4:  0.8% 13.0%  0.9%  B16..8: 24.5% 11.8%  3.9%  direct: 7.1%  skip:38.1%  L0:39.1% L1:32.2% BI:28.7%
x264 [info]: 8x8 transform intra:83.8% inter:64.9%
x264 [info]: direct mvs  spatial:100.0% temporal:0.0%
x264 [info]: coded y,uvDC,uvAC intra: 88.5% 90.9% 86.4% inter: 37.2% 35.4% 19.3%
x264 [info]: i16 v,h,dc,p: 52% 36%  5%  7%
x264 [info]: i8 v,h,dc,ddl,ddr,vr,hd,vl,hu: 10% 13% 16%  8% 11%  9% 11%  9% 13%
x264 [info]: i4 v,h,dc,ddl,ddr,vr,hd,vl,hu:  9% 22%  8%  8% 12%  9% 12%  9% 13%
x264 [info]: i8c dc,h,v,p: 52% 21% 13% 14%
x264 [info]: Weighted P-Frames: Y:1.4% UV:1.1%
x264 [info]: ref P L0: 52.6% 14.8% 20.4% 11.0%  1.1%  0.0%
x264 [info]: ref B L0: 87.6% 10.1%  2.2%
x264 [info]: ref B L1: 96.2%  3.8%
x264 [info]: kb/s:24436.44
Encoding: task 2 of 2, 99.59 % (1.35 fps, avg 1.99 fps, ETA 00h00m20s)[12:07:35] mux: track 0, 9827 frames, 1251961211 bytes, 24436.39 kbps, fifo 128
[12:07:35] mux: track 1, 12807 frames, 32785920 bytes, 639.93 kbps, fifo 512
[12:07:35] mux: track 2, 12807 frames, 32785920 bytes, 639.93 kbps, fifo 512
[12:07:35] libhb: work result = 0

Encode done!

HandBrake has exited.

C:\Users\jcwil\Downloads\HandBrakeCLI>
can't figure this part out...

Code: Select all

    "Subtitle": {
        "Search": {
            "Burn": true,
            "Default": false,
            "Enable": true,
            "Forced": true
        },
        "SubtitleList": []
        

jcwillia1
Posts: 44
Joined: Tue May 15, 2018 2:28 pm

Re: Move letterbox black bars to bottom (crop and pad blu ray rips)

Post by jcwillia1 » Sat Jun 02, 2018 9:54 pm

this subtitle problem is going to drive me to drink. which sucks because I am on dietary restrictions

pulled out the audio tags, subtitles still coming through. no idea what else to do

HandBrakeCLI -i "Z:\1 Discs\Transformers.mkv" --preset-import-gui --preset="Super HQ 1080p30 Surround" --pad="width=1920:height=1080:y=2" -q=16 --subtitle=none --start-at duration:400 --stop-at duration:30 -o "C:\Users\jcwil\Videos\Transformers.mkv"

User avatar
BradleyS
Moderator
Posts: 1666
Joined: Thu Aug 09, 2007 12:16 pm

Re: Move letterbox black bars to bottom (crop and pad blu ray rips)

Post by BradleyS » Sun Jun 03, 2018 12:36 am

Could be a bug where we’re not properly overriding the preset. I’ll have to look into it more when I have time.

jcwillia1
Posts: 44
Joined: Tue May 15, 2018 2:28 pm

Re: Move letterbox black bars to bottom (crop and pad blu ray rips)

Post by jcwillia1 » Sun Jun 03, 2018 12:40 am

BradleyS wrote:
Sun Jun 03, 2018 12:36 am
Could be a bug where we’re not properly overriding the preset. I’ll have to look into it more when I have time.
i can confirm that. so i made my own preset based on the super hq 1080 30 where i turned off the subtitles.

seems like if you use a json preset, other variables are being ignored. when i ran with a user loaded preset, it only encoded once - every other time it did it twice. But crop and pad worked so i don't know - lol

this json file seems like a better way to go though. if slightly more complicated.

User avatar
BradleyS
Moderator
Posts: 1666
Joined: Thu Aug 09, 2007 12:16 pm

Re: Move letterbox black bars to bottom (crop and pad blu ray rips)

Post by BradleyS » Sun Jun 03, 2018 1:09 am

That works, too. Glad you got it working again. ;)

jcwillia1
Posts: 44
Joined: Tue May 15, 2018 2:28 pm

Re: Move letterbox black bars to bottom (crop and pad blu ray rips)

Post by jcwillia1 » Sun Jun 03, 2018 12:13 pm

Code: Select all

HandBrakeCLI -i "Z:\1 Discs\Transformers.mkv" --preset-import-gui --preset="Super HQ 1080p30 Surround" --pad="width=1920:height=1080:y=2" -q=16 --subtitle=none --start-at duration:410 --stop-at duration:20 -o "C:\Users\jcwil\Videos\Transformers.mkv"
I ran the preset 1080p Super HQ and it runs in two passes and creates a 61MB file.

I export those same settings to a custom preset file and it only runs the encode once and creates a 21.8MB file.

very confused :)

I have not yet been able to create a two pass conversion from a custom preset file

Post Reply