Decoder and/or Passthru for DTS-X and DTS-Core

Archive of historical feature requests.
Please use the GitHub link above to report issues.
Forum rules
*******************************
Please be aware we are now using GitHub for issue tracking and feature requests.
- This section of the forum is now closed to new topics.

*******************************
Locked
ManilaByNight
Posts: 6
Joined: Mon Feb 13, 2017 11:13 pm

Decoder and/or Passthru for DTS-X and DTS-Core

Post by ManilaByNight » Sun May 07, 2017 11:34 am

Please describe what you would like to see added to HandBrake:
Audio decoder and/or pass-thru for for DTS-X and DTS-Core

Why would you like to see this added:
The built-in DTS Passthru and the DTS-HD Passthru does not work properly with DTS-X and DTS-Core. Lips do not sync.

What version of HandBrake are you currently running:
Version 1.0.7

What operating system and version and you currently running (e.g. OSX 10.11, Windows 7, Ubuntu 14):
Windows 10 64Bit

rollin_eng
Veteran User
Posts: 3145
Joined: Wed May 04, 2011 11:06 pm

Re: Decoder and/or Passthru for DTS-X and DTS-Core

Post by rollin_eng » Sun May 07, 2017 11:37 am

Could you please post your logs, instructions can be found here:

viewtopic.php?f=6&t=31236

ManilaByNight
Posts: 6
Joined: Mon Feb 13, 2017 11:13 pm

Re: Decoder and/or Passthru for DTS-X and DTS-Core

Post by ManilaByNight » Sun May 07, 2017 12:03 pm

HandBrake 1.0.7 (2017040900) - 64bit
OS: Microsoft Windows NT 10.0.15063.0 - 64bit
CPU: Intel(R) Core(TM) i7-3610QM CPU @ 2.30GHz
Ram: 32658 MB,
GPU Information:
Intel(R) HD Graphics 4000 - 10.18.10.4425
NVIDIA GeForce GTX 675M - 22.21.13.8205
Screen: 1366x768
Temp Dir: C:\Users\Administrator\AppData\Local\Temp\
Install Dir: C:\Program Files\HandBrake
Data Dir: C:\Users\Administrator\AppData\Roaming\HandBrake Team\HandBrake\1.0.7.0

-------------------------------------------


# Starting Encode ...

[08:02:44] hb_init: starting libhb thread
[08:02:44] 1 job(s) to process
[08:02:44] json job:
{
"Audio": {
"AudioList": [
{
"Bitrate": 512,
"DRC": 0.0,
"Encoder": 65536,
"Gain": 0.0,
"Mixdown": 7,
"NormalizeMixLevel": false,
"Samplerate": 0,
"Track": 1,
"DitherMethod": 0
}
],
"CopyMask": [
1073807360,
1073743872,
1074003968,
1073750016,
1090519040,
1074790400,
1074266112,
1107296256
],
"FallbackEncoder": 2048
},
"Destination": {
"ChapterList": [
{
"Name": "00:00:00.000"
},
{
"Name": "00:08:12.951"
},
{
"Name": "00:16:49.300"
},
{
"Name": "00:28:24.786"
},
{
"Name": "00:37:11.312"
},
{
"Name": "00:47:32.558"
},
{
"Name": "00:55:26.198"
},
{
"Name": "01:00:56.027"
},
{
"Name": "01:08:25.268"
},
{
"Name": "01:15:07.169"
},
{
"Name": "01:25:30.751"
},
{
"Name": "01:37:51.407"
}
],
"ChapterMarkers": true,
"File": "C:\\Users\\Administrator\\Downloads\\Video\\XtreamerTransfer\\ConvertedVideo\\The Last Witch Hunter 2015 Multi 2160p UHD 4K HEVC HDR DTS-X 7.1_preview.mkv",
"Mp4Options": {
"IpodAtom": false,
"Mp4Optimize": false
},
"Mux": 2097152
},
"Filters": {
"FilterList": [
{
"ID": 4,
"Settings": {
"mode": "7"
}
},
{
"ID": 3,
"Settings": {
"block-height": "16",
"block-thresh": "40",
"block-width": "16",
"filter-mode": "2",
"mode": "3",
"motion-thresh": "1",
"spatial-metric": "2",
"spatial-thresh": "1"
}
},
{
"ID": 11,
"Settings": {
"crop-bottom": "0",
"crop-left": "0",
"crop-right": "0",
"crop-top": "0",
"height": "1080",
"width": "1920"
}
},
{
"ID": 6,
"Settings": {
"mode": "2",
"rate": "27000000/900000"
}
}
]
},
"PAR": {
"Num": 180,
"Den": 133
},
"Metadata": {},
"SequenceID": 0,
"Source": {
"Angle": 1,
"Range": {
"Type": "preview",
"Start": 2,
"End": 2700000,
"SeekPoints": 10
},
"Title": 1,
"Path": "C:\\Users\\Administrator\\Downloads\\Video\\XtreamerTransfer\\The Last Witch Hunter 2015 Multi 2160p UHD 4K HEVC HDR DTS-X 7.1.mkv"
},
"Subtitle": {
"Search": {
"Burn": true,
"Default": false,
"Enable": true,
"Forced": true
},
"SubtitleList": [
{
"Burn": false,
"Default": false,
"Forced": false,
"ID": 1,
"Offset": 0,
"Track": 0
}
]
},
"Video": {
"Encoder": 65536,
"Level": "4.0",
"TwoPass": false,
"Turbo": false,
"ColorMatrixCode": 0,
"Options": "",
"Preset": "medium",
"Profile": "main",
"Quality": 22.0,
"OpenCL": false,
"HWDecode": false,
"QSV": {
"Decode": false,
"AsyncDepth": 0
}
}
}
[08:02:44] CPU: Intel(R) Core(TM) i7-3610QM CPU @ 2.30GHz
[08:02:44] - Intel microarchitecture Ivy Bridge
[08:02:44] - logical processor count: 8
[08:02:44] Intel Quick Sync Video support: yes
[08:02:44] - Intel Media SDK hardware: API 1.11 (minimum: 1.3)
[08:02:44] - H.264 encoder: yes
[08:02:44] - preferred implementation: hardware (any)
[08:02:44] - capabilities (hardware): vsinfo opt1 opt2+extbrc+ib_adapt+nmpslice
[08:02:44] - H.265 encoder: no
[08:02:44] hb_scan: path=C:\Users\Administrator\Downloads\Video\XtreamerTransfer\The Last Witch Hunter 2015 Multi 2160p UHD 4K HEVC HDR DTS-X 7.1.mkv, title_index=1
udfread ERROR: ECMA 167 Volume Recognition failed
src/libbluray/disc/disc.c:274: failed opening UDF image C:\Users\Administrator\Downloads\Video\XtreamerTransfer\The Last Witch Hunter 2015 Multi 2160p UHD 4K HEVC HDR DTS-X 7.1.mkv
src/libbluray/disc/disc.c:352: error opening file BDMV\index.bdmv
src/libbluray/disc/disc.c:352: error opening file BDMV\BACKUP\index.bdmv
[08:02:44] bd: not a bd - trying as a stream/file instead
libdvdnav: Using dvdnav version 5.0.1
libdvdread: Encrypted DVD support unavailable.
libdvdread:DVDOpenFileUDF:UDFFindFile /VIDEO_TS/VIDEO_TS.IFO failed
libdvdread:DVDOpenFileUDF:UDFFindFile /VIDEO_TS/VIDEO_TS.BUP failed
libdvdread: Can't open file VIDEO_TS.IFO.
libdvdnav: vm: failed to read VIDEO_TS.IFO
[08:02:44] dvd: not a dvd - trying as a stream/file instead
Input #0, matroska,webm, from 'C:\Users\Administrator\Downloads\Video\XtreamerTransfer\The Last Witch Hunter 2015 Multi 2160p UHD 4K HEVC HDR DTS-X 7.1.mkv':
Duration: 01:50:31.85, start: 0.000000, bitrate: 54689 kb/s
Chapter #0:0: start 0.000000, end 492.951000
Metadata:
title : 00:00:00.000
Chapter #0:1: start 492.951000, end 1009.300000
Metadata:
title : 00:08:12.951
Chapter #0:2: start 1009.300000, end 1704.786000
Metadata:
title : 00:16:49.300
Chapter #0:3: start 1704.786000, end 2231.312000
Metadata:
title : 00:28:24.786
Chapter #0:4: start 2231.312000, end 2852.558000
Metadata:
title : 00:37:11.312
Chapter #0:5: start 2852.558000, end 3326.198000
Metadata:
title : 00:47:32.558
Chapter #0:6: start 3326.198000, end 3656.027000
Metadata:
title : 00:55:26.198
Chapter #0:7: start 3656.027000, end 4105.268000
Metadata:
title : 01:00:56.027
Chapter #0:8: start 4105.268000, end 4507.169000
Metadata:
title : 01:08:25.268
Chapter #0:9: start 4507.169000, end 5130.751000
Metadata:
title : 01:15:07.169
Chapter #0:10: start 5130.751000, end 5871.407000
Metadata:
title : 01:25:30.751
Chapter #0:11: start 5871.407000, end 6631.854000
Metadata:
title : 01:37:51.407
Stream #0:0(eng): Video: hevc (Main 10)
yuv420p10le, tv, bt2020nc/bt2020/smpte2084
3840x1596, PAR 1:1 DAR 320:133
23.98 fps, 1k tbn (default)
Metadata:
BPS : 46955298
BPS-eng : 46955298
DURATION : 01:47:16.437000000
DURATION-eng : 01:47:16.437000000
NUMBER_OF_FRAMES: 154320
NUMBER_OF_FRAMES-eng: 154320
NUMBER_OF_BYTES : 37778102635
NUMBER_OF_BYTES-eng: 37778102635
_STATISTICS_WRITING_APP: mkvmerge v9.9.0 ('Pick Up') 64bit
_STATISTICS_WRITING_APP-eng: mkvmerge v9.9.0 ('Pick Up') 64bit
_STATISTICS_WRITING_DATE_UTC: 2017-03-20 11:46:24
_STATISTICS_WRITING_DATE_UTC-eng: 2017-03-20 11:46:24
_STATISTICS_TAGS: BPS DURATION NUMBER_OF_FRAMES NUMBER_OF_BYTES
_STATISTICS_TAGS-eng: BPS DURATION NUMBER_OF_FRAMES NUMBER_OF_BYTES
Stream #0:1(eng): Audio: dts
48000 Hz, 8 channels, fltp (default)
Metadata:
title : DTS-X 7.1
BPS : 4156018
BPS-eng : 4156018
DURATION : 01:50:08.854000000
DURATION-eng : 01:50:08.854000000
NUMBER_OF_FRAMES: 619580
NUMBER_OF_FRAMES-eng: 619580
NUMBER_OF_BYTES : 3433314980
NUMBER_OF_BYTES-eng: 3433314980
_STATISTICS_WRITING_APP: mkvmerge v9.9.0 ('Pick Up') 64bit
_STATISTICS_WRITING_APP-eng: mkvmerge v9.9.0 ('Pick Up') 64bit
_STATISTICS_WRITING_DATE_UTC: 2017-03-20 11:46:24
_STATISTICS_WRITING_DATE_UTC-eng: 2017-03-20 11:46:24
_STATISTICS_TAGS: BPS DURATION NUMBER_OF_FRAMES NUMBER_OF_BYTES
_STATISTICS_TAGS-eng: BPS DURATION NUMBER_OF_FRAMES NUMBER_OF_BYTES
Stream #0:2(eng): Audio: dts
48000 Hz, 6 channels, fltp
Metadata:
title : DTS Core 5.1
BPS : 1508999
BPS-eng : 1508999
DURATION : 01:50:08.854000000
DURATION-eng : 01:50:08.854000000
NUMBER_OF_FRAMES: 619580
NUMBER_OF_FRAMES-eng: 619580
NUMBER_OF_BYTES : 1246594960
NUMBER_OF_BYTES-eng: 1246594960
_STATISTICS_WRITING_APP: mkvmerge v9.9.0 ('Pick Up') 64bit
_STATISTICS_WRITING_APP-eng: mkvmerge v9.9.0 ('Pick Up') 64bit
_STATISTICS_WRITING_DATE_UTC: 2017-03-20 11:46:24
_STATISTICS_WRITING_DATE_UTC-eng: 2017-03-20 11:46:24
_STATISTICS_TAGS: BPS DURATION NUMBER_OF_FRAMES NUMBER_OF_BYTES
_STATISTICS_TAGS-eng: BPS DURATION NUMBER_OF_FRAMES NUMBER_OF_BYTES
Stream #0:3(rus): Audio: dts (DTS-HD MA)
48000 Hz, 5.1, fltp, 1536 kb/s
Metadata:
title : DTSHD 5.1 Russian
BPS : 1979682
BPS-eng : 1979682
DURATION : 01:47:16.533000000
DURATION-eng : 01:47:16.533000000
NUMBER_OF_FRAMES: 603425
NUMBER_OF_FRAMES-eng: 603425
NUMBER_OF_BYTES : 1592786340
NUMBER_OF_BYTES-eng: 1592786340
_STATISTICS_WRITING_APP: mkvmerge v9.9.0 ('Pick Up') 64bit
_STATISTICS_WRITING_APP-eng: mkvmerge v9.9.0 ('Pick Up') 64bit
_STATISTICS_WRITING_DATE_UTC: 2017-03-20 11:46:24
_STATISTICS_WRITING_DATE_UTC-eng: 2017-03-20 11:46:24
_STATISTICS_TAGS: BPS DURATION NUMBER_OF_FRAMES NUMBER_OF_BYTES
_STATISTICS_TAGS-eng: BPS DURATION NUMBER_OF_FRAMES NUMBER_OF_BYTES
Stream #0:4(fre): Audio: dts
48000 Hz, 6 channels, fltp
Metadata:
title : DTS French
BPS : 768000
BPS-eng : 768000
DURATION : 01:46:34.389000000
DURATION-eng : 01:46:34.389000000
NUMBER_OF_FRAMES: 599474
NUMBER_OF_FRAMES-eng: 599474
NUMBER_OF_BYTES : 613861376
NUMBER_OF_BYTES-eng: 613861376
_STATISTICS_WRITING_APP: mkvmerge v9.9.0 ('Pick Up') 64bit
_STATISTICS_WRITING_APP-eng: mkvmerge v9.9.0 ('Pick Up') 64bit
_STATISTICS_WRITING_DATE_UTC: 2017-03-20 11:46:24
_STATISTICS_WRITING_DATE_UTC-eng: 2017-03-20 11:46:24
_STATISTICS_TAGS: BPS DURATION NUMBER_OF_FRAMES NUMBER_OF_BYTES
_STATISTICS_TAGS-eng: BPS DURATION NUMBER_OF_FRAMES NUMBER_OF_BYTES
Stream #0:5(spa): Audio: dts
48000 Hz, 6 channels, fltp
Metadata:
title : DTS Spanish
BPS : 754499
BPS-eng : 754499
DURATION : 01:50:08.854000000
DURATION-eng : 01:50:08.854000000
NUMBER_OF_FRAMES: 619580
NUMBER_OF_FRAMES-eng: 619580
NUMBER_OF_BYTES : 623297480
NUMBER_OF_BYTES-eng: 623297480
_STATISTICS_WRITING_APP: mkvmerge v9.9.0 ('Pick Up') 64bit
_STATISTICS_WRITING_APP-eng: mkvmerge v9.9.0 ('Pick Up') 64bit
_STATISTICS_WRITING_DATE_UTC: 2017-03-20 11:46:24
_STATISTICS_WRITING_DATE_UTC-eng: 2017-03-20 11:46:24
_STATISTICS_TAGS: BPS DURATION NUMBER_OF_FRAMES NUMBER_OF_BYTES
_STATISTICS_TAGS-eng: BPS DURATION NUMBER_OF_FRAMES NUMBER_OF_BYTES
Stream #0:6(eng): Subtitle: srt (default)
Metadata:
BPS : 39
BPS-eng : 39
DURATION : 01:35:43.237000000
DURATION-eng : 01:35:43.237000000
NUMBER_OF_FRAMES: 897
NUMBER_OF_FRAMES-eng: 897
NUMBER_OF_BYTES : 28243
NUMBER_OF_BYTES-eng: 28243
_STATISTICS_WRITING_APP: mkvmerge v9.9.0 ('Pick Up') 64bit
_STATISTICS_WRITING_APP-eng: mkvmerge v9.9.0 ('Pick Up') 64bit
_STATISTICS_WRITING_DATE_UTC: 2017-03-20 11:46:24
_STATISTICS_WRITING_DATE_UTC-eng: 2017-03-20 11:46:24
_STATISTICS_TAGS: BPS DURATION NUMBER_OF_FRAMES NUMBER_OF_BYTES
_STATISTICS_TAGS-eng: BPS DURATION NUMBER_OF_FRAMES NUMBER_OF_BYTES
Stream #0:7(eng): Subtitle: srt
Metadata:
title : SDH
BPS : 45
BPS-eng : 45
DURATION : 01:37:15.705000000
DURATION-eng : 01:37:15.705000000
NUMBER_OF_FRAMES: 1233
NUMBER_OF_FRAMES-eng: 1233
NUMBER_OF_BYTES : 33171
NUMBER_OF_BYTES-eng: 33171
_STATISTICS_WRITING_APP: mkvmerge v9.9.0 ('Pick Up') 64bit
_STATISTICS_WRITING_APP-eng: mkvmerge v9.9.0 ('Pick Up') 64bit
_STATISTICS_WRITING_DATE_UTC: 2017-03-20 11:46:24
_STATISTICS_WRITING_DATE_UTC-eng: 2017-03-20 11:46:24
_STATISTICS_TAGS: BPS DURATION NUMBER_OF_FRAMES NUMBER_OF_BYTES
_STATISTICS_TAGS-eng: BPS DURATION NUMBER_OF_FRAMES NUMBER_OF_BYTES
Stream #0:8(chi): Subtitle: hdmv_pgs_subtitle
Metadata:
BPS : 15356
BPS-eng : 15356
DURATION : 01:41:47.809000000
DURATION-eng : 01:41:47.809000000
NUMBER_OF_FRAMES: 1972
NUMBER_OF_FRAMES-eng: 1972
NUMBER_OF_BYTES : 11724336
NUMBER_OF_BYTES-eng: 11724336
_STATISTICS_WRITING_APP: mkvmerge v9.9.0 ('Pick Up') 64bit
_STATISTICS_WRITING_APP-eng: mkvmerge v9.9.0 ('Pick Up') 64bit
_STATISTICS_WRITING_DATE_UTC: 2017-03-20 11:46:24
_STATISTICS_WRITING_DATE_UTC-eng: 2017-03-20 11:46:24
_STATISTICS_TAGS: BPS DURATION NUMBER_OF_FRAMES NUMBER_OF_BYTES
_STATISTICS_TAGS-eng: BPS DURATION NUMBER_OF_FRAMES NUMBER_OF_BYTES
Stream #0:9(chi): Subtitle: hdmv_pgs_subtitle
Metadata:
BPS : 9207
BPS-eng : 9207
DURATION : 01:40:46.874000000
DURATION-eng : 01:40:46.874000000
NUMBER_OF_FRAMES: 1576
NUMBER_OF_FRAMES-eng: 1576
NUMBER_OF_BYTES : 6959805
NUMBER_OF_BYTES-eng: 6959805
_STATISTICS_WRITING_APP: mkvmerge v9.9.0 ('Pick Up') 64bit
_STATISTICS_WRITING_APP-eng: mkvmerge v9.9.0 ('Pick Up') 64bit
_STATISTICS_WRITING_DATE_UTC: 2017-03-20 11:46:24
_STATISTICS_WRITING_DATE_UTC-eng: 2017-03-20 11:46:24
_STATISTICS_TAGS: BPS DURATION NUMBER_OF_FRAMES NUMBER_OF_BYTES
_STATISTICS_TAGS-eng: BPS DURATION NUMBER_OF_FRAMES NUMBER_OF_BYTES
Stream #0:10(chi): Subtitle: hdmv_pgs_subtitle
Metadata:
BPS : 8574
BPS-eng : 8574
DURATION : 01:40:46.874000000
DURATION-eng : 01:40:46.874000000
NUMBER_OF_FRAMES: 1576
NUMBER_OF_FRAMES-eng: 1576
NUMBER_OF_BYTES : 6481286
NUMBER_OF_BYTES-eng: 6481286
_STATISTICS_WRITING_APP: mkvmerge v9.9.0 ('Pick Up') 64bit
_STATISTICS_WRITING_APP-eng: mkvmerge v9.9.0 ('Pick Up') 64bit
_STATISTICS_WRITING_DATE_UTC: 2017-03-20 11:46:24
_STATISTICS_WRITING_DATE_UTC-eng: 2017-03-20 11:46:24
_STATISTICS_TAGS: BPS DURATION NUMBER_OF_FRAMES NUMBER_OF_BYTES
_STATISTICS_TAGS-eng: BPS DURATION NUMBER_OF_FRAMES NUMBER_OF_BYTES
Stream #0:11(chi): Subtitle: hdmv_pgs_subtitle
Metadata:
BPS : 14932
BPS-eng : 14932
DURATION : 01:40:46.874000000
DURATION-eng : 01:40:46.874000000
NUMBER_OF_FRAMES: 1576
NUMBER_OF_FRAMES-eng: 1576
NUMBER_OF_BYTES : 11286606
NUMBER_OF_BYTES-eng: 11286606
_STATISTICS_WRITING_APP: mkvmerge v9.9.0 ('Pick Up') 64bit
_STATISTICS_WRITING_APP-eng: mkvmerge v9.9.0 ('Pick Up') 64bit
_STATISTICS_WRITING_DATE_UTC: 2017-03-20 11:46:24
_STATISTICS_WRITING_DATE_UTC-eng: 2017-03-20 11:46:24
_STATISTICS_TAGS: BPS DURATION NUMBER_OF_FRAMES NUMBER_OF_BYTES
_STATISTICS_TAGS-eng: BPS DURATION NUMBER_OF_FRAMES NUMBER_OF_BYTES
Stream #0:12(fre): Subtitle: srt
Metadata:
BPS : 45
BPS-eng : 45
DURATION : 01:44:54.079000000
DURATION-eng : 01:44:54.079000000
NUMBER_OF_FRAMES: 961
NUMBER_OF_FRAMES-eng: 961
NUMBER_OF_BYTES : 36157
NUMBER_OF_BYTES-eng: 36157
_STATISTICS_WRITING_APP: mkvmerge v9.9.0 ('Pick Up') 64bit
_STATISTICS_WRITING_APP-eng: mkvmerge v9.9.0 ('Pick Up') 64bit
_STATISTICS_WRITING_DATE_UTC: 2017-03-20 11:46:24
_STATISTICS_WRITING_DATE_UTC-eng: 2017-03-20 11:46:24
_STATISTICS_TAGS: BPS DURATION NUMBER_OF_FRAMES NUMBER_OF_BYTES
_STATISTICS_TAGS-eng: BPS DURATION NUMBER_OF_FRAMES NUMBER_OF_BYTES
Stream #0:13(spa): Subtitle: hdmv_pgs_subtitle
Metadata:
BPS : 7329
BPS-eng : 7329
DURATION : 01:39:17.743000000
DURATION-eng : 01:39:17.743000000
NUMBER_OF_FRAMES: 1861
NUMBER_OF_FRAMES-eng: 1861
NUMBER_OF_BYTES : 5458415
NUMBER_OF_BYTES-eng: 5458415
_STATISTICS_WRITING_APP: mkvmerge v9.9.0 ('Pick Up') 64bit
_STATISTICS_WRITING_APP-eng: mkvmerge v9.9.0 ('Pick Up') 64bit
_STATISTICS_WRITING_DATE_UTC: 2017-03-20 11:46:24
_STATISTICS_WRITING_DATE_UTC-eng: 2017-03-20 11:46:24
_STATISTICS_TAGS: BPS DURATION NUMBER_OF_FRAMES NUMBER_OF_BYTES
_STATISTICS_TAGS-eng: BPS DURATION NUMBER_OF_FRAMES NUMBER_OF_BYTES
Stream #0:14(rus): Subtitle: srt
Metadata:
BPS : 67
BPS-eng : 67
DURATION : 01:35:43.730000000
DURATION-eng : 01:35:43.730000000
NUMBER_OF_FRAMES: 1035
NUMBER_OF_FRAMES-eng: 1035
NUMBER_OF_BYTES : 48504
NUMBER_OF_BYTES-eng: 48504
_STATISTICS_WRITING_APP: mkvmerge v9.9.0 ('Pick Up') 64bit
_STATISTICS_WRITING_APP-eng: mkvmerge v9.9.0 ('Pick Up') 64bit
_STATISTICS_WRITING_DATE_UTC: 2017-03-20 11:46:24
_STATISTICS_WRITING_DATE_UTC-eng: 2017-03-20 11:46:24
_STATISTICS_TAGS: BPS DURATION NUMBER_OF_FRAMES NUMBER_OF_BYTES
_STATISTICS_TAGS-eng: BPS DURATION NUMBER_OF_FRAMES NUMBER_OF_BYTES
Stream #0:15: Video: mjpeg
yuvj420p, pc, bt470bg/unknown/unknown
500x630 [PAR 96:96 DAR 50:63]
90k tbn
Metadata:
filename : cover.jpg
mimetype : image/jpeg
[08:02:44] scan: decoding previews for title 1
[08:02:44] scan: audio 0x3: dca, rate=48000Hz, bitrate=1536000 ??????? (DTS-HD MA) (5.1 ch)
[08:02:45] scan: audio 0x4: dca, rate=48000Hz, bitrate=768000 Francais (DTS) (5.1 ch)
[08:02:45] scan: audio 0x5: dca, rate=48000Hz, bitrate=768000 español (DTS) (5.1 ch)
[08:02:45] scan: audio 0x1: dca, rate=48000Hz, bitrate=1536000 English (DTS-HD MA) (5.1 ch)
[08:02:45] scan: audio 0x2: dca, rate=48000Hz, bitrate=1536000 English (DTS) (5.1 ch)
[hevc @ 0000029d002f3180] Could not find ref with POC 20
[hevc @ 0000029d002f3180] Could not find ref with POC 18
[hevc @ 0000029d002f3180] Could not find ref with POC 16
[08:03:01] scan: 10 previews, 3840x1596, 23.976 fps, autocrop = 0/0/0/0, aspect 2.41:1, PAR 1:1
[08:03:01] libhb: scan thread found 1 valid title(s)
[08:03:01] Skipping subtitle scan. No suitable subtitle tracks.
[08:03:01] starting job
[08:03:01] decomb filter thread started for segment 0
[08:03:01] decomb filter thread started for segment 1
[08:03:01] decomb filter thread started for segment 2
[08:03:01] decomb filter thread started for segment 3
[08:03:01] decomb filter thread started for segment 4
[08:03:01] decomb filter thread started for segment 5
[08:03:01] decomb filter thread started for segment 6
[08:03:01] decomb filter thread started for segment 7
[08:03:01] decomb check thread started for segment 0
[08:03:01] decomb check thread started for segment 1
[08:03:01] decomb check thread started for segment 2
[08:03:01] decomb check thread started for segment 3
[08:03:01] decomb check thread started for segment 4
[08:03:01] decomb check thread started for segment 5
[08:03:01] decomb check thread started for segment 6
[08:03:01] decomb check thread started for segment 7
[08:03:01] mask filter thread started for segment 0
[08:03:01] mask filter thread started for segment 1
[08:03:01] mask filter thread started for segment 2
[08:03:01] mask filter thread started for segment 3
[08:03:01] mask filter thread started for segment 5
[08:03:01] mask filter thread started for segment 6
[08:03:01] mask filter thread started for segment 7
[08:03:01] mask filter thread started for segment 4
[08:03:01] mask erode thread started for segment 1
[08:03:01] mask erode thread started for segment 0
[08:03:01] mask erode thread started for segment 2
[08:03:01] mask erode thread started for segment 4
[08:03:01] mask erode thread started for segment 5
[08:03:01] mask erode thread started for segment 3
[08:03:01] mask erode thread started for segment 6
[08:03:01] mask erode thread started for segment 7
[08:03:01] mask dilate thread started for segment 0
[08:03:01] mask dilate thread started for segment 1
[08:03:01] mask dilate thread started for segment 2
[08:03:01] mask dilate thread started for segment 3
[08:03:01] mask dilate thread started for segment 4
[08:03:01] mask dilate thread started for segment 5
[08:03:01] mask dilate thread started for segment 6
[08:03:01] mask dilate thread started for segment 7
[08:03:01] yadif thread started for segment 0
[08:03:01] yadif thread started for segment 1
[08:03:01] yadif thread started for segment 2
[08:03:01] yadif thread started for segment 3
[08:03:01] yadif thread started for segment 4
[08:03:01] yadif thread started for segment 5
[08:03:01] yadif thread started for segment 6
[08:03:01] yadif thread started for segment 7
[08:03:01] work: track 1, dithering not supported by codec
[08:03:01] job configuration:
[08:03:01] * source
[08:03:01] + C:\Users\Administrator\Downloads\Video\XtreamerTransfer\The Last Witch Hunter 2015 Multi 2160p UHD 4K HEVC HDR DTS-X 7.1.mkv
[08:03:01] + title 1, start 00:00:0.00 stop 00:00:30.00
[08:03:01] + container: matroska,webm
[08:03:01] + data rate: 54689 kbps
[08:03:01] * destination
[08:03:01] + C:\Users\Administrator\Downloads\Video\XtreamerTransfer\ConvertedVideo\The Last Witch Hunter 2015 Multi 2160p UHD 4K HEVC HDR DTS-X 7.1_preview.mkv
[08:03:01] + container: Matroska (libavformat)
[08:03:01] + chapter markers
[08:03:01] * video track
[08:03:01] + decoder: hevc
[08:03:01] + filters
[08:03:01] + Comb Detect (mode=3:spatial-metric=2:motion-thresh=1:spatial-thresh=1:filter-mode=2:block-thresh=40:block-width=16:block-height=16)
[08:03:01] + Decomb (mode=39)
[08:03:01] + Framerate Shaper (mode=2:rate=27000000/900000)
[08:03:01] + frame rate: 23.976 fps -> peak rate limited to 30.000 fps
[08:03:01] + Crop and Scale (width=1920:height=1080:crop-top=0:crop-bottom=0:crop-left=0:crop-right=0)
[08:03:01] + source: 3840 * 1596, crop (0/0/0/0): 3840 * 1596, scale: 1920 * 1080
[08:03:01] + Output geometry
[08:03:01] + storage dimensions: 1920 x 1080
[08:03:01] + pixel aspect ratio: 180 : 133
[08:03:01] + display dimensions: 2598 x 1080
[08:03:01] + encoder: H.264 (libx264)
[08:03:01] + preset: medium
[08:03:01] + profile: main
[08:03:01] + level: 4.0
[08:03:01] + quality: 22.00 (RF)
[08:03:01] * subtitle track 1, English (track 0, id 0x6) Text [UTF-8] -> Passthrough
[08:03:01] * audio track 1
[08:03:01] + decoder: English (DTS) (5.1 ch) (track 2, id 0x2)
[08:03:01] + bitrate: 1536 kbps, samplerate: 48000 Hz
[08:03:01] + mixdown: 5.1 Channels
[08:03:01] + encoder: AAC (libavcodec)
[08:03:01] + bitrate: 512 kbps, samplerate: 48000 Hz
[08:03:01] sync: expecting 743 video frames
[08:03:01] encx264: min-keyint: 24, keyint: 240
[08:03:01] encx264: encoding at constant RF 22.000000
[08:03:01] encx264: unparsed options: level=4.0:vbv-bufsize=25000:8x8dct=0:vbv-maxrate=20000
x264 [info]: using SAR=180/133
x264 [info]: using cpu capabilities: MMX2 SSE2Fast SSSE3 SSE4.2 AVX
x264 [info]: profile Main, level 4.0
[08:03:04] sync: first pts video is 0
[08:03:04] sync: first pts audio 0x2 is 180
[08:03:15] sync: first pts subtitle 0x6 is 409860
[08:04:53] sync: reached audio 0x2 pts 2700660, exiting early
[08:04:54] sync: reached video pts 2702700, exiting early
[08:05:15] work: average encoding speed for job is 6.536662 fps
[08:05:15] comb detect: heavy 14 | light 11 | uncombed 695 | total 720
[08:05:15] decomb: deinterlaced 14 | blended 11 | unfiltered 695 | total 720
[08:05:15] vfr: 720 frames output, 0 dropped and 0 duped for CFR/PFR
[08:05:15] vfr: lost time: 0 (0 frames)
[08:05:15] vfr: gained time: 0 (0 frames) (0 not accounted for)
[08:05:15] dca-decoder done: 3789 frames, 0 decoder errors
[08:05:15] hevc-decoder done: 947 frames, 0 decoder errors
[08:05:15] sync: got 720 frames, 743 expected
[08:05:15] sync: framerate min 23.981 fps, max 23.981 fps, avg 23.976 fps
x264 [info]: frame I:24 Avg QP:19.43 size: 70651
x264 [info]: frame P:394 Avg QP:22.07 size: 19104
x264 [info]: frame B:302 Avg QP:22.47 size: 11285
x264 [info]: consecutive B-frames: 42.2% 4.4% 3.3% 50.0%
x264 [info]: mb I I16..4: 42.0% 0.0% 58.0%
x264 [info]: mb P I16..4: 9.7% 0.0% 4.0% P16..4: 40.2% 6.1% 6.4% 0.0% 0.0% skip:33.6%
x264 [info]: mb B I16..4: 1.6% 0.0% 0.5% B16..8: 50.2% 2.4% 0.3% direct: 3.1% skip:41.9% L0:46.3% L1:52.8% BI: 0.9%
x264 [info]: coded y,uvDC,uvAC intra: 37.6% 48.7% 7.7% inter: 7.9% 21.0% 0.0%
x264 [info]: i16 v,h,dc,p: 33% 20% 9% 38%
x264 [info]: i4 v,h,dc,ddl,ddr,vr,hd,vl,hu: 26% 14% 31% 6% 6% 5% 4% 5% 2%
x264 [info]: i8c dc,h,v,p: 60% 17% 19% 4%
x264 [info]: Weighted P-Frames: Y:3.8% UV:3.0%
x264 [info]: ref P L0: 63.9% 10.7% 15.4% 9.1% 0.9%
x264 [info]: ref B L0: 88.0% 9.5% 2.6%
x264 [info]: ref B L1: 95.6% 4.4%
x264 [info]: kb/s:3364.82
[08:05:15] mux: track 0, 720 frames, 12630080 bytes, 3364.66 kbps, fifo 1024
[08:05:15] mux: track 1, 1407 frames, 1921474 bytes, 511.88 kbps, fifo 2048
[08:05:15] mux: track 2, 9 frames, 443 bytes, 0.12 kbps, fifo 16
[08:05:15] libhb: work result = 0

# Encode Completed ...
Last edited by ManilaByNight on Sun May 07, 2017 12:06 pm, edited 1 time in total.

ManilaByNight
Posts: 6
Joined: Mon Feb 13, 2017 11:13 pm

Re: Decoder and/or Passthru for DTS-X and DTS-Core

Post by ManilaByNight » Sun May 07, 2017 12:04 pm

The resulting .mkv movie file has a problem where the lips and audio do not sync.

User avatar
BradleyS
Moderator
Posts: 1608
Joined: Thu Aug 09, 2007 12:16 pm

Re: Decoder and/or Passthru for DTS-X and DTS-Core

Post by BradleyS » Sun May 14, 2017 7:19 pm

Locked for rule violations.

Locked