Encode Hangs At End And Does Not Complete

Archive of historical bug reports.
Please use the GitHub link above to report issues.
Forum rules
*******************************

Please be aware we are now using GitHub for issue tracking and feature requests.

- This forum is now closed to new topics.
- Existing topics will remain open for a short while as the transition over occurs.
*******************************
Post Reply
Bjomesphat
Posts: 43
Joined: Thu Sep 03, 2015 12:00 am

Encode Hangs At End And Does Not Complete

Post by Bjomesphat » Sat Jan 09, 2016 7:35 pm

Please describe the problem in as much detail as possible:
Encoding hangs at the end of any job with only a few seconds remaining, and never finishes to completion. I have to manually stop encode.
What are the steps to reproduce this problem:
Encode any file
What version of HandBrake you are running:
Current nightly: 20160105201345-ee1167e-master (2016010701) - 64bit Version
What operating system and version and you running (e.g. OSX 10.11, Windows 7, Ubuntu 14):
Windows 8.1
Please include the scan or encode log:

Code: Select all

HandBrake Nightly 20160105201345-ee1167e-master (2016010701) - 64bit Version
OS: Microsoft Windows NT 6.2.9200.0 - 64bit
CPU: Intel(R) Core(TM) i7-4770K CPU @ 3.50GHz
Ram: 8130 MB, 
GPU Information:
  NVIDIA GeForce GTX 970 - 10.18.13.6143
Screen: 1920x1080
Temp Dir: C:\Users\Brandon\AppData\Local\Temp\
Install Dir: C:\Program Files\Handbrake
Data Dir: C:\Users\Brandon\AppData\Roaming\HandBrake Team\HandBrake\0.0.0.0

-------------------------------------------

# Starting Encode ...
[14:18:07] 1 job(s) to process
[14:18:07] json job:
{

  "Audio": {

    "AudioList": [

      {

        "DRC": 0.0,

        "Encoder": 1125984256,

        "Gain": 0.0,

        "Mixdown": 0,

        "NormalizeMixLevel": false,

        "Samplerate": 0,

        "Name": "",

        "Track": 0,

        "DitherMethod": 0

      }

    ],

    "CopyMask": [

      1073807360,

      1073743872,

      1074003968,

      1073750016,

      1090519040,

      1074790400,

      1074266112,

      1107296256

    ],

    "FallbackEncoder": 2048

  },

  "Destination": {

    "ChapterList": [

      {

        "Name": "Chapter 1"

      },

      {

        "Name": "Chapter 2"

      },

      {

        "Name": "Chapter 3"

      },

      {

        "Name": "Chapter 4"

      },

      {

        "Name": "Chapter 5"

      },

      {

        "Name": "Chapter 6"

      },

      {

        "Name": "Chapter 7"

      },

      {

        "Name": "Chapter 8"

      },

      {

        "Name": "Chapter 9"

      },

      {

        "Name": "Chapter 10"

      },

      {

        "Name": "Chapter 11"

      },

      {

        "Name": "Chapter 12"

      }

    ],

    "ChapterMarkers": true,

    "File": "G:\\The X-Files, Season 1 Disc 2 t03.mkv",

    "Mp4Options": {

      "IpodAtom": false,

      "Mp4Optimize": false

    },

    "Mux": 2097152

  },

  "Filters": {

    "FilterList": [

      {

        "ID": 3

      },

      {

        "ID": 5,

        "Settings": "0"

      },

      {

        "ID": 10,

        "Settings": "1920:1080:0:0:0:0"

      }

    ]

  },

  "PAR": {

    "Num": 1,

    "Den": 1

  },

  "Metadata": {},

  "SequenceID": 0,

  "Source": {

    "Angle": 1,

    "Range": {

      "Type": "time",

      "Start": 94680000,

      "End": 900000

    },

    "Title": 1,

    "Path": "G:\\RAW BDs\\The_X-Files,_Season_1_Disc_2_t03.mkv"

  },

  "Subtitle": {

    "Search": {

      "Burn": false,

      "Default": false,

      "Enable": false,

      "Forced": false

    },

    "SubtitleList": []

  },

  "Video": {

    "Encoder": 65536,

    "Level": "auto",

    "TwoPass": false,

    "Turbo": false,

    "ColorMatrixCode": 0,

    "Options": "",

    "Preset": "veryslow",

    "Profile": "auto",

    "Quality": 20.0,

    "Tune": "film",

    "OpenCL": false,

    "HWDecode": false,

    "QSV": {

      "Decode": true,

      "AsyncDepth": 0

    }

  }

}
[14:18:07] CPU: Intel(R) Core(TM) i7-4770K CPU @ 3.50GHz
[14:18:07]  - Intel microarchitecture Haswell
[14:18:07]  - logical processor count: 8
[14:18:07] OpenCL device #1: NVIDIA Corporation GeForce GTX 970
[14:18:07]  - OpenCL version: 1.2 CUDA
[14:18:07]  - driver version: 361.43
[14:18:07]  - device type:    GPU
[14:18:07]  - supported:      no
[14:18:07] Intel Quick Sync Video support: no
[14:18:07] hb_scan: path=G:\RAW BDs\The_X-Files,_Season_1_Disc_2_t03.mkv, title_index=1
udfread ERROR: ECMA 167 Volume Recognition failed
src/libbluray/disc/disc.c:251: failed opening UDF image G:\RAW BDs\The_X-Files,_Season_1_Disc_2_t03.mkv
src/libbluray/disc/disc.c:332: error opening file BDMV\index.bdmv
src/libbluray/disc/disc.c:332: error opening file BDMV\BACKUP\index.bdmv
[14:18:07] bd: not a bd - trying as a stream/file instead
libdvdnav: Using dvdnav version 5.0.1
libdvdread: Encrypted DVD support unavailable.
libdvdread:DVDOpenFileUDF:UDFFindFile /VIDEO_TS/VIDEO_TS.IFO failed
libdvdread:DVDOpenFileUDF:UDFFindFile /VIDEO_TS/VIDEO_TS.BUP failed
libdvdread: Can't open file VIDEO_TS.IFO.
libdvdnav: vm: failed to read VIDEO_TS.IFO
[14:18:07] dvd: not a dvd - trying as a stream/file instead
Input #0, matroska,webm, from 'G:\RAW BDs\The_X-Files,_Season_1_Disc_2_t03.mkv':
  Metadata:
    title           : The X-Files, Season 1 Disc 2
  Duration: 00:45:51.54, start: 0.000000, bitrate: N/A
    Chapter #0.0: start 0.000000, end 198.323125
    Metadata:
      title           : Chapter 01
    Chapter #0.1: start 198.323125, end 244.035458
    Metadata:
      title           : Chapter 02
    Chapter #0.2: start 244.035458, end 517.725542
    Metadata:
      title           : Chapter 03
    Chapter #0.3: start 517.725542, end 762.636875
    Metadata:
      title           : Chapter 04
    Chapter #0.4: start 762.636875, end 1050.924875
    Metadata:
      title           : Chapter 05
    Chapter #0.5: start 1050.924875, end 1245.661083
    Metadata:
      title           : Chapter 06
    Chapter #0.6: start 1245.661083, end 1572.737833
    Metadata:
      title           : Chapter 07
    Chapter #0.7: start 1572.737833, end 1941.356083
    Metadata:
      title           : Chapter 08
    Chapter #0.8: start 1941.356083, end 2299.171875
    Metadata:
      title           : Chapter 09
    Chapter #0.9: start 2299.171875, end 2445.359583
    Metadata:
      title           : Chapter 10
    Chapter #0.10: start 2445.359583, end 2719.466750
    Metadata:
      title           : Chapter 11
    Chapter #0.11: start 2719.466750, end 2751.540458
    Metadata:
      title           : Chapter 12
    Stream #0.0(eng): Video: h264 (High), yuv420p, 1920x1080 [PAR 1:1 DAR 16:9], 23.98 fps, 1k tbn, 47.95 tbc
    Stream #0.1(eng): Audio: dca (DTS-HD MA), 48000 Hz, 5.1, fltp, 1536 kb/s (default)
    Metadata:
      title           : Surround 5.1
[14:18:07] scan: decoding previews for title 1
[14:18:07] scan: audio 0x1: dca, rate=48000Hz, bitrate=1536000 English (DTS-HD MA) (5.1 ch)
[14:18:10] scan: 10 previews, 1920x1080, 23.976 fps, autocrop = 0/0/0/0, aspect 16:9, PAR 1:1
[14:18:10] scan: supported video decoders: avcodec qsv dxva2
[14:18:10] libhb: scan thread found 1 valid title(s)
[14:18:10] starting job
[14:18:10] yadif thread started for segment 0
[14:18:10] yadif thread started for segment 1
[14:18:10] yadif thread started for segment 2
[14:18:10] yadif thread started for segment 3
[14:18:10] yadif thread started for segment 4
[14:18:10] decomb filter thread started for segment 1
[14:18:10] yadif thread started for segment 6
[14:18:10] yadif thread started for segment 7
[14:18:10] decomb filter thread started for segment 5
[14:18:10] yadif thread started for segment 5
[14:18:10] decomb filter thread started for segment 2
[14:18:10] decomb filter thread started for segment 3
[14:18:10] decomb filter thread started for segment 4
[14:18:10] decomb filter thread started for segment 0
[14:18:10] decomb filter thread started for segment 6
[14:18:10] decomb filter thread started for segment 7
[14:18:10] decomb check thread started for segment 6
[14:18:10] decomb check thread started for segment 7
[14:18:10] decomb check thread started for segment 2
[14:18:10] decomb check thread started for segment 3
[14:18:10] decomb check thread started for segment 4
[14:18:10] decomb check thread started for segment 5
[14:18:10] decomb check thread started for segment 0
[14:18:10] decomb check thread started for segment 1
[14:18:10] mask filter thread started for segment 0
[14:18:10] mask filter thread started for segment 1
[14:18:10] mask filter thread started for segment 2
[14:18:10] mask filter thread started for segment 3
[14:18:10] mask erode thread started for segment 1
[14:18:10] mask erode thread started for segment 2
[14:18:10] mask filter thread started for segment 5
[14:18:10] mask filter thread started for segment 6
[14:18:10] mask filter thread started for segment 7
[14:18:10] mask erode thread started for segment 0
[14:18:10] mask filter thread started for segment 4
[14:18:10] mask erode thread started for segment 3
[14:18:10] mask erode thread started for segment 4
[14:18:10] mask erode thread started for segment 5
[14:18:10] mask erode thread started for segment 6
[14:18:10] mask erode thread started for segment 7
[14:18:10] mask dilate thread started for segment 0
[14:18:10] mask dilate thread started for segment 1
[14:18:10] mask dilate thread started for segment 2
[14:18:10] mask dilate thread started for segment 3
[14:18:10] mask dilate thread started for segment 4
[14:18:10] mask dilate thread started for segment 5
[14:18:10] Auto Passthru: allowed codecs are AAC, AC3, E-AC3, TrueHD, DTS, DTS-HD, MP3, FLAC
[14:18:10] Auto Passthru: fallback is AC3
[14:18:10] mask dilate thread started for segment 6
[14:18:10] Auto Passthru: using DTS-HD Passthru for track 1
[14:18:10] mask dilate thread started for segment 7
[14:18:10] job configuration:
[14:18:10]  * source
[14:18:10]    + G:\RAW BDs\The_X-Files,_Season_1_Disc_2_t03.mkv
[14:18:10]    + title 1, start 00:17:32.00 stop 00:17:42.00
[14:18:10]    + container: matroska,webm
[14:18:10]  * destination
[14:18:10]    + G:\The X-Files, Season 1 Disc 2 t03.mkv
[14:18:10]    + container: Matroska (libavformat)
[14:18:10]      + chapter markers
[14:18:10]  * video track
[14:18:10]    + decoder: h264
[14:18:10]    + filters
[14:18:10]      + Decomb (default settings)
[14:18:10]      + Framerate Shaper (0)
[14:18:10]        + frame rate: same as source (around 23.976 fps)
[14:18:10]      + Crop and Scale (1920:1080:0:0:0:0)
[14:18:10]        + source: 1920 * 1080, crop (0/0/0/0): 1920 * 1080, scale: 1920 * 1080
[14:18:10]    + Output geometry
[14:18:10]      + storage dimensions: 1920 x 1080
[14:18:10]      + pixel aspect ratio: 1 : 1
[14:18:10]      + display dimensions: 1920 x 1080
[14:18:10]    + encoder: H.264 (libx264)
[14:18:10]      + preset:  veryslow
[14:18:10]      + tune:    film
[14:18:10]      + profile: auto
[14:18:10]      + level:   auto
[14:18:10]      + quality: 20.00 (RF)
[14:18:10]  * audio track 1
[14:18:10]    + decoder: English (DTS-HD MA) (5.1 ch) (track 1, id 0x1)
[14:18:10]      + bitrate: 1536 kbps, samplerate: 48000 Hz
[14:18:10]    + DTS-HD Passthru
[14:18:10] sync: expecting 263 video frames
[14:18:10] encx264: min-keyint: 24, keyint: 240
[14:18:10] encx264: encoding at constant RF 20.000000
[14:18:10] encx264: unparsed options: direct=auto:ref=16:b-adapt=2:analyse=all:bframes=8:deblock=-1,-1:me=umh:merange=24:rc-lookahead=60:subme=10:trellis=2:psy-rd=1,0.15
x264 [info]: using SAR=1/1
x264 [info]: using cpu capabilities: MMX2 SSE2Fast SSSE3 SSE4.2 AVX FMA3 AVX2 LZCNT BMI2
x264 [info]: profile High, level 5.1
[14:18:10] reader: first SCR 94583250 id 0x0 DTS 94583250
[14:18:30] sync: first pts is 86310
[14:18:30] sync: video time didn't advance - dropped 3 frames (delta 85 ms, current 0, next 3600, dur 3600)
# Encode Stopped
[14:26:35] work: average encoding speed for job is 7.448084 fps
[14:26:35] decomb: deinterlaced 0 | blended 0 | unfiltered 235 | total 235
[14:26:35] render: lost time: 0 (0 frames)
[14:26:35] render: gained time: 0 (0 frames) (0 not accounted for)
[14:26:36] dca-decoder done: 0 frames, 0 decoder errors, 0 drops
[14:26:36] h264-decoder done: 271 frames, 0 decoder errors, 0 drops
[14:26:36] sync: got 236 frames, 263 expected
x264 [info]: frame I:2     Avg QP:18.80  size:126714
x264 [info]: frame P:26    Avg QP:20.41  size: 75599
x264 [info]: frame B:123   Avg QP:21.04  size: 45958
x264 [info]: consecutive B-frames:  2.0%  0.0%  0.0%  5.3%  6.6% 75.5%  4.6%  0.0%  6.0%
x264 [info]: mb I  I16..4:  7.2% 90.5%  2.2%
x264 [info]: mb P  I16..4:  2.7% 37.8%  0.5%  P16..4: 43.4%  9.3%  4.6%  0.0%  0.0%    skip: 1.7%
x264 [info]: mb B  I16..4:  0.8% 12.2%  0.0%  B16..8: 37.0% 11.4%  2.1%  direct:13.9%  skip:22.5%  L0:52.8% L1:41.0% BI: 6.2%
x264 [info]: 8x8 transform intra:92.8% inter:60.4%
x264 [info]: direct mvs  spatial:94.3% temporal:5.7%
x264 [info]: coded y,uvDC,uvAC intra: 87.8% 80.3% 31.0% inter: 37.1% 41.7% 0.6%
x264 [info]: i16 v,h,dc,p: 13% 11% 43% 33%
x264 [info]: i8 v,h,dc,ddl,ddr,vr,hd,vl,hu: 10%  7% 33%  7%  8%  8%  8%  8% 10%
x264 [info]: i4 v,h,dc,ddl,ddr,vr,hd,vl,hu: 12%  6%  5% 10% 15% 18% 14% 11% 10%
x264 [info]: i8c dc,h,v,p: 53% 24% 19%  5%
x264 [info]: Weighted P-Frames: Y:0.0% UV:0.0%
x264 [info]: ref P L0: 36.2%  4.9% 22.7%  9.1%  7.8%  5.2%  4.5%  2.4%  1.9%  1.5%  1.1%  0.9%  0.6%  0.6%  0.3%  0.2%
x264 [info]: ref B L0: 50.3% 17.8% 11.1%  5.9%  4.2%  3.2%  2.4%  1.4%  1.1%  0.8%  0.6%  0.5%  0.4%  0.2%  0.0%
x264 [info]: ref B L1: 84.9% 15.1%
x264 [info]: kb/s:10002.31
[14:26:36] mux: track 0, 151 frames, 7871725 bytes, 6264.98 kbps, fifo 128
[14:26:36] mux: track 1, 938 frames, 4517760 bytes, 3595.62 kbps, fifo 1024
[14:26:36] libhb: work result = 0
# Encode Completed ...

rollin_eng
Veteran User
Posts: 3021
Joined: Wed May 04, 2011 11:06 pm

Re: Encode Hangs At End And Does Not Complete

Post by rollin_eng » Sat Jan 09, 2016 7:44 pm

The log says it completed, so what do you see when it encodes?

Bjomesphat
Posts: 43
Joined: Thu Sep 03, 2015 12:00 am

Re: Encode Hangs At End And Does Not Complete

Post by Bjomesphat » Sat Jan 09, 2016 10:12 pm

If you scroll up in the log, you can see where I stopped it.

Right before that says this:
[14:18:30] sync: video time didn't advance - dropped 3 frames (delta 85 ms, current 0, next 3600, dur 3600)

Does that mean anything?

But all that happens is the encode never goes to completion. The elapsed time keeps ticking, and the time remaining stops anywhere from 1-4 seconds, and the percentage completion stops counting as well.

rollin_eng
Veteran User
Posts: 3021
Joined: Wed May 04, 2011 11:06 pm

Re: Encode Hangs At End And Does Not Complete

Post by rollin_eng » Sat Jan 09, 2016 10:38 pm

That could be a bad rip, what are you using to rip the disc?

Are your files stored locally or on a network?

Bjomesphat
Posts: 43
Joined: Thu Sep 03, 2015 12:00 am

Re: Encode Hangs At End And Does Not Complete

Post by Bjomesphat » Sun Jan 10, 2016 1:11 am

I'm using MakeMKV to rip the disc. And they're stored locally.

I forget which nightly I had installed before I updated to the latest one, but that was able to encode the same file fine. The reason I'm encoding again is because I wanted to do some x265 testing, and wanted any x265 version updates. Are old nightlies stored anywhere for download?

Smithcraft
Veteran User
Posts: 2691
Joined: Thu Jan 22, 2009 8:04 pm

Re: Encode Hangs At End And Does Not Complete

Post by Smithcraft » Sun Jan 10, 2016 10:44 am

Hopefully, you kept your download, as that’s the only repo of old nightlies. Unless something has changed in the last year.

SC

mod16
Posts: 78
Joined: Sun Jan 12, 2014 11:10 am

Re: Encode Hangs At End And Does Not Complete

Post by mod16 » Sun Jan 10, 2016 12:07 pm

I can confirm having the same issue since a few weeks (always using the latest dev build).

But only if I limit the time duration to be encoded - i.e. when making a 5 minute test encode of a random part of the source file. Encoding the whole file (begin/end), I never got this problem though.

But if it occures: GUI progress bar stops at 99,something% and never goes away. If I cancel the encode (which is possible) the output file still seems to be fine (but I didn't checked in detail if it's corrupted in any way, because it still serves it's purpose for me).

Bjomesphat
Posts: 43
Joined: Thu Sep 03, 2015 12:00 am

Re: Encode Hangs At End And Does Not Complete

Post by Bjomesphat » Sun Jan 10, 2016 2:23 pm

I was doing the same with making short time specific encodes. I did try the whole file and put it to ultra fast and got the same issue, but I should probably try a slower speed to see if that makes any difference.

rollin_eng
Veteran User
Posts: 3021
Joined: Wed May 04, 2011 11:06 pm

Re: Encode Hangs At End And Does Not Complete

Post by rollin_eng » Sun Jan 10, 2016 4:47 pm

Can you re-rip the disc?

Can you try encoding a full episode/movie and leave it overnight?

Bjomesphat
Posts: 43
Joined: Thu Sep 03, 2015 12:00 am

Re: Encode Hangs At End And Does Not Complete

Post by Bjomesphat » Sun Jan 10, 2016 6:54 pm

Sure, no problem.

Bjomesphat
Posts: 43
Joined: Thu Sep 03, 2015 12:00 am

Re: Encode Hangs At End And Does Not Complete

Post by Bjomesphat » Mon Jan 11, 2016 1:57 am

I re-ripped the file, reverted back to Handbrake 10.2 stable, and encoded around 8 minutes with success. Here is the log (in case you want to compare):

Code: Select all

HandBrake 0.10.2.7286 - 64bit Version
OS: Microsoft Windows NT 6.2.9200.0 - 64bit
CPU: Intel(R) Core(TM) i7-4770K CPU @ 3.50GHz
Ram: 8130 MB, 
GPU Information:
  NVIDIA GeForce GTX 970 - 10.18.13.6143
Screen: 1920x1080
Temp Dir: C:\Users\Brandon\AppData\Local\Temp\
Install Dir: C:\Program Files\Handbrake
Data Dir: C:\Users\Brandon\AppData\Roaming\HandBrake\HandBrake\0.10.2.7286

-------------------------------------------
CLI Query:  -i "G:\RAW BDs\The_X-Files,_Season_1_Disc_2_t03.mkv" -t 1 --angle 1 -c 3-4 -o "G:\The X-Files, Season 1 Disc 2 t03.mkv"  -f mkv  --decomb -w 1920 -l 1080 --crop 0:0:0:0 --modulus 2 -e x264 -q 20 --vfr -a 1 -E copy -6 none -R Auto -B 0 -D 0 --gain 0 --audio-fallback ac3 --markers="C:\Users\Brandon\AppData\Local\Temp\The X-Files, Season 1 Disc 2 t03-1-chapters.csv" --encoder-preset=slower  --encoder-tune="film"  --verbose=1

[20:21:29] hb_init: starting libhb thread
HandBrake 0.10.2 (2015060900) - MinGW x86_64 - https://handbrake.fr
8 CPUs detected
Opening G:\RAW BDs\The_X-Files,_Season_1_Disc_2_t03.mkv...
[20:21:29] CPU: Intel(R) Core(TM) i7-4770K CPU @ 3.50GHz
[20:21:29]  - Intel microarchitecture Haswell
[20:21:29]  - logical processor count: 8
[20:21:30] OpenCL device #1: NVIDIA Corporation GeForce GTX 970
[20:21:30]  - OpenCL version: 1.2 CUDA
[20:21:30]  - driver version: 361.43
[20:21:30]  - device type:    GPU
[20:21:30]  - supported:      no
[20:21:30] Intel Quick Sync Video support: no
[20:21:30] hb_scan: path=G:\RAW BDs\The_X-Files,_Season_1_Disc_2_t03.mkv, title_index=1
libbluray/bdnav/index_parse.c:162: indx_parse(): error opening G:\RAW BDs\The_X-Files,_Season_1_Disc_2_t03.mkv/BDMV/index.bdmv
libbluray/bdnav/index_parse.c:162: indx_parse(): error opening G:\RAW BDs\The_X-Files,_Season_1_Disc_2_t03.mkv/BDMV/BACKUP/index.bdmv
libbluray/bluray.c:2182: nav_get_title_list(G:\RAW BDs\The_X-Files,_Season_1_Disc_2_t03.mkv) failed
[20:21:30] bd: not a bd - trying as a stream/file instead
libdvdnav: Using dvdnav version 5.0.1
libdvdread: Encrypted DVD support unavailable.
libdvdread:DVDOpenFileUDF:UDFFindFile /VIDEO_TS/VIDEO_TS.IFO failed
libdvdread:DVDOpenFileUDF:UDFFindFile /VIDEO_TS/VIDEO_TS.BUP failed
libdvdread: Can't open file VIDEO_TS.IFO.
libdvdnav: vm: failed to read VIDEO_TS.IFO
[20:21:30] dvd: not a dvd - trying as a stream/file instead
Input #0, matroska,webm, from 'G:\RAW BDs\The_X-Files,_Season_1_Disc_2_t03.mkv':
  Metadata:
    title           : The X-Files, Season 1 Disc 2
  Duration: 00:45:51.54, start: 0.000000, bitrate: N/A
    Chapter #0.0: start 0.000000, end 198.323125
    Metadata:
      title           : Chapter 01
    Chapter #0.1: start 198.323125, end 244.035458
    Metadata:
      title           : Chapter 02
    Chapter #0.2: start 244.035458, end 517.725542
    Metadata:
      title           : Chapter 03
    Chapter #0.3: start 517.725542, end 762.636875
    Metadata:
      title           : Chapter 04
    Chapter #0.4: start 762.636875, end 1050.924875
    Metadata:
      title           : Chapter 05
    Chapter #0.5: start 1050.924875, end 1245.661083
    Metadata:
      title           : Chapter 06
    Chapter #0.6: start 1245.661083, end 1572.737833
    Metadata:
      title           : Chapter 07
    Chapter #0.7: start 1572.737833, end 1941.356083
    Metadata:
      title           : Chapter 08
    Chapter #0.8: start 1941.356083, end 2299.171875
    Metadata:
      title           : Chapter 09
    Chapter #0.9: start 2299.171875, end 2445.359583
    Metadata:
      title           : Chapter 10
    Chapter #0.10: start 2445.359583, end 2719.466750
    Metadata:
      title           : Chapter 11
    Chapter #0.11: start 2719.466750, end 2751.540458
    Metadata:
      title           : Chapter 12
    Stream #0.0(eng): Video: h264 (High), yuv420p, 1920x1080 [PAR 1:1 DAR 16:9], 23.98 fps, 1k tbn, 47.95 tbc
    Stream #0.1(eng): Audio: dca (DTS-HD MA), 48000 Hz, 5.1, fltp, 1536 kb/s (default)
    Metadata:
      title           : Surround 5.1
[20:21:30] scan: decoding previews for title 1
[20:21:30] scan: audio 0x1: dca, rate=48000Hz, bitrate=1536000 English (DTS-HD MA) (5.1 ch)
Scanning title 1 of 1, preview 2, 20.00 %
Scanning title 1 of 1, preview 3, 30.00 %
Scanning title 1 of 1, preview 4, 40.00 %
Scanning title 1 of 1, preview 6, 60.00 %
Scanning title 1 of 1, preview 7, 70.00 %
Scanning title 1 of 1, preview 8, 80.00 %
Scanning title 1 of 1, preview 10, 100.00 %[20:21:32] scan: 10 previews, 1920x1080, 23.976 fps, autocrop = 0/0/0/0, aspect 16:9, PAR 1:1
[20:21:32] libhb: scan thread found 1 valid title(s)
+ title 1:
  + stream: G:\RAW BDs\The_X-Files,_Season_1_Disc_2_t03.mkv
  + duration: 00:45:51
  + size: 1920x1080, pixel aspect: 1/1, display aspect: 1.78, 23.976 fps
  + autocrop: 0/0/0/0
  + support opencl: no
  + support hwd: yes
  + chapters:
    + 1: cells 0->0, 0 blocks, duration 00:03:18
    + 2: cells 0->0, 0 blocks, duration 00:00:46
    + 3: cells 0->0, 0 blocks, duration 00:04:34
    + 4: cells 0->0, 0 blocks, duration 00:04:05
    + 5: cells 0->0, 0 blocks, duration 00:04:48
    + 6: cells 0->0, 0 blocks, duration 00:03:15
    + 7: cells 0->0, 0 blocks, duration 00:05:27
    + 8: cells 0->0, 0 blocks, duration 00:06:09
    + 9: cells 0->0, 0 blocks, duration 00:05:58
    + 10: cells 0->0, 0 blocks, duration 00:02:26
    + 11: cells 0->0, 0 blocks, duration 00:04:34
    + 12: cells 0->0, 0 blocks, duration 00:00:32
  + audio tracks:
    + 1, English (DTS-HD MA) (5.1 ch) (iso639-2: eng)
  + subtitle tracks:
Reading chapter markers from file C:\Users\Brandon\AppData\Local\Temp\The X-Files, Season 1 Disc 2 t03-1-chapters.csv
[20:21:32] 1 job(s) to process
[20:21:32] starting job
[20:21:32] yadif thread started for segment 1
[20:21:32] yadif thread started for segment 0
[20:21:32] yadif thread started for segment 2
[20:21:32] yadif thread started for segment 3
[20:21:32] decomb check thread started for segment 0
[20:21:32] yadif thread started for segment 5
[20:21:32] yadif thread started for segment 6
[20:21:32] mask filter thread started for segment 1
[20:21:32] mask filter thread started for segment 3
[20:21:32] decomb filter thread started for segment 1
[20:21:32] decomb filter thread started for segment 2
[20:21:32] decomb filter thread started for segment 3
[20:21:32] decomb filter thread started for segment 4
[20:21:32] decomb filter thread started for segment 5
[20:21:32] decomb filter thread started for segment 6
[20:21:32] decomb filter thread started for segment 7
[20:21:32] yadif thread started for segment 4
[20:21:32] decomb check thread started for segment 1
[20:21:32] mask dilate thread started for segment 6
[20:21:32] Auto Passthru: allowed codecs are AAC, AC3, DTS, DTS-HD, MP3
[20:21:32] decomb check thread started for segment 2
[20:21:32] Auto Passthru: fallback is AC3
[20:21:32] decomb check thread started for segment 6
[20:21:32] decomb check thread started for segment 5
[20:21:32] decomb check thread started for segment 4
[20:21:32] Auto Passthru: using DTS-HD Passthru for track 1
[20:21:32] sync: expecting 12433 video frames
[20:21:32] mask filter thread started for segment 0
[20:21:32] decomb check thread started for segment 7
[20:21:32] job configuration:
[20:21:32]  * source
[20:21:32] yadif thread started for segment 7
[20:21:32]    + G:\RAW BDs\The_X-Files,_Season_1_Disc_2_t03.mkv
[20:21:32] decomb filter thread started for segment 0
[20:21:32] mask filter thread started for segment 2
[20:21:32]    + title 1, chapter(s) 3 to 4
[20:21:32] mask filter thread started for segment 4
[20:21:32]    + container: matroska,webm
[20:21:32] mask filter thread started for segment 5
[20:21:32]  * destination
[20:21:32] mask filter thread started for segment 6
[20:21:32]    + G:\The X-Files, Season 1 Disc 2 t03.mkv
[20:21:32] mask filter thread started for segment 7
[20:21:32]    + container: Matroska (libavformat)
[20:21:32] mask erode thread started for segment 1
[20:21:32] mask erode thread started for segment 0
[20:21:32]      + chapter markers
[20:21:32] mask erode thread started for segment 2
[20:21:32] mask erode thread started for segment 3
[20:21:32]  * video track
[20:21:32] mask erode thread started for segment 4
[20:21:32]    + decoder: h264
[20:21:32]    + filters
[20:21:32] mask erode thread started for segment 5
[20:21:32]      + Decomb (default settings)
[20:21:32] mask erode thread started for segment 6
[20:21:32] mask erode thread started for segment 7
[20:21:32]      + Framerate Shaper (0:27000000:1126125)
[20:21:32] mask dilate thread started for segment 0
[20:21:32]        + frame rate: same as source (around 23.976 fps)
[20:21:32] mask dilate thread started for segment 1
[20:21:32] mask dilate thread started for segment 3
[20:21:32]      + Crop and Scale (1920:1080:0:0:0:0)
[20:21:32] mask dilate thread started for segment 2
[20:21:32]        + source: 1920 * 1080, crop (0/0/0/0): 1920 * 1080, scale: 1920 * 1080
[20:21:32] mask dilate thread started for segment 4
[20:21:32]    + dimensions: 1920 * 1080, mod 2
[20:21:32]    + encoder: H.264 (libx264)
[20:21:32] mask dilate thread started for segment 5
[20:21:32] decomb check thread started for segment 3
[20:21:32]      + preset:  slower
[20:21:32]      + tune:    film
[20:21:32] mask dilate thread started for segment 7
[20:21:32]      + quality: 20.00 (RF)
[20:21:32]  * audio track 1
[20:21:32]    + decoder: English (DTS-HD MA) (5.1 ch) (track 1, id 0x1)
[20:21:32]      + bitrate: 1536 kbps, samplerate: 48000 Hz
[20:21:32]    + DTS-HD Passthru
[20:21:32] encx264: min-keyint: 24, keyint: 240
[20:21:32] encx264: encoding at constant RF 20.000000
[20:21:32] encx264: unparsed options: ref=8:b-adapt=2:direct=auto:deblock=-1,-1:analyse=all:me=umh:subme=9:trellis=2:psy-rd=1.00,0.15:rc-lookahead=60
x264 [info]: using cpu capabilities: MMX2 SSE2Fast SSSE3 SSE4.2 AVX AVX2 FMA3 LZCNT BMI2
x264 [info]: profile High, level 5.0
[20:21:32] reader: first SCR 21963150 id 0x0 DTS 21963150
[20:37:36] h264: "Chapter 4" (4) at frame 6570 time 24632190
[20:51:16] reader: end of chapter 4 (media 4) reached at media chapter 5
[20:51:16] reader: done. 1 scr changes
[20:51:36] work: average encoding speed for job is 6.931156 fps
[20:51:36] sync: got 12435 frames, 12433 expected
[20:51:36] decomb: deinterlaced 0 | blended 0 | unfiltered 12434 | total 12434
[20:51:36] render: lost time: 0 (0 frames)
[20:51:36] render: gained time: 0 (0 frames) (0 not accounted for)
[20:51:36] h264-decoder done: 12435 frames, 0 decoder errors, 0 drops
x264 [info]: frame I:95    Avg QP:17.30  size:143564
x264 [info]: frame P:3758  Avg QP:20.21  size: 76311
x264 [info]: frame B:8581  Avg QP:20.84  size: 49310
x264 [info]: consecutive B-frames:  1.6%  3.0% 48.4% 47.0%
x264 [info]: mb I  I16..4:  4.0% 93.7%  2.3%
x264 [info]: mb P  I16..4:  5.0% 46.0%  0.8%  P16..4: 34.3%  7.8%  3.7%  0.0%  0.0%    skip: 2.4%
x264 [info]: mb B  I16..4:  1.8% 17.1%  0.1%  B16..8: 33.1% 10.6%  2.2%  direct:15.1%  skip:20.0%  L0:49.7% L1:42.1% BI: 8.2%
x264 [info]: 8x8 transform intra:89.4% inter:63.0%
x264 [info]: direct mvs  spatial:99.9% temporal:0.1%
x264 [info]: coded y,uvDC,uvAC intra: 81.4% 78.8% 36.9% inter: 40.8% 46.2% 1.7%
x264 [info]: i16 v,h,dc,p: 21% 15% 36% 28%
x264 [info]: i8 v,h,dc,ddl,ddr,vr,hd,vl,hu: 13% 10% 30%  7%  8%  8%  8%  8%  9%
x264 [info]: i4 v,h,dc,ddl,ddr,vr,hd,vl,hu: 13% 12%  5%  9% 13% 14% 13% 10% 11%
x264 [info]: i8c dc,h,v,p: 54% 23% 18%  5%
x264 [info]: Weighted P-Frames: Y:4.6% UV:3.1%
x264 [info]: ref P L0: 35.4%  8.1% 21.7%  8.8%  8.5%  5.9%  6.0%  3.6%  1.8%  0.1%
x264 [info]: ref B L0: 55.5% 18.0% 10.3%  6.3%  4.9%  3.5%  1.6%
x264 [info]: ref B L1: 87.9% 12.1%
x264 [info]: kb/s:11161.67
[20:51:36] dca-decoder done: 0 frames, 0 decoder errors, 0 drops
[20:51:36] mux: track 0, 12434 frames, 723543145 bytes, 11161.45 kbps, fifo 256
[20:51:36] mux: track 1, 48619 frames, 260820336 bytes, 4023.44 kbps, fifo 2048
[20:51:37] libhb: work result = 0
Encode done!
HandBrake has exited.
So now I will re-install the current nightly, and encode the entire video file overnight and we'll see what happens by morning.

Bjomesphat
Posts: 43
Joined: Thu Sep 03, 2015 12:00 am

Re: Encode Hangs At End And Does Not Complete

Post by Bjomesphat » Mon Jan 11, 2016 1:09 pm

Ok, so the current nightly encoded the entire file with success and it took about 2.5 hours, here's that log:

Code: Select all

HandBrake Nightly 20160105201345-ee1167e-master (2016010701) - 64bit Version
OS: Microsoft Windows NT 6.2.9200.0 - 64bit
CPU: Intel(R) Core(TM) i7-4770K CPU @ 3.50GHz
Ram: 8130 MB, 
GPU Information:
  NVIDIA GeForce GTX 970 - 10.18.13.6143
Screen: 1920x1080
Temp Dir: C:\Users\Brandon\AppData\Local\Temp\
Install Dir: C:\Program Files\Handbrake
Data Dir: C:\Users\Brandon\AppData\Roaming\HandBrake Team\HandBrake\0.0.0.0

-------------------------------------------

# Starting Encode ...
[21:04:04] 1 job(s) to process
[21:04:04] json job:
{

  "Audio": {

    "AudioList": [

      {

        "DRC": 0.0,

        "Encoder": 1125984256,

        "Gain": 0.0,

        "Mixdown": 0,

        "NormalizeMixLevel": false,

        "Samplerate": 0,

        "Name": "",

        "Track": 0,

        "DitherMethod": 0

      }

    ],

    "CopyMask": [

      1073807360,

      1073743872,

      1074003968,

      1073750016,

      1090519040,

      1074790400,

      1074266112,

      1107296256

    ],

    "FallbackEncoder": 2048

  },

  "Destination": {

    "ChapterList": [

      {

        "Name": "Chapter 1"

      },

      {

        "Name": "Chapter 2"

      },

      {

        "Name": "Chapter 3"

      },

      {

        "Name": "Chapter 4"

      },

      {

        "Name": "Chapter 5"

      },

      {

        "Name": "Chapter 6"

      },

      {

        "Name": "Chapter 7"

      },

      {

        "Name": "Chapter 8"

      },

      {

        "Name": "Chapter 9"

      },

      {

        "Name": "Chapter 10"

      },

      {

        "Name": "Chapter 11"

      },

      {

        "Name": "Chapter 12"

      }

    ],

    "ChapterMarkers": true,

    "File": "G:\\The X-Files, Season 1 Disc 2 t03_nightly.mkv",

    "Mp4Options": {

      "IpodAtom": false,

      "Mp4Optimize": false

    },

    "Mux": 2097152

  },

  "Filters": {

    "FilterList": [

      {

        "ID": 3

      },

      {

        "ID": 5,

        "Settings": "0"

      },

      {

        "ID": 10,

        "Settings": "1920:1080:0:0:0:0"

      }

    ]

  },

  "PAR": {

    "Num": 1,

    "Den": 1

  },

  "Metadata": {},

  "SequenceID": 0,

  "Source": {

    "Angle": 1,

    "Range": {

      "Type": "chapter",

      "Start": 1,

      "End": 12

    },

    "Title": 1,

    "Path": "G:\\RAW BDs\\The_X-Files,_Season_1_Disc_2_t03.mkv"

  },

  "Subtitle": {

    "Search": {

      "Burn": false,

      "Default": false,

      "Enable": false,

      "Forced": false

    },

    "SubtitleList": []

  },

  "Video": {

    "Encoder": 65536,

    "Level": "auto",

    "TwoPass": false,

    "Turbo": false,

    "ColorMatrixCode": 0,

    "Options": "",

    "Preset": "slower",

    "Profile": "auto",

    "Quality": 20.0,

    "Tune": "film",

    "OpenCL": false,

    "HWDecode": false,

    "QSV": {

      "Decode": true,

      "AsyncDepth": 0

    }

  }

}
[21:04:04] CPU: Intel(R) Core(TM) i7-4770K CPU @ 3.50GHz
[21:04:04]  - Intel microarchitecture Haswell
[21:04:04]  - logical processor count: 8
[21:04:04] OpenCL device #1: NVIDIA Corporation GeForce GTX 970
[21:04:04]  - OpenCL version: 1.2 CUDA
[21:04:04]  - driver version: 361.43
[21:04:04]  - device type:    GPU
[21:04:04]  - supported:      no
[21:04:04] Intel Quick Sync Video support: no
[21:04:04] hb_scan: path=G:\RAW BDs\The_X-Files,_Season_1_Disc_2_t03.mkv, title_index=1
udfread ERROR: ECMA 167 Volume Recognition failed
src/libbluray/disc/disc.c:251: failed opening UDF image G:\RAW BDs\The_X-Files,_Season_1_Disc_2_t03.mkv
src/libbluray/disc/disc.c:332: error opening file BDMV\index.bdmv
src/libbluray/disc/disc.c:332: error opening file BDMV\BACKUP\index.bdmv
[21:04:04] bd: not a bd - trying as a stream/file instead
libdvdnav: Using dvdnav version 5.0.1
libdvdread: Encrypted DVD support unavailable.
libdvdread:DVDOpenFileUDF:UDFFindFile /VIDEO_TS/VIDEO_TS.IFO failed
libdvdread:DVDOpenFileUDF:UDFFindFile /VIDEO_TS/VIDEO_TS.BUP failed
libdvdread: Can't open file VIDEO_TS.IFO.
libdvdnav: vm: failed to read VIDEO_TS.IFO
[21:04:04] dvd: not a dvd - trying as a stream/file instead
Input #0, matroska,webm, from 'G:\RAW BDs\The_X-Files,_Season_1_Disc_2_t03.mkv':
  Metadata:
    title           : The X-Files, Season 1 Disc 2
  Duration: 00:45:51.54, start: 0.000000, bitrate: N/A
    Chapter #0.0: start 0.000000, end 198.323125
    Metadata:
      title           : Chapter 01
    Chapter #0.1: start 198.323125, end 244.035458
    Metadata:
      title           : Chapter 02
    Chapter #0.2: start 244.035458, end 517.725542
    Metadata:
      title           : Chapter 03
    Chapter #0.3: start 517.725542, end 762.636875
    Metadata:
      title           : Chapter 04
    Chapter #0.4: start 762.636875, end 1050.924875
    Metadata:
      title           : Chapter 05
    Chapter #0.5: start 1050.924875, end 1245.661083
    Metadata:
      title           : Chapter 06
    Chapter #0.6: start 1245.661083, end 1572.737833
    Metadata:
      title           : Chapter 07
    Chapter #0.7: start 1572.737833, end 1941.356083
    Metadata:
      title           : Chapter 08
    Chapter #0.8: start 1941.356083, end 2299.171875
    Metadata:
      title           : Chapter 09
    Chapter #0.9: start 2299.171875, end 2445.359583
    Metadata:
      title           : Chapter 10
    Chapter #0.10: start 2445.359583, end 2719.466750
    Metadata:
      title           : Chapter 11
    Chapter #0.11: start 2719.466750, end 2751.540458
    Metadata:
      title           : Chapter 12
    Stream #0.0(eng): Video: h264 (High), yuv420p, 1920x1080 [PAR 1:1 DAR 16:9], 23.98 fps, 1k tbn, 47.95 tbc
    Stream #0.1(eng): Audio: dca (DTS-HD MA), 48000 Hz, 5.1, fltp, 1536 kb/s (default)
    Metadata:
      title           : Surround 5.1
[21:04:04] scan: decoding previews for title 1
[21:04:04] scan: audio 0x1: dca, rate=48000Hz, bitrate=1536000 English (DTS-HD MA) (5.1 ch)
[21:04:06] scan: 10 previews, 1920x1080, 23.976 fps, autocrop = 0/0/0/0, aspect 16:9, PAR 1:1
[21:04:06] scan: supported video decoders: avcodec qsv dxva2
[21:04:07] libhb: scan thread found 1 valid title(s)
[21:04:07] starting job
[21:04:07] yadif thread started for segment 0
[21:04:07] yadif thread started for segment 1
[21:04:07] yadif thread started for segment 2
[21:04:07] yadif thread started for segment 3
[21:04:07] yadif thread started for segment 4
[21:04:07] yadif thread started for segment 5
[21:04:07] yadif thread started for segment 6
[21:04:07] yadif thread started for segment 7
[21:04:07] decomb filter thread started for segment 0
[21:04:07] decomb filter thread started for segment 1
[21:04:07] decomb filter thread started for segment 2
[21:04:07] decomb filter thread started for segment 3
[21:04:07] decomb filter thread started for segment 4
[21:04:07] decomb filter thread started for segment 5
[21:04:07] decomb filter thread started for segment 6
[21:04:07] decomb filter thread started for segment 7
[21:04:07] decomb check thread started for segment 0
[21:04:07] decomb check thread started for segment 1
[21:04:07] decomb check thread started for segment 2
[21:04:07] decomb check thread started for segment 3
[21:04:07] mask filter thread started for segment 7
[21:04:07] mask erode thread started for segment 0
[21:04:07] decomb check thread started for segment 6
[21:04:07] decomb check thread started for segment 7
[21:04:07] mask filter thread started for segment 0
[21:04:07] mask filter thread started for segment 1
[21:04:07] mask filter thread started for segment 2
[21:04:07] mask filter thread started for segment 3
[21:04:07] mask dilate thread started for segment 0
[21:04:07] mask filter thread started for segment 5
[21:04:07] mask filter thread started for segment 6
[21:04:07] mask dilate thread started for segment 4
[21:04:07] decomb check thread started for segment 5
[21:04:07] mask erode thread started for segment 1
[21:04:07] Auto Passthru: allowed codecs are AAC, AC3, E-AC3, TrueHD, DTS, DTS-HD, MP3, FLAC
[21:04:07] Auto Passthru: fallback is AC3
[21:04:07] Auto Passthru: using DTS-HD Passthru for track 1
[21:04:07] mask erode thread started for segment 2
[21:04:07] mask erode thread started for segment 3
[21:04:07] job configuration:
[21:04:07]  * source
[21:04:07]    + G:\RAW BDs\The_X-Files,_Season_1_Disc_2_t03.mkv
[21:04:07]    + title 1, chapter(s) 1 to 12
[21:04:07] mask erode thread started for segment 4
[21:04:07]    + container: matroska,webm
[21:04:07]  * destination
[21:04:07]    + G:\The X-Files, Season 1 Disc 2 t03_nightly.mkv
[21:04:07]    + container: Matroska (libavformat)
[21:04:07]      + chapter markers
[21:04:07]  * video track
[21:04:07]    + decoder: h264
[21:04:07]    + filters
[21:04:07]      + Decomb (default settings)
[21:04:07] mask erode thread started for segment 5
[21:04:07]      + Framerate Shaper (0)
[21:04:07]        + frame rate: same as source (around 23.976 fps)
[21:04:07]      + Crop and Scale (1920:1080:0:0:0:0)
[21:04:07]        + source: 1920 * 1080, crop (0/0/0/0): 1920 * 1080, scale: 1920 * 1080
[21:04:07]    + Output geometry
[21:04:07]      + storage dimensions: 1920 x 1080
[21:04:07]      + pixel aspect ratio: 1 : 1
[21:04:07]      + display dimensions: 1920 x 1080
[21:04:07]    + encoder: H.264 (libx264)
[21:04:07] mask erode thread started for segment 6
[21:04:07]      + preset:  slower
[21:04:07]      + tune:    film
[21:04:07]      + profile: auto
[21:04:07]      + level:   auto
[21:04:07]      + quality: 20.00 (RF)
[21:04:07]  * audio track 1
[21:04:07] mask erode thread started for segment 7
[21:04:07]    + decoder: English (DTS-HD MA) (5.1 ch) (track 1, id 0x1)
[21:04:07]      + bitrate: 1536 kbps, samplerate: 48000 Hz
[21:04:07] mask dilate thread started for segment 1
[21:04:07] mask filter thread started for segment 4
[21:04:07]    + DTS-HD Passthru
[21:04:07] mask dilate thread started for segment 2
[21:04:07] mask dilate thread started for segment 3
[21:04:07] decomb check thread started for segment 4
[21:04:07] mask dilate thread started for segment 5
[21:04:07] mask dilate thread started for segment 6
[21:04:07] mask dilate thread started for segment 7
[21:04:07] sync: expecting 65970 video frames
[21:04:07] encx264: min-keyint: 24, keyint: 240
[21:04:07] encx264: encoding at constant RF 20.000000
[21:04:07] encx264: unparsed options: ref=8:b-adapt=2:direct=auto:psy-rd=1,0.15:trellis=2:deblock=-1,-1:analyse=all:me=umh:subme=9:rc-lookahead=60
x264 [info]: using SAR=1/1
x264 [info]: using cpu capabilities: MMX2 SSE2Fast SSSE3 SSE4.2 AVX FMA3 AVX2 LZCNT BMI2
x264 [info]: profile High, level 5.0
[21:04:07] reader: first SCR 0 id 0x0 DTS 0
[21:15:17] h264: "Chapter 2" (2) at frame 4765 time 17856630
[21:18:22] h264: "Chapter 3" (3) at frame 5861 time 21970710
[21:34:38] h264: "Chapter 4" (4) at frame 12421 time 46595340
[21:48:21] h264: "Chapter 5" (5) at frame 18293 time 68637330
[22:03:18] h264: "Chapter 6" (6) at frame 25205 time 94583250
[22:14:22] h264: "Chapter 7" (7) at frame 29875 time 112113270
[22:30:02] h264: "Chapter 8" (8) at frame 37716 time 141546420
[22:48:17] h264: "Chapter 9" (9) at frame 46556 time 174729600
[23:07:10] h264: "Chapter 10" (10) at frame 55133 time 206925480
[23:15:54] h264: "Chapter 11" (11) at frame 58638 time 220082400
[23:30:41] h264: "Chapter 12" (12) at frame 65210 time 244752030
[23:30:52] reader: done. 1 scr changes
[23:30:58] work: average encoding speed for job is 7.489707 fps
[23:30:58] decomb: deinterlaced 0 | blended 1 | unfiltered 65969 | total 65970
[23:30:58] render: lost time: 0 (0 frames)
[23:30:58] render: gained time: 0 (0 frames) (0 not accounted for)
[23:30:58] dca-decoder done: 0 frames, 0 decoder errors, 0 drops
[23:30:58] h264-decoder done: 65971 frames, 0 decoder errors, 0 drops
[23:30:58] sync: got 65971 frames, 65970 expected
x264 [info]: frame I:509   Avg QP:16.83  size:131413
x264 [info]: frame P:19785 Avg QP:19.84  size: 68972
x264 [info]: frame B:45676 Avg QP:20.36  size: 41684
x264 [info]: consecutive B-frames:  1.5%  2.8% 47.1% 48.6%
x264 [info]: mb I  I16..4:  5.5% 92.2%  2.3%
x264 [info]: mb P  I16..4:  5.2% 41.7%  0.6%  P16..4: 37.4%  6.9%  3.7%  0.0%  0.0%    skip: 4.5%
x264 [info]: mb B  I16..4:  1.9% 14.2%  0.1%  B16..8: 33.7%  9.2%  1.8%  direct:14.9%  skip:24.3%  L0:49.9% L1:43.2% BI: 6.8%
x264 [info]: 8x8 transform intra:87.9% inter:62.5%
x264 [info]: direct mvs  spatial:99.9% temporal:0.1%
x264 [info]: coded y,uvDC,uvAC intra: 79.3% 76.5% 36.3% inter: 35.1% 42.9% 1.8%
x264 [info]: i16 v,h,dc,p: 20% 15% 35% 30%
x264 [info]: i8 v,h,dc,ddl,ddr,vr,hd,vl,hu: 13% 10% 33%  6%  7%  7%  7%  7%  9%
x264 [info]: i4 v,h,dc,ddl,ddr,vr,hd,vl,hu: 13% 10%  6%  9% 14% 15% 13% 10% 10%
x264 [info]: i8c dc,h,v,p: 54% 22% 18%  6%
x264 [info]: Weighted P-Frames: Y:3.4% UV:1.9%
x264 [info]: ref P L0: 35.7%  6.9% 22.5%  8.6%  8.7%  6.0%  6.2%  3.5%  1.8%  0.1%
x264 [info]: ref B L0: 54.8% 18.6% 10.3%  6.3%  4.8%  3.6%  1.6%
x264 [info]: ref B L1: 87.9% 12.1%
x264 [info]: kb/s:9697.88
[23:30:58] mux: track 0, 65970 frames, 3335444479 bytes, 9697.53 kbps, fifo 512
[23:30:58] mux: track 1, 257957 frames, 1381319308 bytes, 4016.07 kbps, fifo 2048
[23:30:58] libhb: work result = 0
# Encode Completed ...
I also tried again to encode just a minute of the file, and it got hung up. Now maybe it would eventually finish if I just let it sit, but either way it's not working properly. Here's the log while it is hanging at the end (before I manually stop it):

Code: Select all

HandBrake Nightly 20160105201345-ee1167e-master (2016010701) - 64bit Version
OS: Microsoft Windows NT 6.2.9200.0 - 64bit
CPU: Intel(R) Core(TM) i7-4770K CPU @ 3.50GHz
Ram: 8130 MB, 
GPU Information:
  NVIDIA GeForce GTX 970 - 10.18.13.6143
Screen: 1920x1080
Temp Dir: C:\Users\Brandon\AppData\Local\Temp\
Install Dir: C:\Program Files\Handbrake
Data Dir: C:\Users\Brandon\AppData\Roaming\HandBrake Team\HandBrake\0.0.0.0

-------------------------------------------

# Starting Encode ...
[05:12:40] 1 job(s) to process
[05:12:40] json job:
{

  "Audio": {

    "AudioList": [

      {

        "DRC": 0.0,

        "Encoder": 1125984256,

        "Gain": 0.0,

        "Mixdown": 0,

        "NormalizeMixLevel": false,

        "Samplerate": 0,

        "Name": "",

        "Track": 0,

        "DitherMethod": 0

      }

    ],

    "CopyMask": [

      1073807360,

      1073743872,

      1074003968,

      1073750016,

      1090519040,

      1074790400,

      1074266112,

      1107296256

    ],

    "FallbackEncoder": 2048

  },

  "Destination": {

    "ChapterList": [

      {

        "Name": "Chapter 1"

      },

      {

        "Name": "Chapter 2"

      },

      {

        "Name": "Chapter 3"

      },

      {

        "Name": "Chapter 4"

      },

      {

        "Name": "Chapter 5"

      },

      {

        "Name": "Chapter 6"

      },

      {

        "Name": "Chapter 7"

      },

      {

        "Name": "Chapter 8"

      },

      {

        "Name": "Chapter 9"

      },

      {

        "Name": "Chapter 10"

      },

      {

        "Name": "Chapter 11"

      },

      {

        "Name": "Chapter 12"

      }

    ],

    "ChapterMarkers": true,

    "File": "G:\\The X-Files, Season 1 Disc 2 t03_nightly2.mkv",

    "Mp4Options": {

      "IpodAtom": false,

      "Mp4Optimize": false

    },

    "Mux": 2097152

  },

  "Filters": {

    "FilterList": [

      {

        "ID": 3

      },

      {

        "ID": 5,

        "Settings": "0"

      },

      {

        "ID": 10,

        "Settings": "1920:1080:0:0:0:0"

      }

    ]

  },

  "PAR": {

    "Num": 1,

    "Den": 1

  },

  "Metadata": {},

  "SequenceID": 0,

  "Source": {

    "Angle": 1,

    "Range": {

      "Type": "time",

      "Start": 54000000,

      "End": 9990000

    },

    "Title": 1,

    "Path": "G:\\RAW BDs\\The_X-Files,_Season_1_Disc_2_t03.mkv"

  },

  "Subtitle": {

    "Search": {

      "Burn": false,

      "Default": false,

      "Enable": false,

      "Forced": false

    },

    "SubtitleList": []

  },

  "Video": {

    "Encoder": 65536,

    "Level": "auto",

    "TwoPass": false,

    "Turbo": false,

    "ColorMatrixCode": 0,

    "Options": "",

    "Preset": "slower",

    "Profile": "auto",

    "Quality": 20.0,

    "Tune": "film",

    "OpenCL": false,

    "HWDecode": false,

    "QSV": {

      "Decode": true,

      "AsyncDepth": 0

    }

  }

}
[05:12:40] CPU: Intel(R) Core(TM) i7-4770K CPU @ 3.50GHz
[05:12:40]  - Intel microarchitecture Haswell
[05:12:40]  - logical processor count: 8
[05:12:40] OpenCL device #1: NVIDIA Corporation GeForce GTX 970
[05:12:40]  - OpenCL version: 1.2 CUDA
[05:12:40]  - driver version: 361.43
[05:12:40]  - device type:    GPU
[05:12:40]  - supported:      no
[05:12:40] Intel Quick Sync Video support: no
[05:12:40] hb_scan: path=G:\RAW BDs\The_X-Files,_Season_1_Disc_2_t03.mkv, title_index=1
udfread ERROR: ECMA 167 Volume Recognition failed
src/libbluray/disc/disc.c:251: failed opening UDF image G:\RAW BDs\The_X-Files,_Season_1_Disc_2_t03.mkv
src/libbluray/disc/disc.c:332: error opening file BDMV\index.bdmv
src/libbluray/disc/disc.c:332: error opening file BDMV\BACKUP\index.bdmv
[05:12:40] bd: not a bd - trying as a stream/file instead
libdvdnav: Using dvdnav version 5.0.1
libdvdread: Encrypted DVD support unavailable.
libdvdread:DVDOpenFileUDF:UDFFindFile /VIDEO_TS/VIDEO_TS.IFO failed
libdvdread:DVDOpenFileUDF:UDFFindFile /VIDEO_TS/VIDEO_TS.BUP failed
libdvdread: Can't open file VIDEO_TS.IFO.
libdvdnav: vm: failed to read VIDEO_TS.IFO
[05:12:40] dvd: not a dvd - trying as a stream/file instead
Input #0, matroska,webm, from 'G:\RAW BDs\The_X-Files,_Season_1_Disc_2_t03.mkv':
  Metadata:
    title           : The X-Files, Season 1 Disc 2
  Duration: 00:45:51.54, start: 0.000000, bitrate: N/A
    Chapter #0.0: start 0.000000, end 198.323125
    Metadata:
      title           : Chapter 01
    Chapter #0.1: start 198.323125, end 244.035458
    Metadata:
      title           : Chapter 02
    Chapter #0.2: start 244.035458, end 517.725542
    Metadata:
      title           : Chapter 03
    Chapter #0.3: start 517.725542, end 762.636875
    Metadata:
      title           : Chapter 04
    Chapter #0.4: start 762.636875, end 1050.924875
    Metadata:
      title           : Chapter 05
    Chapter #0.5: start 1050.924875, end 1245.661083
    Metadata:
      title           : Chapter 06
    Chapter #0.6: start 1245.661083, end 1572.737833
    Metadata:
      title           : Chapter 07
    Chapter #0.7: start 1572.737833, end 1941.356083
    Metadata:
      title           : Chapter 08
    Chapter #0.8: start 1941.356083, end 2299.171875
    Metadata:
      title           : Chapter 09
    Chapter #0.9: start 2299.171875, end 2445.359583
    Metadata:
      title           : Chapter 10
    Chapter #0.10: start 2445.359583, end 2719.466750
    Metadata:
      title           : Chapter 11
    Chapter #0.11: start 2719.466750, end 2751.540458
    Metadata:
      title           : Chapter 12
    Stream #0.0(eng): Video: h264 (High), yuv420p, 1920x1080 [PAR 1:1 DAR 16:9], 23.98 fps, 1k tbn, 47.95 tbc
    Stream #0.1(eng): Audio: dca (DTS-HD MA), 48000 Hz, 5.1, fltp, 1536 kb/s (default)
    Metadata:
      title           : Surround 5.1
[05:12:40] scan: decoding previews for title 1
[05:12:40] scan: audio 0x1: dca, rate=48000Hz, bitrate=1536000 English (DTS-HD MA) (5.1 ch)
[05:12:51] scan: 10 previews, 1920x1080, 23.976 fps, autocrop = 0/0/0/0, aspect 16:9, PAR 1:1
[05:12:51] scan: supported video decoders: avcodec qsv dxva2
[05:12:51] libhb: scan thread found 1 valid title(s)
[05:12:51] starting job
[05:12:51] yadif thread started for segment 0
[05:12:51] yadif thread started for segment 4
[05:12:51] yadif thread started for segment 2
[05:12:51] yadif thread started for segment 3
[05:12:51] decomb filter thread started for segment 0
[05:12:51] yadif thread started for segment 5
[05:12:51] yadif thread started for segment 6
[05:12:51] yadif thread started for segment 7
[05:12:51] decomb filter thread started for segment 5
[05:12:51] decomb filter thread started for segment 1
[05:12:51] decomb filter thread started for segment 2
[05:12:51] decomb filter thread started for segment 3
[05:12:51] decomb filter thread started for segment 4
[05:12:51] yadif thread started for segment 1
[05:12:51] decomb filter thread started for segment 6
[05:12:51] decomb filter thread started for segment 7
[05:12:51] decomb check thread started for segment 0
[05:12:51] decomb check thread started for segment 1
[05:12:51] decomb check thread started for segment 2
[05:12:51] decomb check thread started for segment 3
[05:12:51] decomb check thread started for segment 4
[05:12:51] decomb check thread started for segment 5
[05:12:51] decomb check thread started for segment 6
[05:12:51] decomb check thread started for segment 7
[05:12:51] mask filter thread started for segment 0
[05:12:51] mask erode thread started for segment 0
[05:12:51] mask filter thread started for segment 2
[05:12:51] mask filter thread started for segment 3
[05:12:51] mask filter thread started for segment 4
[05:12:51] mask filter thread started for segment 5
[05:12:51] mask filter thread started for segment 6
[05:12:51] mask filter thread started for segment 7
[05:12:51] mask dilate thread started for segment 0
[05:12:51] mask erode thread started for segment 1
[05:12:51] mask erode thread started for segment 2
[05:12:51] mask erode thread started for segment 3
[05:12:51] mask erode thread started for segment 4
[05:12:51] mask erode thread started for segment 5
[05:12:51] mask erode thread started for segment 6
[05:12:51] mask erode thread started for segment 7
[05:12:51] mask filter thread started for segment 1
[05:12:51] Auto Passthru: allowed codecs are AAC, AC3, E-AC3, TrueHD, DTS, DTS-HD, MP3, FLAC
[05:12:51] Auto Passthru: fallback is AC3
[05:12:51] Auto Passthru: using DTS-HD Passthru for track 1
[05:12:51] mask dilate thread started for segment 1
[05:12:51] mask dilate thread started for segment 2
[05:12:51] mask dilate thread started for segment 3
[05:12:51] mask dilate thread started for segment 4
[05:12:51] job configuration:
[05:12:51]  * source
[05:12:51]    + G:\RAW BDs\The_X-Files,_Season_1_Disc_2_t03.mkv
[05:12:51]    + title 1, start 00:10:0.00 stop 00:11:51.00
[05:12:51] mask dilate thread started for segment 5
[05:12:51]    + container: matroska,webm
[05:12:51]  * destination
[05:12:51]    + G:\The X-Files, Season 1 Disc 2 t03_nightly2.mkv
[05:12:51]    + container: Matroska (libavformat)
[05:12:51]      + chapter markers
[05:12:51] mask dilate thread started for segment 6
[05:12:51]  * video track
[05:12:51]    + decoder: h264
[05:12:51]    + filters
[05:12:51]      + Decomb (default settings)
[05:12:51]      + Framerate Shaper (0)
[05:12:51]        + frame rate: same as source (around 23.976 fps)
[05:12:51] mask dilate thread started for segment 7
[05:12:51]      + Crop and Scale (1920:1080:0:0:0:0)
[05:12:51]        + source: 1920 * 1080, crop (0/0/0/0): 1920 * 1080, scale: 1920 * 1080
[05:12:51]    + Output geometry
[05:12:51]      + storage dimensions: 1920 x 1080
[05:12:51]      + pixel aspect ratio: 1 : 1
[05:12:51]      + display dimensions: 1920 x 1080
[05:12:51]    + encoder: H.264 (libx264)
[05:12:51]      + preset:  slower
[05:12:51]      + tune:    film
[05:12:51]      + profile: auto
[05:12:51]      + level:   auto
[05:12:51]      + quality: 20.00 (RF)
[05:12:51]  * audio track 1
[05:12:51]    + decoder: English (DTS-HD MA) (5.1 ch) (track 1, id 0x1)
[05:12:51]      + bitrate: 1536 kbps, samplerate: 48000 Hz
[05:12:51]    + DTS-HD Passthru
[05:12:51] sync: expecting 2685 video frames
[05:12:51] encx264: min-keyint: 24, keyint: 240
[05:12:51] encx264: encoding at constant RF 20.000000
[05:12:51] encx264: unparsed options: ref=8:b-adapt=2:direct=auto:psy-rd=1,0.15:trellis=2:deblock=-1,-1:analyse=all:me=umh:subme=9:rc-lookahead=60
x264 [info]: using SAR=1/1
x264 [info]: using cpu capabilities: MMX2 SSE2Fast SSSE3 SSE4.2 AVX FMA3 AVX2 LZCNT BMI2
x264 [info]: profile High, level 5.0
[05:12:51] reader: first SCR 53937630 id 0x0 DTS 53937630
[05:13:04] sync: first pts is 52560
[05:13:04] sync: video time didn't advance - dropped 2 frames (delta 76 ms, current 0, next 630, dur 630)
And then here's the log when I manually stop it:

Code: Select all

HandBrake Nightly 20160105201345-ee1167e-master (2016010701) - 64bit Version
OS: Microsoft Windows NT 6.2.9200.0 - 64bit
CPU: Intel(R) Core(TM) i7-4770K CPU @ 3.50GHz
Ram: 8130 MB, 
GPU Information:
  NVIDIA GeForce GTX 970 - 10.18.13.6143
Screen: 1920x1080
Temp Dir: C:\Users\Brandon\AppData\Local\Temp\
Install Dir: C:\Program Files\Handbrake
Data Dir: C:\Users\Brandon\AppData\Roaming\HandBrake Team\HandBrake\0.0.0.0

-------------------------------------------

# Starting Encode ...
[05:12:40] 1 job(s) to process
[05:12:40] json job:
{

  "Audio": {

    "AudioList": [

      {

        "DRC": 0.0,

        "Encoder": 1125984256,

        "Gain": 0.0,

        "Mixdown": 0,

        "NormalizeMixLevel": false,

        "Samplerate": 0,

        "Name": "",

        "Track": 0,

        "DitherMethod": 0

      }

    ],

    "CopyMask": [

      1073807360,

      1073743872,

      1074003968,

      1073750016,

      1090519040,

      1074790400,

      1074266112,

      1107296256

    ],

    "FallbackEncoder": 2048

  },

  "Destination": {

    "ChapterList": [

      {

        "Name": "Chapter 1"

      },

      {

        "Name": "Chapter 2"

      },

      {

        "Name": "Chapter 3"

      },

      {

        "Name": "Chapter 4"

      },

      {

        "Name": "Chapter 5"

      },

      {

        "Name": "Chapter 6"

      },

      {

        "Name": "Chapter 7"

      },

      {

        "Name": "Chapter 8"

      },

      {

        "Name": "Chapter 9"

      },

      {

        "Name": "Chapter 10"

      },

      {

        "Name": "Chapter 11"

      },

      {

        "Name": "Chapter 12"

      }

    ],

    "ChapterMarkers": true,

    "File": "G:\\The X-Files, Season 1 Disc 2 t03_nightly2.mkv",

    "Mp4Options": {

      "IpodAtom": false,

      "Mp4Optimize": false

    },

    "Mux": 2097152

  },

  "Filters": {

    "FilterList": [

      {

        "ID": 3

      },

      {

        "ID": 5,

        "Settings": "0"

      },

      {

        "ID": 10,

        "Settings": "1920:1080:0:0:0:0"

      }

    ]

  },

  "PAR": {

    "Num": 1,

    "Den": 1

  },

  "Metadata": {},

  "SequenceID": 0,

  "Source": {

    "Angle": 1,

    "Range": {

      "Type": "time",

      "Start": 54000000,

      "End": 9990000

    },

    "Title": 1,

    "Path": "G:\\RAW BDs\\The_X-Files,_Season_1_Disc_2_t03.mkv"

  },

  "Subtitle": {

    "Search": {

      "Burn": false,

      "Default": false,

      "Enable": false,

      "Forced": false

    },

    "SubtitleList": []

  },

  "Video": {

    "Encoder": 65536,

    "Level": "auto",

    "TwoPass": false,

    "Turbo": false,

    "ColorMatrixCode": 0,

    "Options": "",

    "Preset": "slower",

    "Profile": "auto",

    "Quality": 20.0,

    "Tune": "film",

    "OpenCL": false,

    "HWDecode": false,

    "QSV": {

      "Decode": true,

      "AsyncDepth": 0

    }

  }

}
[05:12:40] CPU: Intel(R) Core(TM) i7-4770K CPU @ 3.50GHz
[05:12:40]  - Intel microarchitecture Haswell
[05:12:40]  - logical processor count: 8
[05:12:40] OpenCL device #1: NVIDIA Corporation GeForce GTX 970
[05:12:40]  - OpenCL version: 1.2 CUDA
[05:12:40]  - driver version: 361.43
[05:12:40]  - device type:    GPU
[05:12:40]  - supported:      no
[05:12:40] Intel Quick Sync Video support: no
[05:12:40] hb_scan: path=G:\RAW BDs\The_X-Files,_Season_1_Disc_2_t03.mkv, title_index=1
udfread ERROR: ECMA 167 Volume Recognition failed
src/libbluray/disc/disc.c:251: failed opening UDF image G:\RAW BDs\The_X-Files,_Season_1_Disc_2_t03.mkv
src/libbluray/disc/disc.c:332: error opening file BDMV\index.bdmv
src/libbluray/disc/disc.c:332: error opening file BDMV\BACKUP\index.bdmv
[05:12:40] bd: not a bd - trying as a stream/file instead
libdvdnav: Using dvdnav version 5.0.1
libdvdread: Encrypted DVD support unavailable.
libdvdread:DVDOpenFileUDF:UDFFindFile /VIDEO_TS/VIDEO_TS.IFO failed
libdvdread:DVDOpenFileUDF:UDFFindFile /VIDEO_TS/VIDEO_TS.BUP failed
libdvdread: Can't open file VIDEO_TS.IFO.
libdvdnav: vm: failed to read VIDEO_TS.IFO
[05:12:40] dvd: not a dvd - trying as a stream/file instead
Input #0, matroska,webm, from 'G:\RAW BDs\The_X-Files,_Season_1_Disc_2_t03.mkv':
  Metadata:
    title           : The X-Files, Season 1 Disc 2
  Duration: 00:45:51.54, start: 0.000000, bitrate: N/A
    Chapter #0.0: start 0.000000, end 198.323125
    Metadata:
      title           : Chapter 01
    Chapter #0.1: start 198.323125, end 244.035458
    Metadata:
      title           : Chapter 02
    Chapter #0.2: start 244.035458, end 517.725542
    Metadata:
      title           : Chapter 03
    Chapter #0.3: start 517.725542, end 762.636875
    Metadata:
      title           : Chapter 04
    Chapter #0.4: start 762.636875, end 1050.924875
    Metadata:
      title           : Chapter 05
    Chapter #0.5: start 1050.924875, end 1245.661083
    Metadata:
      title           : Chapter 06
    Chapter #0.6: start 1245.661083, end 1572.737833
    Metadata:
      title           : Chapter 07
    Chapter #0.7: start 1572.737833, end 1941.356083
    Metadata:
      title           : Chapter 08
    Chapter #0.8: start 1941.356083, end 2299.171875
    Metadata:
      title           : Chapter 09
    Chapter #0.9: start 2299.171875, end 2445.359583
    Metadata:
      title           : Chapter 10
    Chapter #0.10: start 2445.359583, end 2719.466750
    Metadata:
      title           : Chapter 11
    Chapter #0.11: start 2719.466750, end 2751.540458
    Metadata:
      title           : Chapter 12
    Stream #0.0(eng): Video: h264 (High), yuv420p, 1920x1080 [PAR 1:1 DAR 16:9], 23.98 fps, 1k tbn, 47.95 tbc
    Stream #0.1(eng): Audio: dca (DTS-HD MA), 48000 Hz, 5.1, fltp, 1536 kb/s (default)
    Metadata:
      title           : Surround 5.1
[05:12:40] scan: decoding previews for title 1
[05:12:40] scan: audio 0x1: dca, rate=48000Hz, bitrate=1536000 English (DTS-HD MA) (5.1 ch)
[05:12:51] scan: 10 previews, 1920x1080, 23.976 fps, autocrop = 0/0/0/0, aspect 16:9, PAR 1:1
[05:12:51] scan: supported video decoders: avcodec qsv dxva2
[05:12:51] libhb: scan thread found 1 valid title(s)
[05:12:51] starting job
[05:12:51] yadif thread started for segment 0
[05:12:51] yadif thread started for segment 4
[05:12:51] yadif thread started for segment 2
[05:12:51] yadif thread started for segment 3
[05:12:51] decomb filter thread started for segment 0
[05:12:51] yadif thread started for segment 5
[05:12:51] yadif thread started for segment 6
[05:12:51] yadif thread started for segment 7
[05:12:51] decomb filter thread started for segment 5
[05:12:51] decomb filter thread started for segment 1
[05:12:51] decomb filter thread started for segment 2
[05:12:51] decomb filter thread started for segment 3
[05:12:51] decomb filter thread started for segment 4
[05:12:51] yadif thread started for segment 1
[05:12:51] decomb filter thread started for segment 6
[05:12:51] decomb filter thread started for segment 7
[05:12:51] decomb check thread started for segment 0
[05:12:51] decomb check thread started for segment 1
[05:12:51] decomb check thread started for segment 2
[05:12:51] decomb check thread started for segment 3
[05:12:51] decomb check thread started for segment 4
[05:12:51] decomb check thread started for segment 5
[05:12:51] decomb check thread started for segment 6
[05:12:51] decomb check thread started for segment 7
[05:12:51] mask filter thread started for segment 0
[05:12:51] mask erode thread started for segment 0
[05:12:51] mask filter thread started for segment 2
[05:12:51] mask filter thread started for segment 3
[05:12:51] mask filter thread started for segment 4
[05:12:51] mask filter thread started for segment 5
[05:12:51] mask filter thread started for segment 6
[05:12:51] mask filter thread started for segment 7
[05:12:51] mask dilate thread started for segment 0
[05:12:51] mask erode thread started for segment 1
[05:12:51] mask erode thread started for segment 2
[05:12:51] mask erode thread started for segment 3
[05:12:51] mask erode thread started for segment 4
[05:12:51] mask erode thread started for segment 5
[05:12:51] mask erode thread started for segment 6
[05:12:51] mask erode thread started for segment 7
[05:12:51] mask filter thread started for segment 1
[05:12:51] Auto Passthru: allowed codecs are AAC, AC3, E-AC3, TrueHD, DTS, DTS-HD, MP3, FLAC
[05:12:51] Auto Passthru: fallback is AC3
[05:12:51] Auto Passthru: using DTS-HD Passthru for track 1
[05:12:51] mask dilate thread started for segment 1
[05:12:51] mask dilate thread started for segment 2
[05:12:51] mask dilate thread started for segment 3
[05:12:51] mask dilate thread started for segment 4
[05:12:51] job configuration:
[05:12:51]  * source
[05:12:51]    + G:\RAW BDs\The_X-Files,_Season_1_Disc_2_t03.mkv
[05:12:51]    + title 1, start 00:10:0.00 stop 00:11:51.00
[05:12:51] mask dilate thread started for segment 5
[05:12:51]    + container: matroska,webm
[05:12:51]  * destination
[05:12:51]    + G:\The X-Files, Season 1 Disc 2 t03_nightly2.mkv
[05:12:51]    + container: Matroska (libavformat)
[05:12:51]      + chapter markers
[05:12:51] mask dilate thread started for segment 6
[05:12:51]  * video track
[05:12:51]    + decoder: h264
[05:12:51]    + filters
[05:12:51]      + Decomb (default settings)
[05:12:51]      + Framerate Shaper (0)
[05:12:51]        + frame rate: same as source (around 23.976 fps)
[05:12:51] mask dilate thread started for segment 7
[05:12:51]      + Crop and Scale (1920:1080:0:0:0:0)
[05:12:51]        + source: 1920 * 1080, crop (0/0/0/0): 1920 * 1080, scale: 1920 * 1080
[05:12:51]    + Output geometry
[05:12:51]      + storage dimensions: 1920 x 1080
[05:12:51]      + pixel aspect ratio: 1 : 1
[05:12:51]      + display dimensions: 1920 x 1080
[05:12:51]    + encoder: H.264 (libx264)
[05:12:51]      + preset:  slower
[05:12:51]      + tune:    film
[05:12:51]      + profile: auto
[05:12:51]      + level:   auto
[05:12:51]      + quality: 20.00 (RF)
[05:12:51]  * audio track 1
[05:12:51]    + decoder: English (DTS-HD MA) (5.1 ch) (track 1, id 0x1)
[05:12:51]      + bitrate: 1536 kbps, samplerate: 48000 Hz
[05:12:51]    + DTS-HD Passthru
[05:12:51] sync: expecting 2685 video frames
[05:12:51] encx264: min-keyint: 24, keyint: 240
[05:12:51] encx264: encoding at constant RF 20.000000
[05:12:51] encx264: unparsed options: ref=8:b-adapt=2:direct=auto:psy-rd=1,0.15:trellis=2:deblock=-1,-1:analyse=all:me=umh:subme=9:rc-lookahead=60
x264 [info]: using SAR=1/1
x264 [info]: using cpu capabilities: MMX2 SSE2Fast SSSE3 SSE4.2 AVX FMA3 AVX2 LZCNT BMI2
x264 [info]: profile High, level 5.0
[05:12:51] reader: first SCR 53937630 id 0x0 DTS 53937630
[05:13:04] sync: first pts is 52560
[05:13:04] sync: video time didn't advance - dropped 2 frames (delta 76 ms, current 0, next 630, dur 630)
# Encode Stopped
[05:25:16] work: average encoding speed for job is 7.107360 fps
[05:25:16] decomb: deinterlaced 0 | blended 0 | unfiltered 2656 | total 2656
[05:25:16] render: lost time: 0 (0 frames)
[05:25:16] render: gained time: 0 (0 frames) (0 not accounted for)
[05:25:17] dca-decoder done: 0 frames, 0 decoder errors, 0 drops
[05:25:17] h264-decoder done: 2682 frames, 0 decoder errors, 0 drops
[05:25:17] sync: got 2657 frames, 2685 expected
x264 [info]: frame I:17    Avg QP:17.35  size:125812
x264 [info]: frame P:850   Avg QP:19.69  size: 73232
x264 [info]: frame B:1710  Avg QP:20.22  size: 47565
x264 [info]: consecutive B-frames:  2.5%  5.4% 64.8% 27.3%
x264 [info]: mb I  I16..4:  5.7% 92.3%  2.0%
x264 [info]: mb P  I16..4:  7.9% 55.1%  0.8%  P16..4: 28.2%  4.4%  1.8%  0.0%  0.0%    skip: 1.8%
x264 [info]: mb B  I16..4:  3.4% 19.9%  0.1%  B16..8: 31.0%  8.8%  1.8%  direct:17.1%  skip:17.9%  L0:46.4% L1:46.1% BI: 7.5%
x264 [info]: 8x8 transform intra:85.8% inter:67.2%
x264 [info]: direct mvs  spatial:99.5% temporal:0.5%
x264 [info]: coded y,uvDC,uvAC intra: 76.5% 81.5% 51.6% inter: 39.4% 49.7% 4.8%
x264 [info]: i16 v,h,dc,p: 21% 16% 37% 27%
x264 [info]: i8 v,h,dc,ddl,ddr,vr,hd,vl,hu: 13% 10% 32%  6%  7%  8%  7%  7%  9%
x264 [info]: i4 v,h,dc,ddl,ddr,vr,hd,vl,hu: 13%  8%  6%  9% 16% 15% 14%  9%  9%
x264 [info]: i8c dc,h,v,p: 57% 20% 18%  6%
x264 [info]: Weighted P-Frames: Y:2.1% UV:1.3%
x264 [info]: ref P L0: 40.9%  7.4% 20.3%  8.8%  7.0%  5.5%  4.7%  3.2%  2.2%  0.0%
x264 [info]: ref B L0: 64.8% 15.8%  8.1%  4.3%  3.4%  2.5%  1.1%
x264 [info]: ref B L1: 89.0% 11.0%
x264 [info]: kb/s:10849.80
[05:25:17] mux: track 0, 2577 frames, 145721606 bytes, 10495.91 kbps, fifo 256
[05:25:17] mux: track 1, 10407 frames, 57532892 bytes, 4143.93 kbps, fifo 2048
[05:25:17] libhb: work result = 0
# Encode Completed ...
So it looks like the problem has something to do with rendering a portion of the video, versus rendering the entire file. Thanks for your help everyone, let me know if you need anymore testing.

Post Reply