A Collection of Builds (one new, rest from previous decade!)

Post your testing results with HandBrake.
Post Reply
CoriolisSTORM
Posts: 10
Joined: Fri Nov 19, 2010 5:26 am

A Collection of Builds (one new, rest from previous decade!)

Post by CoriolisSTORM »

I've been wanting to build a new machine, but with all the GPU shortages, I found a deal on a local HP Prebuilt for me to use the 5700G APU from, eventually. Anyway, I figured it'd be fun to compare all my other machines against this one. This is a small prebuilt that I got for $550 at a chain store. I've got a (at the time it was built) beastly desktop I'll be comparing against, plus a Surface 3 (Atom based!), an ancient eeePC with an Atom n450, an Intel Atom x7-z8750 Surface 3, and a few old MacBooks, all with Tears of Steel 1080p, as I can't get BBB to download. I'll post the initial logs from the base machine, then will go back and integrate power consumption with my Kill-a-watt meter.

Specs of the base machine:
Machine setup is brand new OOB, no tweaking
CPU: AMD Ryzen 7 5700G (3.8GHz base clock) 8 core, 16 thread
RAM: 16 GB DDR4 3200 MHz
GPU: Radeon Graphics, 8 core
Long story short:
x264 duration: 2 minutes, 39 seconds
H265 duration: 10 minutes, 27 seconds
The 1080p30 Fast Encode:
Log:

Code: Select all

HandBrake 1.3.3 (2020061300)
OS: Microsoft Windows NT 10.0.19043.0
CPU: AMD Ryzen 7 5700G with Radeon Graphics         
Ram: 15711 MB, 
GPU Information:
  AMD Radeon(TM) Graphics - 27.20.21003.8013
Screen: 1920x1080
Temp Dir: C:\Users\corio\AppData\Local\Temp\
Install Dir: C:\Program Files\HandBrake
Data Dir: C:\Users\corio\AppData\Roaming\HandBrake

-------------------------------------------


# Starting Encode ...

[03:53:27] base preset: Fast 1080p30
[15:53:27] hb_init: starting libhb thread
[15:53:27] Starting work at: Sun May 30 15:53:27 2021
[15:53:27] 1 job(s) to process
[15:53:27] json job:
{
  "Audio": {
    "AudioList": [
      {
        "Bitrate": 160,
        "DRC": 0.0,
        "Encoder": "av_aac",
        "Gain": 0.0,
        "Mixdown": 4,
        "NormalizeMixLevel": false,
        "Samplerate": 0,
        "Track": 0,
        "DitherMethod": 0
      }
    ],
    "CopyMask": [
      "copy:aac",
      "copy:ac3",
      "copy:dtshd",
      "copy:dts",
      "copy:eac3",
      "copy:flac",
      "copy:mp3",
      "copy:truehd"
    ],
    "FallbackEncoder": "ac3"
  },
  "Destination": {
    "ChapterList": [
      {
        "Name": "Chapter 1"
      }
    ],
    "ChapterMarkers": true,
    "AlignAVStart": true,
    "File": "C:\\Users\\corio\\Videos\\Tos-4K-1920-1.m4v",
    "Mp4Options": {
      "IpodAtom": false,
      "Mp4Optimize": false
    },
    "Mux": "av_mp4"
  },
  "Filters": {
    "FilterList": [
      {
        "ID": 4,
        "Settings": {
          "mode": "7"
        }
      },
      {
        "ID": 3,
        "Settings": {
          "block-height": "16",
          "block-thresh": "40",
          "block-width": "16",
          "filter-mode": "2",
          "mode": "3",
          "motion-thresh": "1",
          "spatial-metric": "2",
          "spatial-thresh": "1"
        }
      },
      {
        "ID": 12,
        "Settings": {
          "crop-bottom": "0",
          "crop-left": "0",
          "crop-right": "0",
          "crop-top": "0",
          "height": "800",
          "width": "1920"
        }
      },
      {
        "ID": 6,
        "Settings": {
          "mode": "2",
          "rate": "27000000/900000"
        }
      }
    ]
  },
  "PAR": {
    "Num": 1,
    "Den": 1
  },
  "Metadata": {},
  "SequenceID": 0,
  "Source": {
    "Angle": 1,
    "Range": {
      "Type": "chapter",
      "Start": 1,
      "End": 1
    },
    "Title": 1,
    "Path": "C:\\Users\\corio\\Downloads\\ToS-4k-1920.mov"
  },
  "Subtitle": {
    "Search": {
      "Burn": true,
      "Default": false,
      "Enable": true,
      "Forced": true
    },
    "SubtitleList": []
  },
  "Video": {
    "Encoder": "x264",
    "Level": "4.0",
    "TwoPass": false,
    "Turbo": false,
    "ColorMatrixCode": 0,
    "Options": "",
    "Preset": "fast",
    "Profile": "main",
    "Quality": 22.0,
    "QSV": {
      "Decode": false,
      "AsyncDepth": 0
    }
  }
}
[15:53:27] CPU: AMD Ryzen 7 5700G with Radeon Graphics
[15:53:27]  - logical processor count: 16
[15:53:27] Intel Quick Sync Video support: no
[15:53:27] hb_scan: path=C:\Users\corio\Downloads\ToS-4k-1920.mov, title_index=1
udfread ERROR: ECMA 167 Volume Recognition failed
src/libbluray/disc/disc.c:323: failed opening UDF image C:\Users\corio\Downloads\ToS-4k-1920.mov
src/libbluray/disc/disc.c:424: error opening file BDMV\index.bdmv
src/libbluray/disc/disc.c:424: error opening file BDMV\BACKUP\index.bdmv
src/libbluray/bluray.c:2585: nav_get_title_list(C:\Users\corio\Downloads\ToS-4k-1920.mov\) failed
[15:53:27] bd: not a bd - trying as a stream/file instead
libdvdnav: Using dvdnav version 6.0.1
libdvdread: Encrypted DVD support unavailable.
libdvdread:DVDOpenFileUDF:UDFFindFile /VIDEO_TS/VIDEO_TS.IFO failed
libdvdread:DVDOpenFileUDF:UDFFindFile /VIDEO_TS/VIDEO_TS.BUP failed
libdvdread: Can't open file VIDEO_TS.IFO.
libdvdnav: vm: failed to read VIDEO_TS.IFO
[15:53:27] dvd: not a dvd - trying as a stream/file instead
Input #0, mov,mp4,m4a,3gp,3g2,mj2, from 'C:\Users\corio\Downloads\ToS-4k-1920.mov':
  Metadata:
    major_brand     : qt
    minor_version   : 512
    compatible_brands: qt
    encoder         : Lavf54.29.104
  Duration: 00:12:14.17, start: 0.000000, bitrate: 8051 kb/s
    Stream #0:0(eng): Video: h264 (High) (avc1 / 0x31637661), yuv420p, 1920x800 [SAR 1:1 DAR 12:5], 7862 kb/s, 24 fps, 24 tbr, 24 tbn, 48 tbc (default)
    Metadata:
      handler_name    : VideoHandler
      encoder         : libx264
    Stream #0:1(eng): Audio: aac (LC) (mp4a / 0x6134706D), 44100 Hz, stereo, fltp, 182 kb/s (default)
    Metadata:
      handler_name    : SoundHandler
[15:53:27] scan: decoding previews for title 1
[15:53:27] scan: audio 0x1: aac, rate=44100Hz, bitrate=182815 English (AAC LC) (2.0 ch) (182 kbps)
[15:53:27] scan: 10 previews, 1920x800, 24.000 fps, autocrop = 0/0/0/0, aspect 2.40:1, PAR 1:1
[15:53:27] scan: supported video decoders: avcodec qsv
[15:53:27] libhb: scan thread found 1 valid title(s)
[15:53:27] Skipping subtitle scan.  No suitable subtitle tracks.
[15:53:27] Starting Task: Encoding Pass
[15:53:27] Skipping crop/scale filter
[15:53:27] work: only 1 chapter, disabling chapter markers
[15:53:27] job configuration:
[15:53:27]  * source
[15:53:27]    + C:\Users\corio\Downloads\ToS-4k-1920.mov
[15:53:27]    + title 1, chapter(s) 1 to 1
[15:53:27]    + container: mov,mp4,m4a,3gp,3g2,mj2
[15:53:27]    + data rate: 8051 kbps
[15:53:27]  * destination
[15:53:27]    + C:\Users\corio\Videos\Tos-4K-1920-1.m4v
[15:53:27]    + container: MPEG-4 (libavformat)
[15:53:27]      + align initial A/V stream timestamps
[15:53:27]  * video track
[15:53:27]    + decoder: h264
[15:53:27]      + bitrate 7862 kbps
[15:53:27]    + filters
[15:53:27]      + Comb Detect (mode=3:spatial-metric=2:motion-thresh=1:spatial-thresh=1:filter-mode=2:block-thresh=40:block-width=16:block-height=16)
[15:53:27]      + Decomb (mode=39)
[15:53:27]      + Framerate Shaper (mode=2:rate=27000000/900000)
[15:53:27]        + frame rate: 24.000 fps -> peak rate limited to 30.000 fps
[15:53:27]    + Output geometry
[15:53:27]      + storage dimensions: 1920 x 800
[15:53:27]      + pixel aspect ratio: 1 : 1
[15:53:27]      + display dimensions: 1920 x 800
[15:53:27]    + encoder: H.264 (libx264)
[15:53:27]      + preset:  fast
[15:53:27]      + profile: main
[15:53:27]      + level:   4.0
[15:53:27]      + quality: 22.00 (RF)
[15:53:27]      + color profile: 1-1-1
[15:53:27]  * audio track 1
[15:53:27]    + decoder: English (AAC LC) (2.0 ch) (182 kbps) (track 1, id 0x1)
[15:53:27]      + bitrate: 182 kbps, samplerate: 44100 Hz
[15:53:27]    + mixdown: Stereo
[15:53:27]    + dither: none
[15:53:27]    + encoder: AAC (libavcodec)
[15:53:27]      + bitrate: 160 kbps, samplerate: 44100 Hz
[15:53:27] sync: expecting 17620 video frames
[15:53:27] encx264: min-keyint: 24, keyint: 240
[15:53:27] encx264: encoding at constant RF 22.000000
[15:53:27] encx264: unparsed options: level=4.0:ref=2:8x8dct=0:weightp=1:subme=6:vbv-bufsize=25000:vbv-maxrate=20000:rc-lookahead=30
x264 [info]: using SAR=1/1
x264 [info]: using cpu capabilities: MMX2 SSE2Fast SSSE3 SSE4.2 AVX FMA3 BMI2 AVX2
x264 [info]: profile Main, level 4.0, 4:2:0, 8-bit
[15:53:27] sync: first pts video is 0
[15:53:27] sync: "Chapter 1" (1) at frame 1 time 0
[15:53:27] sync: first pts audio 0x1 is 0
[15:56:05] reader: done. 1 scr changes
[15:56:06] work: average encoding speed for job is 110.930214 fps
[15:56:06] comb detect: heavy 749 | light 1928 | uncombed 14943 | total 17620
[15:56:06] decomb: deinterlaced 749 | blended 1928 | unfiltered 14943 | total 17620
[15:56:06] vfr: 17620 frames output, 0 dropped and 0 duped for CFR/PFR
[15:56:06] vfr: lost time: 0 (0 frames)
[15:56:06] vfr: gained time: 0 (0 frames) (0 not accounted for)
[15:56:06] aac-decoder done: 31616 frames, 0 decoder errors
[15:56:06] h264-decoder done: 17620 frames, 0 decoder errors
[15:56:06] sync: got 17620 frames, 17620 expected
[15:56:06] sync: framerate min 24.000 fps, max 24.000 fps, avg 24.000 fps
x264 [info]: frame I:181   Avg QP:17.97  size:125923
x264 [info]: frame P:5875  Avg QP:21.91  size: 36940
x264 [info]: frame B:11564 Avg QP:24.14  size:  9635
x264 [info]: consecutive B-frames:  7.1% 14.2%  6.4% 72.4%
x264 [info]: mb I  I16..4: 28.0%  0.0% 72.0%
x264 [info]: mb P  I16..4:  6.3%  0.0%  7.9%  P16..4: 40.4% 15.8%  7.7%  0.0%  0.0%    skip:21.8%
x264 [info]: mb B  I16..4:  3.1%  0.0%  0.9%  B16..8: 26.4%  6.1%  0.5%  direct:10.9%  skip:52.1%  L0:41.2% L1:49.3% BI: 9.6%
x264 [info]: coded y,uvDC,uvAC intra: 43.4% 68.4% 28.5% inter: 11.9% 22.4% 1.4%
x264 [info]: i16 v,h,dc,p: 36% 25% 15% 24%
x264 [info]: i4 v,h,dc,ddl,ddr,vr,hd,vl,hu: 23% 21% 16%  6%  8%  7%  7%  6%  5%
x264 [info]: i8c dc,h,v,p: 49% 22% 21%  8%
x264 [info]: Weighted P-Frames: Y:3.7% UV:1.4%
x264 [info]: ref P L0: 76.3% 23.7%
x264 [info]: ref B L0: 84.1% 15.9%
x264 [info]: ref B L1: 96.2%  3.8%
x264 [info]: kb/s:3827.29
[15:56:06] mux: track 0, 17620 frames, 351227150 bytes, 3827.00 kbps, fifo 1024
[15:56:06] mux: track 1, 31617 frames, 14759879 bytes, 160.82 kbps, fifo 2048
[15:56:06] Finished work at: Sun May 30 15:56:06 2021
[15:56:06] libhb: work result = 0

# Encode Completed ...
H2651080p30 Encode log:

Code: Select all

HandBrake 1.3.3 (2020061300)
OS: Microsoft Windows NT 10.0.19043.0
CPU: AMD Ryzen 7 5700G with Radeon Graphics         
Ram: 15711 MB, 
GPU Information:
  AMD Radeon(TM) Graphics - 27.20.21003.8013
Screen: 1920x1080
Temp Dir: C:\Users\corio\AppData\Local\Temp\
Install Dir: C:\Program Files\HandBrake
Data Dir: C:\Users\corio\AppData\Roaming\HandBrake

-------------------------------------------


# Starting Encode ...

[04:16:54] base preset: H.265 MKV 1080p30
[16:16:54] hb_init: starting libhb thread
[16:16:54] Starting work at: Sun May 30 16:16:54 2021
[16:16:54] 1 job(s) to process
[16:16:54] json job:
{
  "Audio": {
    "AudioList": [
      {
        "Bitrate": 160,
        "DRC": 0.0,
        "Encoder": "av_aac",
        "Gain": 0.0,
        "Mixdown": 4,
        "NormalizeMixLevel": false,
        "Samplerate": 0,
        "Track": 0,
        "DitherMethod": 0
      }
    ],
    "CopyMask": [
      "copy:aac",
      "copy:ac3",
      "copy:dtshd",
      "copy:dts",
      "copy:eac3",
      "copy:flac",
      "copy:mp3",
      "copy:truehd"
    ],
    "FallbackEncoder": "ac3"
  },
  "Destination": {
    "ChapterList": [
      {
        "Name": "Chapter 1"
      }
    ],
    "ChapterMarkers": true,
    "AlignAVStart": false,
    "File": "C:\\Users\\corio\\Videos\\Tos-4K-1920-1.mkv",
    "Mp4Options": {
      "IpodAtom": false,
      "Mp4Optimize": false
    },
    "Mux": "av_mkv"
  },
  "Filters": {
    "FilterList": [
      {
        "ID": 4,
        "Settings": {
          "mode": "7"
        }
      },
      {
        "ID": 3,
        "Settings": {
          "block-height": "16",
          "block-thresh": "40",
          "block-width": "16",
          "filter-mode": "2",
          "mode": "3",
          "motion-thresh": "1",
          "spatial-metric": "2",
          "spatial-thresh": "1"
        }
      },
      {
        "ID": 12,
        "Settings": {
          "crop-bottom": "0",
          "crop-left": "0",
          "crop-right": "0",
          "crop-top": "0",
          "height": "800",
          "width": "1920"
        }
      },
      {
        "ID": 6,
        "Settings": {
          "mode": "2",
          "rate": "27000000/900000"
        }
      }
    ]
  },
  "PAR": {
    "Num": 1,
    "Den": 1
  },
  "Metadata": {},
  "SequenceID": 0,
  "Source": {
    "Angle": 1,
    "Range": {
      "Type": "chapter",
      "Start": 1,
      "End": 1
    },
    "Title": 1,
    "Path": "C:\\Users\\corio\\Downloads\\ToS-4k-1920.mov"
  },
  "Subtitle": {
    "Search": {
      "Burn": true,
      "Default": false,
      "Enable": true,
      "Forced": true
    },
    "SubtitleList": []
  },
  "Video": {
    "Encoder": "x265",
    "Level": "auto",
    "TwoPass": false,
    "Turbo": false,
    "ColorMatrixCode": 0,
    "Options": "strong-intra-smoothing=0:rect=0:aq-mode=1",
    "Preset": "slow",
    "Profile": "main",
    "Quality": 22.0,
    "QSV": {
      "Decode": false,
      "AsyncDepth": 0
    }
  }
}
[16:16:54] CPU: AMD Ryzen 7 5700G with Radeon Graphics
[16:16:54]  - logical processor count: 16
[16:16:54] Intel Quick Sync Video support: no
[16:16:54] hb_scan: path=C:\Users\corio\Downloads\ToS-4k-1920.mov, title_index=1
udfread ERROR: ECMA 167 Volume Recognition failed
src/libbluray/disc/disc.c:323: failed opening UDF image C:\Users\corio\Downloads\ToS-4k-1920.mov
src/libbluray/disc/disc.c:424: error opening file BDMV\index.bdmv
src/libbluray/disc/disc.c:424: error opening file BDMV\BACKUP\index.bdmv
src/libbluray/bluray.c:2585: nav_get_title_list(C:\Users\corio\Downloads\ToS-4k-1920.mov\) failed
[16:16:54] bd: not a bd - trying as a stream/file instead
libdvdnav: Using dvdnav version 6.0.1
libdvdread: Encrypted DVD support unavailable.
libdvdread:DVDOpenFileUDF:UDFFindFile /VIDEO_TS/VIDEO_TS.IFO failed
libdvdread:DVDOpenFileUDF:UDFFindFile /VIDEO_TS/VIDEO_TS.BUP failed
libdvdread: Can't open file VIDEO_TS.IFO.
libdvdnav: vm: failed to read VIDEO_TS.IFO
[16:16:54] dvd: not a dvd - trying as a stream/file instead
Input #0, mov,mp4,m4a,3gp,3g2,mj2, from 'C:\Users\corio\Downloads\ToS-4k-1920.mov':
  Metadata:
    major_brand     : qt
    minor_version   : 512
    compatible_brands: qt
    encoder         : Lavf54.29.104
  Duration: 00:12:14.17, start: 0.000000, bitrate: 8051 kb/s
    Stream #0:0(eng): Video: h264 (High) (avc1 / 0x31637661), yuv420p, 1920x800 [SAR 1:1 DAR 12:5], 7862 kb/s, 24 fps, 24 tbr, 24 tbn, 48 tbc (default)
    Metadata:
      handler_name    : VideoHandler
      encoder         : libx264
    Stream #0:1(eng): Audio: aac (LC) (mp4a / 0x6134706D), 44100 Hz, stereo, fltp, 182 kb/s (default)
    Metadata:
      handler_name    : SoundHandler
[16:16:54] scan: decoding previews for title 1
[16:16:54] scan: audio 0x1: aac, rate=44100Hz, bitrate=182815 English (AAC LC) (2.0 ch) (182 kbps)
[16:16:55] scan: 10 previews, 1920x800, 24.000 fps, autocrop = 0/0/0/0, aspect 2.40:1, PAR 1:1
[16:16:55] scan: supported video decoders: avcodec qsv
[16:16:55] libhb: scan thread found 1 valid title(s)
[16:16:55] Skipping subtitle scan.  No suitable subtitle tracks.
[16:16:55] Starting Task: Encoding Pass
[16:16:55] Skipping crop/scale filter
[16:16:55] work: only 1 chapter, disabling chapter markers
[16:16:55] job configuration:
[16:16:55]  * source
[16:16:55]    + C:\Users\corio\Downloads\ToS-4k-1920.mov
[16:16:55]    + title 1, chapter(s) 1 to 1
[16:16:55]    + container: mov,mp4,m4a,3gp,3g2,mj2
[16:16:55]    + data rate: 8051 kbps
[16:16:55]  * destination
[16:16:55]    + C:\Users\corio\Videos\Tos-4K-1920-1.mkv
[16:16:55]    + container: Matroska (libavformat)
[16:16:55]  * video track
[16:16:55]    + decoder: h264
[16:16:55]      + bitrate 7862 kbps
[16:16:55]    + filters
[16:16:55]      + Comb Detect (mode=3:spatial-metric=2:motion-thresh=1:spatial-thresh=1:filter-mode=2:block-thresh=40:block-width=16:block-height=16)
[16:16:55]      + Decomb (mode=39)
[16:16:55]      + Framerate Shaper (mode=2:rate=27000000/900000)
[16:16:55]        + frame rate: 24.000 fps -> peak rate limited to 30.000 fps
[16:16:55]    + Output geometry
[16:16:55]      + storage dimensions: 1920 x 800
[16:16:55]      + pixel aspect ratio: 1 : 1
[16:16:55]      + display dimensions: 1920 x 800
[16:16:55]    + encoder: H.265 (libx265)
[16:16:55]      + preset:  slow
[16:16:55]      + options: strong-intra-smoothing=0:rect=0:aq-mode=1
[16:16:55]      + profile: main
[16:16:55]      + level:   auto
[16:16:55]      + quality: 22.00 (RF)
[16:16:55]      + color profile: 1-1-1
[16:16:55]  * audio track 1
[16:16:55]    + decoder: English (AAC LC) (2.0 ch) (182 kbps) (track 1, id 0x1)
[16:16:55]      + bitrate: 182 kbps, samplerate: 44100 Hz
[16:16:55]    + mixdown: Stereo
[16:16:55]    + dither: none
[16:16:55]    + encoder: AAC (libavcodec)
[16:16:55]      + bitrate: 160 kbps, samplerate: 44100 Hz
[16:16:55] sync: expecting 17620 video frames
x265 [info]: HEVC encoder version 3.2.1+1-b5c86a64bbbe
x265 [info]: build info [Windows][GCC 9.2.0][64 bit] 8bit+10bit+12bit
x265 [info]: using cpu capabilities: MMX2 SSE2Fast LZCNT SSSE3 SSE4.2 AVX FMA3 BMI2 AVX2
x265 [info]: Main profile, Level-4 (Main tier)
x265 [info]: Thread pool created using 16 threads
x265 [info]: Slices                              : 1
x265 [info]: frame threads / pool features       : 4 / wpp(13 rows)
x265 [info]: Coding QT: max CU size, min CU size : 64 / 8
x265 [info]: Residual QT: max TU size, max depth : 32 / 1 inter / 1 intra
x265 [info]: ME / range / subpel / merge         : star / 57 / 3 / 3
x265 [info]: Keyframe min / max / scenecut / bias: 24 / 240 / 40 / 5.00
x265 [info]: Lookahead / bframes / badapt        : 25 / 4 / 2
x265 [info]: b-pyramid / weightp / weightb       : 1 / 1 / 0
x265 [info]: References / ref-limit  cu / depth  : 4 / on / on
x265 [info]: AQ: mode / str / qg-size / cu-tree  : 1 / 1.0 / 32 / 1
x265 [info]: Rate Control / qCompress            : CRF-22.0 / 0.60
x265 [info]: tools: limit-modes rd=4 psy-rd=2.00 rdoq=2 psy-rdoq=1.00 rskip
x265 [info]: tools: signhide tmvp lslices=4 deblock sao
[16:16:55] sync: first pts video is 0
[16:16:55] sync: "Chapter 1" (1) at frame 1 time 0
[16:16:55] sync: first pts audio 0x1 is 0
[16:27:18] reader: done. 1 scr changes
[16:27:20] work: average encoding speed for job is 28.152491 fps
[16:27:20] comb detect: heavy 749 | light 1928 | uncombed 14943 | total 17620
[16:27:21] decomb: deinterlaced 749 | blended 1928 | unfiltered 14943 | total 17620
[16:27:21] vfr: 17620 frames output, 0 dropped and 0 duped for CFR/PFR
[16:27:21] vfr: lost time: 0 (0 frames)
[16:27:21] vfr: gained time: 0 (0 frames) (0 not accounted for)
[16:27:21] aac-decoder done: 31616 frames, 0 decoder errors
[16:27:21] h264-decoder done: 17620 frames, 0 decoder errors
[16:27:21] sync: got 17620 frames, 17620 expected
[16:27:21] sync: framerate min 24.000 fps, max 24.000 fps, avg 24.000 fps
x265 [info]: frame I:    173, Avg QP:20.18  kb/s: 15735.74
x265 [info]: frame P:   5141, Avg QP:22.44  kb/s: 6785.21
x265 [info]: frame B:  12306, Avg QP:27.98  kb/s: 1125.59
x265 [info]: Weighted P-Frames: Y:3.7% UV:2.5%
x265 [info]: consecutive B-frames: 14.6% 12.5% 11.2% 49.9% 11.7%
encoded 17620 frames in 625.74s (28.16 fps), 2920.35 kb/s, Avg QP:26.29
[16:27:21] mux: track 0, 17620 frames, 268073705 bytes, 2920.96 kbps, fifo 2048
[16:27:21] mux: track 1, 31617 frames, 14759879 bytes, 160.82 kbps, fifo 4096
[16:27:21] Finished work at: Sun May 30 16:27:21 2021
[16:27:21] libhb: work result = 0

# Encode Completed ...


CoriolisSTORM
Posts: 10
Joined: Fri Nov 19, 2010 5:26 am

Re: A Collection of Builds (one new, rest from previous decade!)

Post by CoriolisSTORM »

x264 encoding on the above pulled 96-100 Watts the entire time. Call it ~98 Watts. Use 0.01 kWh.
H265 encoding on the above pulled 100-105 Watts to start with, then dropped down to 83 Watts later in the encode. I used 0.01 kWh.
Now to switch to the AMD VCE options:
x264 encoding using AMD VCE pulls 63 watts.
H265 encoding using AMD VCE pulls 68 watts.
x264 with VCE gives you 1 minute and 48 seconds for the encode. Contrast to 2 minute and 39 seconds for CPU only encoding.
H265 with VCE gives you 1 minute and 33 seconds for the encode. Contrast to 10 minutes and 27 seconds for CPU only encoding.

However, you pay for this speed increase with video size. I've always found video quality to be a subjective thing, so I'll just stick with size comparisons.

1080p30fast is 357,966 kb
1080p30fast VCE is 749,040 kb
H2651080p30 is 276,557 kb
H2651080p30 VCE is 621,096 kb in size.

x264 with AMD VCE Log:

Code: Select all

HandBrake 1.3.3 (2020061300)
OS: Microsoft Windows NT 10.0.19043.0
CPU: AMD Ryzen 7 5700G with Radeon Graphics         
Ram: 15711 MB, 
GPU Information:
  AMD Radeon(TM) Graphics - 27.20.21003.8013
Screen: 1920x1080
Temp Dir: C:\Users\corio\AppData\Local\Temp\
Install Dir: C:\Program Files\HandBrake
Data Dir: C:\Users\corio\AppData\Roaming\HandBrake

-------------------------------------------


# Starting Encode ...

[05:03:33] base preset: Fast 1080p30 (Modified)
[17:03:33] hb_init: starting libhb thread
[17:03:33] Starting work at: Sun May 30 17:03:33 2021
[17:03:33] 1 job(s) to process
[17:03:33] json job:
{
  "Audio": {
    "AudioList": [
      {
        "Bitrate": 160,
        "DRC": 0.0,
        "Encoder": "av_aac",
        "Gain": 0.0,
        "Mixdown": 4,
        "NormalizeMixLevel": false,
        "Samplerate": 0,
        "Track": 0,
        "DitherMethod": 0
      }
    ],
    "CopyMask": [
      "copy:aac",
      "copy:ac3",
      "copy:dtshd",
      "copy:dts",
      "copy:eac3",
      "copy:flac",
      "copy:mp3",
      "copy:truehd"
    ],
    "FallbackEncoder": "ac3"
  },
  "Destination": {
    "ChapterList": [
      {
        "Name": "Chapter 1"
      }
    ],
    "ChapterMarkers": true,
    "AlignAVStart": true,
    "File": "C:\\Users\\corio\\Videos\\Tos-4K-1920-1-VCE.m4v",
    "Mp4Options": {
      "IpodAtom": false,
      "Mp4Optimize": false
    },
    "Mux": "av_mp4"
  },
  "Filters": {
    "FilterList": [
      {
        "ID": 4,
        "Settings": {
          "mode": "7"
        }
      },
      {
        "ID": 3,
        "Settings": {
          "block-height": "16",
          "block-thresh": "40",
          "block-width": "16",
          "filter-mode": "2",
          "mode": "3",
          "motion-thresh": "1",
          "spatial-metric": "2",
          "spatial-thresh": "1"
        }
      },
      {
        "ID": 12,
        "Settings": {
          "crop-bottom": "0",
          "crop-left": "0",
          "crop-right": "0",
          "crop-top": "0",
          "height": "800",
          "width": "1920"
        }
      },
      {
        "ID": 6,
        "Settings": {
          "mode": "2",
          "rate": "27000000/900000"
        }
      }
    ]
  },
  "PAR": {
    "Num": 1,
    "Den": 1
  },
  "Metadata": {},
  "SequenceID": 0,
  "Source": {
    "Angle": 1,
    "Range": {
      "Type": "chapter",
      "Start": 1,
      "End": 1
    },
    "Title": 1,
    "Path": "C:\\Users\\corio\\Downloads\\ToS-4k-1920.mov"
  },
  "Subtitle": {
    "Search": {
      "Burn": true,
      "Default": false,
      "Enable": true,
      "Forced": true
    },
    "SubtitleList": []
  },
  "Video": {
    "Encoder": "vce_h264",
    "Level": "auto",
    "TwoPass": false,
    "Turbo": false,
    "ColorMatrixCode": 0,
    "Options": "",
    "Preset": "balanced",
    "Profile": "baseline",
    "Quality": 22.0,
    "QSV": {
      "Decode": false,
      "AsyncDepth": 0
    }
  }
}
[17:03:33] CPU: AMD Ryzen 7 5700G with Radeon Graphics
[17:03:33]  - logical processor count: 16
[17:03:33] Intel Quick Sync Video support: no
[17:03:33] hb_scan: path=C:\Users\corio\Downloads\ToS-4k-1920.mov, title_index=1
udfread ERROR: ECMA 167 Volume Recognition failed
src/libbluray/disc/disc.c:323: failed opening UDF image C:\Users\corio\Downloads\ToS-4k-1920.mov
src/libbluray/disc/disc.c:424: error opening file BDMV\index.bdmv
src/libbluray/disc/disc.c:424: error opening file BDMV\BACKUP\index.bdmv
src/libbluray/bluray.c:2585: nav_get_title_list(C:\Users\corio\Downloads\ToS-4k-1920.mov\) failed
[17:03:33] bd: not a bd - trying as a stream/file instead
libdvdnav: Using dvdnav version 6.0.1
libdvdread: Encrypted DVD support unavailable.
libdvdread:DVDOpenFileUDF:UDFFindFile /VIDEO_TS/VIDEO_TS.IFO failed
libdvdread:DVDOpenFileUDF:UDFFindFile /VIDEO_TS/VIDEO_TS.BUP failed
libdvdread: Can't open file VIDEO_TS.IFO.
libdvdnav: vm: failed to read VIDEO_TS.IFO
[17:03:33] dvd: not a dvd - trying as a stream/file instead
Input #0, mov,mp4,m4a,3gp,3g2,mj2, from 'C:\Users\corio\Downloads\ToS-4k-1920.mov':
  Metadata:
    major_brand     : qt
    minor_version   : 512
    compatible_brands: qt
    encoder         : Lavf54.29.104
  Duration: 00:12:14.17, start: 0.000000, bitrate: 8051 kb/s
    Stream #0:0(eng): Video: h264 (High) (avc1 / 0x31637661), yuv420p, 1920x800 [SAR 1:1 DAR 12:5], 7862 kb/s, 24 fps, 24 tbr, 24 tbn, 48 tbc (default)
    Metadata:
      handler_name    : VideoHandler
      encoder         : libx264
    Stream #0:1(eng): Audio: aac (LC) (mp4a / 0x6134706D), 44100 Hz, stereo, fltp, 182 kb/s (default)
    Metadata:
      handler_name    : SoundHandler
[17:03:33] scan: decoding previews for title 1
[17:03:33] scan: audio 0x1: aac, rate=44100Hz, bitrate=182815 English (AAC LC) (2.0 ch) (182 kbps)
[17:03:33] scan: 10 previews, 1920x800, 24.000 fps, autocrop = 0/0/0/0, aspect 2.40:1, PAR 1:1
[17:03:33] scan: supported video decoders: avcodec qsv
[17:03:33] libhb: scan thread found 1 valid title(s)
[17:03:33] Skipping subtitle scan.  No suitable subtitle tracks.
[17:03:33] Starting Task: Encoding Pass
[17:03:33] Skipping crop/scale filter
[17:03:33] work: only 1 chapter, disabling chapter markers
[17:03:33] job configuration:
[17:03:33]  * source
[17:03:33]    + C:\Users\corio\Downloads\ToS-4k-1920.mov
[17:03:33]    + title 1, chapter(s) 1 to 1
[17:03:33]    + container: mov,mp4,m4a,3gp,3g2,mj2
[17:03:33]    + data rate: 8051 kbps
[17:03:33]  * destination
[17:03:33]    + C:\Users\corio\Videos\Tos-4K-1920-1-VCE.m4v
[17:03:33]    + container: MPEG-4 (libavformat)
[17:03:33]      + align initial A/V stream timestamps
[17:03:33]  * video track
[17:03:33]    + decoder: h264
[17:03:33]      + bitrate 7862 kbps
[17:03:33]    + filters
[17:03:33]      + Comb Detect (mode=3:spatial-metric=2:motion-thresh=1:spatial-thresh=1:filter-mode=2:block-thresh=40:block-width=16:block-height=16)
[17:03:33]      + Decomb (mode=39)
[17:03:33]      + Framerate Shaper (mode=2:rate=27000000/900000)
[17:03:33]        + frame rate: 24.000 fps -> peak rate limited to 30.000 fps
[17:03:33]    + Output geometry
[17:03:33]      + storage dimensions: 1920 x 800
[17:03:33]      + pixel aspect ratio: 1 : 1
[17:03:33]      + display dimensions: 1920 x 800
[17:03:33]    + encoder: H.264 (AMD VCE)
[17:03:33]      + preset:  balanced
[17:03:33]      + profile: baseline
[17:03:33]      + level:   auto
[17:03:33]      + quality: 22.00 (QP)
[17:03:33]      + color profile: 1-1-1
[17:03:33]  * audio track 1
[17:03:33]    + decoder: English (AAC LC) (2.0 ch) (182 kbps) (track 1, id 0x1)
[17:03:33]      + bitrate: 182 kbps, samplerate: 44100 Hz
[17:03:33]    + mixdown: Stereo
[17:03:33]    + dither: none
[17:03:33]    + encoder: AAC (libavcodec)
[17:03:33]      + bitrate: 160 kbps, samplerate: 44100 Hz
[17:03:33] sync: expecting 17620 video frames
[17:03:33] encavcodecInit: H.264 (AMD VCE)
[17:03:33] encavcodec: encoding at QP 22.00
[17:03:33] encavcodec: encoding with stored aspect 1/1
[17:03:33] sync: first pts video is 0
[17:03:33] sync: "Chapter 1" (1) at frame 1 time 0
[17:03:33] sync: first pts audio 0x1 is 0
[17:05:20] reader: done. 1 scr changes
[17:05:21] work: average encoding speed for job is 163.918320 fps
[17:05:21] comb detect: heavy 749 | light 1928 | uncombed 14943 | total 17620
[17:05:21] decomb: deinterlaced 749 | blended 1928 | unfiltered 14943 | total 17620
[17:05:21] vfr: 17620 frames output, 0 dropped and 0 duped for CFR/PFR
[17:05:21] vfr: lost time: 0 (0 frames)
[17:05:21] vfr: gained time: 0 (0 frames) (0 not accounted for)
[17:05:21] aac-decoder done: 31616 frames, 0 decoder errors
[17:05:21] h264-decoder done: 17620 frames, 0 decoder errors
[17:05:21] sync: got 17620 frames, 17620 expected
[17:05:21] sync: framerate min 24.000 fps, max 24.000 fps, avg 24.000 fps
[17:05:21] mux: track 0, 17620 frames, 751828381 bytes, 8191.99 kbps, fifo 1024
[17:05:21] mux: track 1, 31617 frames, 14759879 bytes, 160.82 kbps, fifo 2048
[17:05:21] Finished work at: Sun May 30 17:05:21 2021
[17:05:21] libhb: work result = 0

# Encode Completed ...

H265 with AMD VCE Log:

Code: Select all

HandBrake 1.3.3 (2020061300)
OS: Microsoft Windows NT 10.0.19043.0
CPU: AMD Ryzen 7 5700G with Radeon Graphics         
Ram: 15711 MB, 
GPU Information:
  AMD Radeon(TM) Graphics - 27.20.21003.8013
Screen: 1920x1080
Temp Dir: C:\Users\corio\AppData\Local\Temp\
Install Dir: C:\Program Files\HandBrake
Data Dir: C:\Users\corio\AppData\Roaming\HandBrake

-------------------------------------------


# Starting Encode ...

[05:06:34] base preset: H.265 MKV 1080p30 (Modified)
[17:06:34] hb_init: starting libhb thread
[17:06:34] Starting work at: Sun May 30 17:06:34 2021
[17:06:34] 1 job(s) to process
[17:06:34] json job:
{
  "Audio": {
    "AudioList": [
      {
        "Bitrate": 160,
        "DRC": 0.0,
        "Encoder": "av_aac",
        "Gain": 0.0,
        "Mixdown": 4,
        "NormalizeMixLevel": false,
        "Samplerate": 0,
        "Track": 0,
        "DitherMethod": 0
      }
    ],
    "CopyMask": [
      "copy:aac",
      "copy:ac3",
      "copy:dtshd",
      "copy:dts",
      "copy:eac3",
      "copy:flac",
      "copy:mp3",
      "copy:truehd"
    ],
    "FallbackEncoder": "ac3"
  },
  "Destination": {
    "ChapterList": [
      {
        "Name": "Chapter 1"
      }
    ],
    "ChapterMarkers": true,
    "AlignAVStart": false,
    "File": "C:\\Users\\corio\\Videos\\Tos-4K-1920-1-VCE.mkv",
    "Mp4Options": {
      "IpodAtom": false,
      "Mp4Optimize": false
    },
    "Mux": "av_mkv"
  },
  "Filters": {
    "FilterList": [
      {
        "ID": 4,
        "Settings": {
          "mode": "7"
        }
      },
      {
        "ID": 3,
        "Settings": {
          "block-height": "16",
          "block-thresh": "40",
          "block-width": "16",
          "filter-mode": "2",
          "mode": "3",
          "motion-thresh": "1",
          "spatial-metric": "2",
          "spatial-thresh": "1"
        }
      },
      {
        "ID": 12,
        "Settings": {
          "crop-bottom": "0",
          "crop-left": "0",
          "crop-right": "0",
          "crop-top": "0",
          "height": "800",
          "width": "1920"
        }
      },
      {
        "ID": 6,
        "Settings": {
          "mode": "2",
          "rate": "27000000/900000"
        }
      }
    ]
  },
  "PAR": {
    "Num": 1,
    "Den": 1
  },
  "Metadata": {},
  "SequenceID": 0,
  "Source": {
    "Angle": 1,
    "Range": {
      "Type": "chapter",
      "Start": 1,
      "End": 1
    },
    "Title": 1,
    "Path": "C:\\Users\\corio\\Downloads\\ToS-4k-1920.mov"
  },
  "Subtitle": {
    "Search": {
      "Burn": true,
      "Default": false,
      "Enable": true,
      "Forced": true
    },
    "SubtitleList": []
  },
  "Video": {
    "Encoder": "vce_h265",
    "Level": "auto",
    "TwoPass": false,
    "Turbo": false,
    "ColorMatrixCode": 0,
    "Options": "",
    "Preset": "balanced",
    "Profile": "main",
    "Quality": 22.0,
    "QSV": {
      "Decode": false,
      "AsyncDepth": 0
    }
  }
}
[17:06:34] CPU: AMD Ryzen 7 5700G with Radeon Graphics
[17:06:34]  - logical processor count: 16
[17:06:34] Intel Quick Sync Video support: no
[17:06:34] hb_scan: path=C:\Users\corio\Downloads\ToS-4k-1920.mov, title_index=1
udfread ERROR: ECMA 167 Volume Recognition failed
src/libbluray/disc/disc.c:323: failed opening UDF image C:\Users\corio\Downloads\ToS-4k-1920.mov
src/libbluray/disc/disc.c:424: error opening file BDMV\index.bdmv
src/libbluray/disc/disc.c:424: error opening file BDMV\BACKUP\index.bdmv
src/libbluray/bluray.c:2585: nav_get_title_list(C:\Users\corio\Downloads\ToS-4k-1920.mov\) failed
[17:06:34] bd: not a bd - trying as a stream/file instead
libdvdnav: Using dvdnav version 6.0.1
libdvdread: Encrypted DVD support unavailable.
libdvdread:DVDOpenFileUDF:UDFFindFile /VIDEO_TS/VIDEO_TS.IFO failed
libdvdread:DVDOpenFileUDF:UDFFindFile /VIDEO_TS/VIDEO_TS.BUP failed
libdvdread: Can't open file VIDEO_TS.IFO.
libdvdnav: vm: failed to read VIDEO_TS.IFO
[17:06:34] dvd: not a dvd - trying as a stream/file instead
Input #0, mov,mp4,m4a,3gp,3g2,mj2, from 'C:\Users\corio\Downloads\ToS-4k-1920.mov':
  Metadata:
    major_brand     : qt
    minor_version   : 512
    compatible_brands: qt
    encoder         : Lavf54.29.104
  Duration: 00:12:14.17, start: 0.000000, bitrate: 8051 kb/s
    Stream #0:0(eng): Video: h264 (High) (avc1 / 0x31637661), yuv420p, 1920x800 [SAR 1:1 DAR 12:5], 7862 kb/s, 24 fps, 24 tbr, 24 tbn, 48 tbc (default)
    Metadata:
      handler_name    : VideoHandler
      encoder         : libx264
    Stream #0:1(eng): Audio: aac (LC) (mp4a / 0x6134706D), 44100 Hz, stereo, fltp, 182 kb/s (default)
    Metadata:
      handler_name    : SoundHandler
[17:06:34] scan: decoding previews for title 1
[17:06:34] scan: audio 0x1: aac, rate=44100Hz, bitrate=182815 English (AAC LC) (2.0 ch) (182 kbps)
[17:06:35] scan: 10 previews, 1920x800, 24.000 fps, autocrop = 0/0/0/0, aspect 2.40:1, PAR 1:1
[17:06:35] scan: supported video decoders: avcodec qsv
[17:06:35] libhb: scan thread found 1 valid title(s)
[17:06:35] Skipping subtitle scan.  No suitable subtitle tracks.
[17:06:35] Starting Task: Encoding Pass
[17:06:35] Skipping crop/scale filter
[17:06:35] work: only 1 chapter, disabling chapter markers
[17:06:35] job configuration:
[17:06:35]  * source
[17:06:35]    + C:\Users\corio\Downloads\ToS-4k-1920.mov
[17:06:35]    + title 1, chapter(s) 1 to 1
[17:06:35]    + container: mov,mp4,m4a,3gp,3g2,mj2
[17:06:35]    + data rate: 8051 kbps
[17:06:35]  * destination
[17:06:35]    + C:\Users\corio\Videos\Tos-4K-1920-1-VCE.mkv
[17:06:35]    + container: Matroska (libavformat)
[17:06:35]  * video track
[17:06:35]    + decoder: h264
[17:06:35]      + bitrate 7862 kbps
[17:06:35]    + filters
[17:06:35]      + Comb Detect (mode=3:spatial-metric=2:motion-thresh=1:spatial-thresh=1:filter-mode=2:block-thresh=40:block-width=16:block-height=16)
[17:06:35]      + Decomb (mode=39)
[17:06:35]      + Framerate Shaper (mode=2:rate=27000000/900000)
[17:06:35]        + frame rate: 24.000 fps -> peak rate limited to 30.000 fps
[17:06:35]    + Output geometry
[17:06:35]      + storage dimensions: 1920 x 800
[17:06:35]      + pixel aspect ratio: 1 : 1
[17:06:35]      + display dimensions: 1920 x 800
[17:06:35]    + encoder: H.265 (AMD VCE)
[17:06:35]      + preset:  balanced
[17:06:35]      + profile: main
[17:06:35]      + level:   auto
[17:06:35]      + quality: 22.00 (QP)
[17:06:35]      + color profile: 1-1-1
[17:06:35]  * audio track 1
[17:06:35]    + decoder: English (AAC LC) (2.0 ch) (182 kbps) (track 1, id 0x1)
[17:06:35]      + bitrate: 182 kbps, samplerate: 44100 Hz
[17:06:35]    + mixdown: Stereo
[17:06:35]    + dither: none
[17:06:35]    + encoder: AAC (libavcodec)
[17:06:35]      + bitrate: 160 kbps, samplerate: 44100 Hz
[17:06:35] sync: expecting 17620 video frames
[17:06:35] encavcodecInit: H.265 (AMD VCE)
[17:06:35] encavcodec: encoding at QP 22.00
[17:06:35] encavcodec: encoding with stored aspect 1/1
[17:06:35] sync: first pts video is 0
[17:06:35] sync: "Chapter 1" (1) at frame 1 time 0
[17:06:35] sync: first pts audio 0x1 is 0
[17:08:07] reader: done. 1 scr changes
[17:08:07] work: average encoding speed for job is 191.186234 fps
[17:08:07] comb detect: heavy 749 | light 1928 | uncombed 14943 | total 17620
[17:08:07] decomb: deinterlaced 749 | blended 1928 | unfiltered 14943 | total 17620
[17:08:07] vfr: 17620 frames output, 0 dropped and 0 duped for CFR/PFR
[17:08:07] vfr: lost time: 0 (0 frames)
[17:08:07] vfr: gained time: 0 (0 frames) (0 not accounted for)
[17:08:07] aac-decoder done: 31616 frames, 0 decoder errors
[17:08:07] h264-decoder done: 17620 frames, 0 decoder errors
[17:08:07] sync: got 17620 frames, 17620 expected
[17:08:07] sync: framerate min 24.000 fps, max 24.000 fps, avg 24.000 fps
[17:08:07] mux: track 0, 17620 frames, 620878719 bytes, 6765.15 kbps, fifo 1024
[17:08:07] mux: track 1, 31617 frames, 14759879 bytes, 160.82 kbps, fifo 2048
[17:08:07] Finished work at: Sun May 30 17:08:07 2021
[17:08:07] libhb: work result = 0

# Encode Completed ...

mduell
Veteran User
Posts: 7480
Joined: Sat Apr 21, 2007 8:54 pm

Re: A Collection of Builds (one new, rest from previous decade!)

Post by mduell »

x264 can't use VCE.
rollin_eng
Veteran User
Posts: 4019
Joined: Wed May 04, 2011 11:06 pm

Re: A Collection of Builds (one new, rest from previous decade!)

Post by rollin_eng »

Seems to confirm the saying:

Speed. Quality. Size. Pick 2.
CoriolisSTORM
Posts: 10
Joined: Fri Nov 19, 2010 5:26 am

Re: A Collection of Builds (one new, rest from previous decade!)

Post by CoriolisSTORM »

I'm back again. Life sometimes gets busy. Anyway, I'm back to report on my 10-11 year old machine. I built a 980X based system back when the Core i7 series was new. Here's the data:

Code: Select all

HandBrake 1.3.3 (2020061300)
OS: Microsoft Windows NT 10.0.19042.0
CPU: Intel(R) Core(TM) i7 CPU       X 980  @ 3.33GHz
Ram: 6135 MB, 
GPU Information:
  NVIDIA GeForce GTX 470 - 23.21.13.9135
  NVIDIA GeForce GTX 470 - 23.21.13.9135
Screen: 1920x1080
Temp Dir: C:\Users\corio\AppData\Local\Temp\
Install Dir: C:\Program Files\HandBrake
Data Dir: C:\Users\corio\AppData\Roaming\HandBrake

-------------------------------------------


# Starting Encode ...

[03:37:23] base preset: Fast 1080p30
[15:37:23] hb_init: starting libhb thread
[15:37:23] Starting work at: Sun Jun 13 15:37:23 2021
[15:37:23] 1 job(s) to process
[15:37:23] json job:
{
  "Audio": {
    "AudioList": [
      {
        "Bitrate": 160,
        "DRC": 0.0,
        "Encoder": "av_aac",
        "Gain": 0.0,
        "Mixdown": 4,
        "NormalizeMixLevel": false,
        "Samplerate": 0,
        "Track": 0,
        "DitherMethod": 0
      }
    ],
    "CopyMask": [
      "copy:aac",
      "copy:ac3",
      "copy:dtshd",
      "copy:dts",
      "copy:eac3",
      "copy:flac",
      "copy:mp3",
      "copy:truehd"
    ],
    "FallbackEncoder": "ac3"
  },
  "Destination": {
    "ChapterList": [
      {
        "Name": "Chapter 1"
      }
    ],
    "ChapterMarkers": true,
    "AlignAVStart": true,
    "File": "C:\\Users\\corio\\Videos\\Tos-4K-1920-1.m4v",
    "Mp4Options": {
      "IpodAtom": false,
      "Mp4Optimize": false
    },
    "Mux": "av_mp4"
  },
  "Filters": {
    "FilterList": [
      {
        "ID": 4,
        "Settings": {
          "mode": "7"
        }
      },
      {
        "ID": 3,
        "Settings": {
          "block-height": "16",
          "block-thresh": "40",
          "block-width": "16",
          "filter-mode": "2",
          "mode": "3",
          "motion-thresh": "1",
          "spatial-metric": "2",
          "spatial-thresh": "1"
        }
      },
      {
        "ID": 12,
        "Settings": {
          "crop-bottom": "0",
          "crop-left": "0",
          "crop-right": "0",
          "crop-top": "0",
          "height": "800",
          "width": "1920"
        }
      },
      {
        "ID": 6,
        "Settings": {
          "mode": "2",
          "rate": "27000000/900000"
        }
      }
    ]
  },
  "PAR": {
    "Num": 1,
    "Den": 1
  },
  "Metadata": {},
  "SequenceID": 0,
  "Source": {
    "Angle": 1,
    "Range": {
      "Type": "chapter",
      "Start": 1,
      "End": 1
    },
    "Title": 1,
    "Path": "C:\\Users\\corio\\Downloads\\ToS-4k-1920.mov"
  },
  "Subtitle": {
    "Search": {
      "Burn": true,
      "Default": false,
      "Enable": true,
      "Forced": true
    },
    "SubtitleList": []
  },
  "Video": {
    "Encoder": "x264",
    "Level": "4.0",
    "TwoPass": false,
    "Turbo": false,
    "ColorMatrixCode": 0,
    "Options": "",
    "Preset": "fast",
    "Profile": "main",
    "Quality": 22.0,
    "QSV": {
      "Decode": false,
      "AsyncDepth": 0
    }
  }
}
[15:37:23] CPU: Intel(R) Core(TM) i7 CPU       X 980  @ 3.33GHz
[15:37:23]  - logical processor count: 12
[15:37:23] Intel Quick Sync Video support: no
[15:37:23] hb_scan: path=C:\Users\corio\Downloads\ToS-4k-1920.mov, title_index=1
udfread ERROR: ECMA 167 Volume Recognition failed
src/libbluray/disc/disc.c:323: failed opening UDF image C:\Users\corio\Downloads\ToS-4k-1920.mov
src/libbluray/disc/disc.c:424: error opening file BDMV\index.bdmv
src/libbluray/disc/disc.c:424: error opening file BDMV\BACKUP\index.bdmv
src/libbluray/bluray.c:2585: nav_get_title_list(C:\Users\corio\Downloads\ToS-4k-1920.mov\) failed
[15:37:23] bd: not a bd - trying as a stream/file instead
libdvdnav: Using dvdnav version 6.0.1
libdvdread: Encrypted DVD support unavailable.
libdvdread:DVDOpenFileUDF:UDFFindFile /VIDEO_TS/VIDEO_TS.IFO failed
libdvdread:DVDOpenFileUDF:UDFFindFile /VIDEO_TS/VIDEO_TS.BUP failed
libdvdread: Can't open file VIDEO_TS.IFO.
libdvdnav: vm: failed to read VIDEO_TS.IFO
[15:37:23] dvd: not a dvd - trying as a stream/file instead
Input #0, mov,mp4,m4a,3gp,3g2,mj2, from 'C:\Users\corio\Downloads\ToS-4k-1920.mov':
  Metadata:
    major_brand     : qt
    minor_version   : 512
    compatible_brands: qt
    encoder         : Lavf54.29.104
  Duration: 00:12:14.17, start: 0.000000, bitrate: 8051 kb/s
    Stream #0:0(eng): Video: h264 (High) (avc1 / 0x31637661), yuv420p, 1920x800 [SAR 1:1 DAR 12:5], 7862 kb/s, 24 fps, 24 tbr, 24 tbn, 48 tbc (default)
    Metadata:
      handler_name    : VideoHandler
      encoder         : libx264
    Stream #0:1(eng): Audio: aac (LC) (mp4a / 0x6134706D), 44100 Hz, stereo, fltp, 182 kb/s (default)
    Metadata:
      handler_name    : SoundHandler
[15:37:23] scan: decoding previews for title 1
[15:37:23] scan: audio 0x1: aac, rate=44100Hz, bitrate=182815 English (AAC LC) (2.0 ch) (182 kbps)
[15:37:23] scan: 10 previews, 1920x800, 24.000 fps, autocrop = 0/0/0/0, aspect 2.40:1, PAR 1:1
[15:37:23] scan: supported video decoders: avcodec qsv
[15:37:23] libhb: scan thread found 1 valid title(s)
[15:37:24] Skipping subtitle scan.  No suitable subtitle tracks.
[15:37:24] Starting Task: Encoding Pass
[15:37:24] Skipping crop/scale filter
[15:37:24] work: only 1 chapter, disabling chapter markers
[15:37:24] job configuration:
[15:37:24]  * source
[15:37:24]    + C:\Users\corio\Downloads\ToS-4k-1920.mov
[15:37:24]    + title 1, chapter(s) 1 to 1
[15:37:24]    + container: mov,mp4,m4a,3gp,3g2,mj2
[15:37:24]    + data rate: 8051 kbps
[15:37:24]  * destination
[15:37:24]    + C:\Users\corio\Videos\Tos-4K-1920-1.m4v
[15:37:24]    + container: MPEG-4 (libavformat)
[15:37:24]      + align initial A/V stream timestamps
[15:37:24]  * video track
[15:37:24]    + decoder: h264
[15:37:24]      + bitrate 7862 kbps
[15:37:24]    + filters
[15:37:24]      + Comb Detect (mode=3:spatial-metric=2:motion-thresh=1:spatial-thresh=1:filter-mode=2:block-thresh=40:block-width=16:block-height=16)
[15:37:24]      + Decomb (mode=39)
[15:37:24]      + Framerate Shaper (mode=2:rate=27000000/900000)
[15:37:24]        + frame rate: 24.000 fps -> peak rate limited to 30.000 fps
[15:37:24]    + Output geometry
[15:37:24]      + storage dimensions: 1920 x 800
[15:37:24]      + pixel aspect ratio: 1 : 1
[15:37:24]      + display dimensions: 1920 x 800
[15:37:24]    + encoder: H.264 (libx264)
[15:37:24]      + preset:  fast
[15:37:24]      + profile: main
[15:37:24]      + level:   4.0
[15:37:24]      + quality: 22.00 (RF)
[15:37:24]      + color profile: 1-1-1
[15:37:24]  * audio track 1
[15:37:24]    + decoder: English (AAC LC) (2.0 ch) (182 kbps) (track 1, id 0x1)
[15:37:24]      + bitrate: 182 kbps, samplerate: 44100 Hz
[15:37:24]    + mixdown: Stereo
[15:37:24]    + dither: none
[15:37:24]    + encoder: AAC (libavcodec)
[15:37:24]      + bitrate: 160 kbps, samplerate: 44100 Hz
[15:37:24] sync: expecting 17620 video frames
[15:37:24] encx264: min-keyint: 24, keyint: 240
[15:37:24] encx264: encoding at constant RF 22.000000
[15:37:24] encx264: unparsed options: level=4.0:ref=2:8x8dct=0:weightp=1:subme=6:vbv-bufsize=25000:vbv-maxrate=20000:rc-lookahead=30
x264 [info]: using SAR=1/1
x264 [info]: using cpu capabilities: MMX2 SSE2Fast SSSE3 SSE4.2
x264 [info]: profile Main, level 4.0, 4:2:0, 8-bit
[15:37:24] sync: first pts video is 0
[15:37:24] sync: "Chapter 1" (1) at frame 1 time 0
[15:37:24] sync: first pts audio 0x1 is 0
[15:44:59] reader: done. 1 scr changes
[15:45:00] work: average encoding speed for job is 38.564095 fps
[15:45:00] comb detect: heavy 749 | light 1928 | uncombed 14943 | total 17620
[15:45:00] decomb: deinterlaced 749 | blended 1928 | unfiltered 14943 | total 17620
[15:45:00] vfr: 17620 frames output, 0 dropped and 0 duped for CFR/PFR
[15:45:00] vfr: lost time: 0 (0 frames)
[15:45:00] vfr: gained time: 0 (0 frames) (0 not accounted for)
[15:45:00] aac-decoder done: 31616 frames, 0 decoder errors
[15:45:00] h264-decoder done: 17620 frames, 0 decoder errors
[15:45:00] sync: got 17620 frames, 17620 expected
[15:45:00] sync: framerate min 24.000 fps, max 24.000 fps, avg 24.000 fps
x264 [info]: frame I:183   Avg QP:18.01  size:125739
x264 [info]: frame P:5767  Avg QP:21.87  size: 37596
x264 [info]: frame B:11670 Avg QP:24.14  size:  9701
x264 [info]: consecutive B-frames:  6.5% 13.4%  6.9% 73.3%
x264 [info]: mb I  I16..4: 27.8%  0.0% 72.2%
x264 [info]: mb P  I16..4:  6.4%  0.0%  8.1%  P16..4: 40.3% 15.8%  7.7%  0.0%  0.0%    skip:21.6%
x264 [info]: mb B  I16..4:  3.1%  0.0%  0.9%  B16..8: 26.4%  6.2%  0.5%  direct:10.9%  skip:52.0%  L0:41.5% L1:49.0% BI: 9.6%
x264 [info]: coded y,uvDC,uvAC intra: 43.7% 68.3% 28.5% inter: 11.8% 22.4% 1.4%
x264 [info]: i16 v,h,dc,p: 36% 25% 15% 24%
x264 [info]: i4 v,h,dc,ddl,ddr,vr,hd,vl,hu: 23% 21% 16%  6%  8%  7%  7%  6%  5%
x264 [info]: i8c dc,h,v,p: 49% 22% 21%  8%
x264 [info]: Weighted P-Frames: Y:3.1% UV:1.1%
x264 [info]: ref P L0: 76.4% 23.6%
x264 [info]: ref B L0: 84.3% 15.7%
x264 [info]: ref B L1: 96.2%  3.8%
x264 [info]: kb/s:3846.87
[15:45:01] mux: track 0, 17620 frames, 353023786 bytes, 3846.58 kbps, fifo 1024
[15:45:01] mux: track 1, 31617 frames, 14759879 bytes, 160.82 kbps, fifo 2048
[15:45:01] Finished work at: Sun Jun 13 15:45:01 2021
[15:45:01] libhb: work result = 0

# Encode Completed ...

It's an old machine with too much going on in the case. For the encode, it used 0.05 kWh. During the encode I pulled on average of 330W from the wall, with some odd spikes up to 460W. It is idling currently at 40 C. The max temp recorded during the encode was 77 C. Room temp is 26.7 C. Turbo boost is enabled, and it was running at 3.46 with a base of 3.33 GHz. H265 to follow.

It is immediately obvious, that despite having rose tinted glasses on about this system over the years, a basic office machine surpasses it in almost all regards. But it shall always be special to me, as it is the first system I built.
CoriolisSTORM
Posts: 10
Joined: Fri Nov 19, 2010 5:26 am

Re: A Collection of Builds (one new, rest from previous decade!)

Post by CoriolisSTORM »

And here's the 980X system with H265. I used 0.22 kWh for the test. Wattage hovered around 330 Watts, CPU usage wasn't pegged out at 100%, it was usually in the high 80% range with this, unlike x264, which implies there is something that may not scale as well to multiple cores, or it lacks the instruction set to complete it quickly. (Latter case more likely!)

Code: Select all

HandBrake 1.3.3 (2020061300)
OS: Microsoft Windows NT 10.0.19042.0
CPU: Intel(R) Core(TM) i7 CPU       X 980  @ 3.33GHz
Ram: 6135 MB, 
GPU Information:
  NVIDIA GeForce GTX 470 - 23.21.13.9135
  NVIDIA GeForce GTX 470 - 23.21.13.9135
Screen: 1920x1080
Temp Dir: C:\Users\corio\AppData\Local\Temp\
Install Dir: C:\Program Files\HandBrake
Data Dir: C:\Users\corio\AppData\Roaming\HandBrake

-------------------------------------------


# Starting Encode ...

[03:54:25] base preset: H.265 MKV 1080p30
[15:54:25] hb_init: starting libhb thread
[15:54:25] Starting work at: Sun Jun 13 15:54:25 2021
[15:54:25] 1 job(s) to process
[15:54:25] json job:
{
  "Audio": {
    "AudioList": [
      {
        "Bitrate": 160,
        "DRC": 0.0,
        "Encoder": "av_aac",
        "Gain": 0.0,
        "Mixdown": 4,
        "NormalizeMixLevel": false,
        "Samplerate": 0,
        "Track": 0,
        "DitherMethod": 0
      }
    ],
    "CopyMask": [
      "copy:aac",
      "copy:ac3",
      "copy:dtshd",
      "copy:dts",
      "copy:eac3",
      "copy:flac",
      "copy:mp3",
      "copy:truehd"
    ],
    "FallbackEncoder": "ac3"
  },
  "Destination": {
    "ChapterList": [
      {
        "Name": "Chapter 1"
      }
    ],
    "ChapterMarkers": true,
    "AlignAVStart": false,
    "File": "C:\\Users\\corio\\Videos\\Tos-4K-1920-1h265.mkv",
    "Mp4Options": {
      "IpodAtom": false,
      "Mp4Optimize": false
    },
    "Mux": "av_mkv"
  },
  "Filters": {
    "FilterList": [
      {
        "ID": 4,
        "Settings": {
          "mode": "7"
        }
      },
      {
        "ID": 3,
        "Settings": {
          "block-height": "16",
          "block-thresh": "40",
          "block-width": "16",
          "filter-mode": "2",
          "mode": "3",
          "motion-thresh": "1",
          "spatial-metric": "2",
          "spatial-thresh": "1"
        }
      },
      {
        "ID": 12,
        "Settings": {
          "crop-bottom": "0",
          "crop-left": "0",
          "crop-right": "0",
          "crop-top": "0",
          "height": "800",
          "width": "1920"
        }
      },
      {
        "ID": 6,
        "Settings": {
          "mode": "2",
          "rate": "27000000/900000"
        }
      }
    ]
  },
  "PAR": {
    "Num": 1,
    "Den": 1
  },
  "Metadata": {},
  "SequenceID": 0,
  "Source": {
    "Angle": 1,
    "Range": {
      "Type": "chapter",
      "Start": 1,
      "End": 1
    },
    "Title": 1,
    "Path": "C:\\Users\\corio\\Downloads\\ToS-4k-1920.mov"
  },
  "Subtitle": {
    "Search": {
      "Burn": true,
      "Default": false,
      "Enable": true,
      "Forced": true
    },
    "SubtitleList": []
  },
  "Video": {
    "Encoder": "x265",
    "Level": "auto",
    "TwoPass": false,
    "Turbo": false,
    "ColorMatrixCode": 0,
    "Options": "strong-intra-smoothing=0:rect=0:aq-mode=1",
    "Preset": "slow",
    "Profile": "main",
    "Quality": 22.0,
    "QSV": {
      "Decode": false,
      "AsyncDepth": 0
    }
  }
}
[15:54:25] CPU: Intel(R) Core(TM) i7 CPU       X 980  @ 3.33GHz
[15:54:25]  - logical processor count: 12
[15:54:25] Intel Quick Sync Video support: no
[15:54:25] hb_scan: path=C:\Users\corio\Downloads\ToS-4k-1920.mov, title_index=1
udfread ERROR: ECMA 167 Volume Recognition failed
src/libbluray/disc/disc.c:323: failed opening UDF image C:\Users\corio\Downloads\ToS-4k-1920.mov
src/libbluray/disc/disc.c:424: error opening file BDMV\index.bdmv
src/libbluray/disc/disc.c:424: error opening file BDMV\BACKUP\index.bdmv
src/libbluray/bluray.c:2585: nav_get_title_list(C:\Users\corio\Downloads\ToS-4k-1920.mov\) failed
[15:54:25] bd: not a bd - trying as a stream/file instead
libdvdnav: Using dvdnav version 6.0.1
libdvdread: Encrypted DVD support unavailable.
libdvdread:DVDOpenFileUDF:UDFFindFile /VIDEO_TS/VIDEO_TS.IFO failed
libdvdread:DVDOpenFileUDF:UDFFindFile /VIDEO_TS/VIDEO_TS.BUP failed
libdvdread: Can't open file VIDEO_TS.IFO.
libdvdnav: vm: failed to read VIDEO_TS.IFO
[15:54:25] dvd: not a dvd - trying as a stream/file instead
Input #0, mov,mp4,m4a,3gp,3g2,mj2, from 'C:\Users\corio\Downloads\ToS-4k-1920.mov':
  Metadata:
    major_brand     : qt
    minor_version   : 512
    compatible_brands: qt
    encoder         : Lavf54.29.104
  Duration: 00:12:14.17, start: 0.000000, bitrate: 8051 kb/s
    Stream #0:0(eng): Video: h264 (High) (avc1 / 0x31637661), yuv420p, 1920x800 [SAR 1:1 DAR 12:5], 7862 kb/s, 24 fps, 24 tbr, 24 tbn, 48 tbc (default)
    Metadata:
      handler_name    : VideoHandler
      encoder         : libx264
    Stream #0:1(eng): Audio: aac (LC) (mp4a / 0x6134706D), 44100 Hz, stereo, fltp, 182 kb/s (default)
    Metadata:
      handler_name    : SoundHandler
[15:54:25] scan: decoding previews for title 1
[15:54:25] scan: audio 0x1: aac, rate=44100Hz, bitrate=182815 English (AAC LC) (2.0 ch) (182 kbps)
[15:54:26] scan: 10 previews, 1920x800, 24.000 fps, autocrop = 0/0/0/0, aspect 2.40:1, PAR 1:1
[15:54:26] scan: supported video decoders: avcodec qsv
[15:54:26] libhb: scan thread found 1 valid title(s)
[15:54:26] Skipping subtitle scan.  No suitable subtitle tracks.
[15:54:26] Starting Task: Encoding Pass
[15:54:26] Skipping crop/scale filter
[15:54:26] work: only 1 chapter, disabling chapter markers
[15:54:26] job configuration:
[15:54:26]  * source
[15:54:26]    + C:\Users\corio\Downloads\ToS-4k-1920.mov
[15:54:26]    + title 1, chapter(s) 1 to 1
[15:54:26]    + container: mov,mp4,m4a,3gp,3g2,mj2
[15:54:26]    + data rate: 8051 kbps
[15:54:26]  * destination
[15:54:26]    + C:\Users\corio\Videos\Tos-4K-1920-1h265.mkv
[15:54:26]    + container: Matroska (libavformat)
[15:54:26]  * video track
[15:54:26]    + decoder: h264
[15:54:26]      + bitrate 7862 kbps
[15:54:26]    + filters
[15:54:26]      + Comb Detect (mode=3:spatial-metric=2:motion-thresh=1:spatial-thresh=1:filter-mode=2:block-thresh=40:block-width=16:block-height=16)
[15:54:26]      + Decomb (mode=39)
[15:54:26]      + Framerate Shaper (mode=2:rate=27000000/900000)
[15:54:26]        + frame rate: 24.000 fps -> peak rate limited to 30.000 fps
[15:54:26]    + Output geometry
[15:54:26]      + storage dimensions: 1920 x 800
[15:54:26]      + pixel aspect ratio: 1 : 1
[15:54:26]      + display dimensions: 1920 x 800
[15:54:26]    + encoder: H.265 (libx265)
[15:54:26]      + preset:  slow
[15:54:26]      + options: strong-intra-smoothing=0:rect=0:aq-mode=1
[15:54:26]      + profile: main
[15:54:26]      + level:   auto
[15:54:26]      + quality: 22.00 (RF)
[15:54:26]      + color profile: 1-1-1
[15:54:26]  * audio track 1
[15:54:26]    + decoder: English (AAC LC) (2.0 ch) (182 kbps) (track 1, id 0x1)
[15:54:26]      + bitrate: 182 kbps, samplerate: 44100 Hz
[15:54:26]    + mixdown: Stereo
[15:54:26]    + dither: none
[15:54:26]    + encoder: AAC (libavcodec)
[15:54:26]      + bitrate: 160 kbps, samplerate: 44100 Hz
[15:54:26] sync: expecting 17620 video frames
x265 [info]: HEVC encoder version 3.2.1+1-b5c86a64bbbe
x265 [info]: build info [Windows][GCC 9.2.0][64 bit] 8bit+10bit+12bit
x265 [info]: using cpu capabilities: MMX2 SSE2Fast SSSE3 SSE4.2
x265 [info]: Main profile, Level-4 (Main tier)
x265 [info]: Thread pool created using 12 threads
x265 [info]: Slices                              : 1
x265 [info]: frame threads / pool features       : 3 / wpp(13 rows)
x265 [info]: Coding QT: max CU size, min CU size : 64 / 8
x265 [info]: Residual QT: max TU size, max depth : 32 / 1 inter / 1 intra
x265 [info]: ME / range / subpel / merge         : star / 57 / 3 / 3
x265 [info]: Keyframe min / max / scenecut / bias: 24 / 240 / 40 / 5.00
x265 [info]: Lookahead / bframes / badapt        : 25 / 4 / 2
x265 [info]: b-pyramid / weightp / weightb       : 1 / 1 / 0
x265 [info]: References / ref-limit  cu / depth  : 4 / on / on
x265 [info]: AQ: mode / str / qg-size / cu-tree  : 1 / 1.0 / 32 / 1
x265 [info]: Rate Control / qCompress            : CRF-22.0 / 0.60
x265 [info]: tools: limit-modes rd=4 psy-rd=2.00 rdoq=2 psy-rdoq=1.00 rskip
x265 [info]: tools: signhide tmvp lslices=4 deblock sao
[15:54:26] sync: first pts video is 0
[15:54:26] sync: "Chapter 1" (1) at frame 1 time 0
[15:54:26] sync: first pts audio 0x1 is 0
[16:28:52] reader: done. 1 scr changes
[16:28:58] work: average encoding speed for job is 8.498562 fps
[16:28:58] comb detect: heavy 749 | light 1928 | uncombed 14943 | total 17620
[16:28:58] decomb: deinterlaced 749 | blended 1928 | unfiltered 14943 | total 17620
[16:28:58] vfr: 17620 frames output, 0 dropped and 0 duped for CFR/PFR
[16:28:58] vfr: lost time: 0 (0 frames)
[16:28:58] vfr: gained time: 0 (0 frames) (0 not accounted for)
[16:28:58] aac-decoder done: 31616 frames, 0 decoder errors
[16:28:58] h264-decoder done: 17620 frames, 0 decoder errors
[16:28:58] sync: got 17620 frames, 17620 expected
[16:28:58] sync: framerate min 24.000 fps, max 24.000 fps, avg 24.000 fps
x265 [info]: frame I:    173, Avg QP:20.18  kb/s: 15735.74
x265 [info]: frame P:   5141, Avg QP:22.44  kb/s: 6785.21
x265 [info]: frame B:  12306, Avg QP:27.98  kb/s: 1125.59
x265 [info]: Weighted P-Frames: Y:3.7% UV:2.5%
x265 [info]: consecutive B-frames: 14.6% 12.5% 11.2% 49.9% 11.7%
encoded 17620 frames in 2072.11s (8.50 fps), 2920.35 kb/s, Avg QP:26.29
[16:28:58] mux: track 0, 17620 frames, 268073705 bytes, 2920.96 kbps, fifo 2048
[16:28:58] mux: track 1, 31617 frames, 14759879 bytes, 160.82 kbps, fifo 4096
[16:28:58] Finished work at: Sun Jun 13 16:28:58 2021
[16:28:58] libhb: work result = 0

# Encode Completed ...

CoriolisSTORM
Posts: 10
Joined: Fri Nov 19, 2010 5:26 am

Re: A Collection of Builds (one new, rest from previous decade!)

Post by CoriolisSTORM »

I finally got the Atom x7-z8700 to finish an encode. Good news, it pulled 12 watts during the encode. Bad news, it took right at an hour for x264 and pulled 0.01 kWh.

Here's the log, QSV to follow, I may not attempt H265 on this thing. That being said, I've been a Handbrake user forever. I started on a (long gone) Athlon XP 2800+ system, and to transcode a DVD to an iPod Video compatible format used to take 8 hours...

Code: Select all

HandBrake 1.3.3 (2020061300)
OS: Microsoft Windows NT 10.0.19042.0
CPU: Intel(R) Atom(TM) x7-Z8700  CPU @ 1.60GHz
Ram: 4012 MB, 
GPU Information:
  Intel(R) HD Graphics - 20.19.15.4835
Screen: 1920x1280
Temp Dir: C:\Users\corio\AppData\Local\Temp\
Install Dir: C:\Program Files\HandBrake
Data Dir: C:\Users\corio\AppData\Roaming\HandBrake

-------------------------------------------


# Starting Encode ...

[04:40:36] base preset: Fast 1080p30
[16:40:36] hb_init: starting libhb thread
[16:40:36] Starting work at: Sun Jun 13 16:40:36 2021
[16:40:36] 1 job(s) to process
[16:40:36] json job:
{
  "Audio": {
    "AudioList": [
      {
        "Bitrate": 160,
        "DRC": 0.0,
        "Encoder": "av_aac",
        "Gain": 0.0,
        "Mixdown": 4,
        "NormalizeMixLevel": false,
        "Samplerate": 0,
        "Track": 0,
        "DitherMethod": 0
      }
    ],
    "CopyMask": [
      "copy:aac",
      "copy:ac3",
      "copy:dtshd",
      "copy:dts",
      "copy:eac3",
      "copy:flac",
      "copy:mp3",
      "copy:truehd"
    ],
    "FallbackEncoder": "ac3"
  },
  "Destination": {
    "ChapterList": [
      {
        "Name": "Chapter 1"
      }
    ],
    "ChapterMarkers": true,
    "AlignAVStart": true,
    "File": "C:\\Users\\corio\\Videos\\Tears Of Steel 1080P[1].m4v",
    "Mp4Options": {
      "IpodAtom": false,
      "Mp4Optimize": false
    },
    "Mux": "av_mp4"
  },
  "Filters": {
    "FilterList": [
      {
        "ID": 4,
        "Settings": {
          "mode": "7"
        }
      },
      {
        "ID": 3,
        "Settings": {
          "block-height": "16",
          "block-thresh": "40",
          "block-width": "16",
          "filter-mode": "2",
          "mode": "3",
          "motion-thresh": "1",
          "spatial-metric": "2",
          "spatial-thresh": "1"
        }
      },
      {
        "ID": 12,
        "Settings": {
          "crop-bottom": "0",
          "crop-left": "0",
          "crop-right": "0",
          "crop-top": "0",
          "height": "800",
          "width": "1920"
        }
      },
      {
        "ID": 6,
        "Settings": {
          "mode": "2",
          "rate": "27000000/900000"
        }
      }
    ]
  },
  "PAR": {
    "Num": 1,
    "Den": 1
  },
  "Metadata": {},
  "SequenceID": 0,
  "Source": {
    "Angle": 1,
    "Range": {
      "Type": "chapter",
      "Start": 1,
      "End": 1
    },
    "Title": 1,
    "Path": "C:\\Users\\corio\\Videos\\ToS-4k-1920.mov"
  },
  "Subtitle": {
    "Search": {
      "Burn": true,
      "Default": false,
      "Enable": true,
      "Forced": true
    },
    "SubtitleList": []
  },
  "Video": {
    "Encoder": "x264",
    "Level": "4.0",
    "TwoPass": false,
    "Turbo": false,
    "ColorMatrixCode": 0,
    "Options": "",
    "Preset": "fast",
    "Profile": "main",
    "Quality": 22.0,
    "QSV": {
      "Decode": false,
      "AsyncDepth": 0
    }
  }
}
[16:40:36] CPU: Intel(R) Atom(TM) x7-Z8700  CPU @ 1.60GHz
[16:40:36]  - Intel microarchitecture Airmont
[16:40:36]  - logical processor count: 4
[16:40:36] Intel Quick Sync Video support: yes
[16:40:36]  - Intel Media SDK hardware: API 1.20 (minimum: 1.3)
[16:40:36]  - H.264 encoder: yes
[16:40:36]     - preferred implementation: hardware (any) via D3D11
[16:40:36]     - capabilities (hardware):  icq+la+i+downs vsinfo opt1 opt2+extbrc+ib_adapt+nmpslice
[16:40:36]  - H.265 encoder: no
[16:40:36] hb_scan: path=C:\Users\corio\Videos\ToS-4k-1920.mov, title_index=1
udfread ERROR: ECMA 167 Volume Recognition failed
src/libbluray/disc/disc.c:323: failed opening UDF image C:\Users\corio\Videos\ToS-4k-1920.mov
src/libbluray/disc/disc.c:424: error opening file BDMV\index.bdmv
src/libbluray/disc/disc.c:424: error opening file BDMV\BACKUP\index.bdmv
src/libbluray/bluray.c:2585: nav_get_title_list(C:\Users\corio\Videos\ToS-4k-1920.mov\) failed
[16:40:36] bd: not a bd - trying as a stream/file instead
libdvdnav: Using dvdnav version 6.0.1
libdvdread: Encrypted DVD support unavailable.
libdvdread:DVDOpenFileUDF:UDFFindFile /VIDEO_TS/VIDEO_TS.IFO failed
libdvdread:DVDOpenFileUDF:UDFFindFile /VIDEO_TS/VIDEO_TS.BUP failed
libdvdread: Can't open file VIDEO_TS.IFO.
libdvdnav: vm: failed to read VIDEO_TS.IFO
[16:40:36] dvd: not a dvd - trying as a stream/file instead
Input #0, mov,mp4,m4a,3gp,3g2,mj2, from 'C:\Users\corio\Videos\ToS-4k-1920.mov':
  Metadata:
    major_brand     : qt
    minor_version   : 512
    compatible_brands: qt
    encoder         : Lavf54.29.104
  Duration: 00:12:14.17, start: 0.000000, bitrate: 8051 kb/s
    Stream #0:0(eng): Video: h264 (High) (avc1 / 0x31637661), yuv420p, 1920x800 [SAR 1:1 DAR 12:5], 7862 kb/s, 24 fps, 24 tbr, 24 tbn, 48 tbc (default)
    Metadata:
      handler_name    : VideoHandler
      encoder         : libx264
    Stream #0:1(eng): Audio: aac (LC) (mp4a / 0x6134706D), 44100 Hz, stereo, fltp, 182 kb/s (default)
    Metadata:
      handler_name    : SoundHandler
[16:40:36] scan: decoding previews for title 1
[16:40:37] scan: audio 0x1: aac, rate=44100Hz, bitrate=182815 English (AAC LC) (2.0 ch) (182 kbps)
[16:40:38] scan: 10 previews, 1920x800, 24.000 fps, autocrop = 0/0/0/0, aspect 2.40:1, PAR 1:1
[16:40:38] scan: supported video decoders: avcodec qsv
[16:40:38] libhb: scan thread found 1 valid title(s)
[16:40:38] Skipping subtitle scan.  No suitable subtitle tracks.
[16:40:38] Starting Task: Encoding Pass
[16:40:38] Skipping crop/scale filter
[16:40:38] work: only 1 chapter, disabling chapter markers
[16:40:38] job configuration:
[16:40:38]  * source
[16:40:38]    + C:\Users\corio\Videos\ToS-4k-1920.mov
[16:40:38]    + title 1, chapter(s) 1 to 1
[16:40:38]    + container: mov,mp4,m4a,3gp,3g2,mj2
[16:40:38]    + data rate: 8051 kbps
[16:40:38]  * destination
[16:40:38]    + C:\Users\corio\Videos\Tears Of Steel 1080P[1].m4v
[16:40:38]    + container: MPEG-4 (libavformat)
[16:40:38]      + align initial A/V stream timestamps
[16:40:38]  * video track
[16:40:38]    + decoder: h264
[16:40:38]      + bitrate 7862 kbps
[16:40:38]    + filters
[16:40:38]      + Comb Detect (mode=3:spatial-metric=2:motion-thresh=1:spatial-thresh=1:filter-mode=2:block-thresh=40:block-width=16:block-height=16)
[16:40:38]      + Decomb (mode=39)
[16:40:38]      + Framerate Shaper (mode=2:rate=27000000/900000)
[16:40:38]        + frame rate: 24.000 fps -> peak rate limited to 30.000 fps
[16:40:38]    + Output geometry
[16:40:38]      + storage dimensions: 1920 x 800
[16:40:38]      + pixel aspect ratio: 1 : 1
[16:40:38]      + display dimensions: 1920 x 800
[16:40:38]    + encoder: H.264 (libx264)
[16:40:38]      + preset:  fast
[16:40:38]      + profile: main
[16:40:38]      + level:   4.0
[16:40:38]      + quality: 22.00 (RF)
[16:40:38]      + color profile: 1-1-1
[16:40:38]  * audio track 1
[16:40:38]    + decoder: English (AAC LC) (2.0 ch) (182 kbps) (track 1, id 0x1)
[16:40:38]      + bitrate: 182 kbps, samplerate: 44100 Hz
[16:40:38]    + mixdown: Stereo
[16:40:38]    + dither: none
[16:40:38]    + encoder: AAC (libavcodec)
[16:40:38]      + bitrate: 160 kbps, samplerate: 44100 Hz
[16:40:38] sync: expecting 17620 video frames
[16:40:38] encx264: min-keyint: 24, keyint: 240
[16:40:38] encx264: encoding at constant RF 22.000000
[16:40:38] encx264: unparsed options: level=4.0:ref=2:8x8dct=0:weightp=1:subme=6:vbv-bufsize=25000:vbv-maxrate=20000:rc-lookahead=30
x264 [info]: using SAR=1/1
x264 [info]: using cpu capabilities: MMX2 SSE2Fast SSSE3 SSE4.2
x264 [info]: profile Main, level 4.0, 4:2:0, 8-bit
[16:40:39] sync: first pts video is 0
[16:40:39] sync: "Chapter 1" (1) at frame 1 time 0
[16:40:39] sync: first pts audio 0x1 is 0
[17:39:49] reader: done. 1 scr changes
[17:40:01] work: average encoding speed for job is 4.945233 fps
[17:40:01] comb detect: heavy 749 | light 1928 | uncombed 14943 | total 17620
[17:40:01] decomb: deinterlaced 749 | blended 1928 | unfiltered 14943 | total 17620
[17:40:01] vfr: 17620 frames output, 0 dropped and 0 duped for CFR/PFR
[17:40:01] vfr: lost time: 0 (0 frames)
[17:40:01] vfr: gained time: 0 (0 frames) (0 not accounted for)
[17:40:01] aac-decoder done: 31616 frames, 0 decoder errors
[17:40:01] h264-decoder done: 17620 frames, 0 decoder errors
[17:40:01] sync: got 17620 frames, 17620 expected
[17:40:01] sync: framerate min 24.000 fps, max 24.000 fps, avg 24.000 fps
x264 [info]: frame I:183   Avg QP:17.96  size:126259
x264 [info]: frame P:5407  Avg QP:21.72  size: 36847
x264 [info]: frame B:12030 Avg QP:24.14  size:  9757
x264 [info]: consecutive B-frames:  5.0% 10.0%  6.2% 78.9%
x264 [info]: mb I  I16..4: 27.8%  0.0% 72.2%
x264 [info]: mb P  I16..4:  6.2%  0.0%  7.3%  P16..4: 41.0% 16.5%  7.9%  0.0%  0.0%    skip:21.2%
x264 [info]: mb B  I16..4:  3.1%  0.0%  0.9%  B16..8: 26.5%  6.2%  0.5%  direct:11.0%  skip:51.8%  L0:41.7% L1:48.9% BI: 9.5%
x264 [info]: coded y,uvDC,uvAC intra: 42.5% 67.9% 28.0% inter: 11.6% 22.5% 1.4%
x264 [info]: i16 v,h,dc,p: 36% 25% 15% 23%
x264 [info]: i4 v,h,dc,ddl,ddr,vr,hd,vl,hu: 23% 21% 16%  6%  8%  7%  7%  6%  5%
x264 [info]: i8c dc,h,v,p: 50% 21% 22%  7%
x264 [info]: Weighted P-Frames: Y:3.5% UV:1.3%
x264 [info]: ref P L0: 73.5% 26.5%
x264 [info]: ref B L0: 84.2% 15.8%
x264 [info]: ref B L1: 96.1%  3.9%
x264 [info]: kb/s:3701.73
[17:40:01] mux: track 0, 17620 frames, 339704285 bytes, 3701.45 kbps, fifo 1024
[17:40:01] mux: track 1, 31617 frames, 14759879 bytes, 160.82 kbps, fifo 2048
[17:40:01] Finished work at: Sun Jun 13 17:40:01 2021
[17:40:01] libhb: work result = 0

# Encode Completed ...

CoriolisSTORM
Posts: 10
Joined: Fri Nov 19, 2010 5:26 am

Re: A Collection of Builds (one new, rest from previous decade!)

Post by CoriolisSTORM »

So for something like this, QSV is a huge improvement. But again, the same story with QSV/VCE vs regular CPU based encoding. 346,721 kilobytes for the CPU encode, 721,559 kilobytes for the QSV encode.

Code: Select all

HandBrake 1.3.3 (2020061300)
OS: Microsoft Windows NT 10.0.19042.0
CPU: Intel(R) Atom(TM) x7-Z8700  CPU @ 1.60GHz
Ram: 4012 MB, 
GPU Information:
  Intel(R) HD Graphics - 20.19.15.4835
Screen: 1920x1280
Temp Dir: C:\Users\corio\AppData\Local\Temp\
Install Dir: C:\Program Files\HandBrake
Data Dir: C:\Users\corio\AppData\Roaming\HandBrake

-------------------------------------------


# Starting Encode ...

[05:47:04] base preset: Fast 1080p30 (Modified)
[17:47:04] hb_init: starting libhb thread
[17:47:04] Starting work at: Sun Jun 13 17:47:04 2021
[17:47:04] 1 job(s) to process
[17:47:04] json job:
{
  "Audio": {
    "AudioList": [
      {
        "Bitrate": 160,
        "DRC": 0.0,
        "Encoder": "av_aac",
        "Gain": 0.0,
        "Mixdown": 4,
        "NormalizeMixLevel": false,
        "Samplerate": 0,
        "Track": 0,
        "DitherMethod": 0
      }
    ],
    "CopyMask": [
      "copy:aac",
      "copy:ac3",
      "copy:dtshd",
      "copy:dts",
      "copy:eac3",
      "copy:flac",
      "copy:mp3",
      "copy:truehd"
    ],
    "FallbackEncoder": "ac3"
  },
  "Destination": {
    "ChapterList": [
      {
        "Name": "Chapter 1"
      }
    ],
    "ChapterMarkers": true,
    "AlignAVStart": true,
    "File": "C:\\Users\\corio\\Videos\\Tears Of Steel 1080P[1]qsv.m4v",
    "Mp4Options": {
      "IpodAtom": false,
      "Mp4Optimize": false
    },
    "Mux": "av_mp4"
  },
  "Filters": {
    "FilterList": [
      {
        "ID": 4,
        "Settings": {
          "mode": "7"
        }
      },
      {
        "ID": 3,
        "Settings": {
          "block-height": "16",
          "block-thresh": "40",
          "block-width": "16",
          "filter-mode": "2",
          "mode": "3",
          "motion-thresh": "1",
          "spatial-metric": "2",
          "spatial-thresh": "1"
        }
      },
      {
        "ID": 12,
        "Settings": {
          "crop-bottom": "0",
          "crop-left": "0",
          "crop-right": "0",
          "crop-top": "0",
          "height": "800",
          "width": "1920"
        }
      },
      {
        "ID": 6,
        "Settings": {
          "mode": "0"
        }
      }
    ]
  },
  "PAR": {
    "Num": 1,
    "Den": 1
  },
  "Metadata": {},
  "SequenceID": 0,
  "Source": {
    "Angle": 1,
    "Range": {
      "Type": "chapter",
      "Start": 1,
      "End": 1
    },
    "Title": 1,
    "Path": "C:\\Users\\corio\\Videos\\ToS-4k-1920.mov"
  },
  "Subtitle": {
    "Search": {
      "Burn": true,
      "Default": false,
      "Enable": true,
      "Forced": true
    },
    "SubtitleList": []
  },
  "Video": {
    "Encoder": "qsv_h264",
    "Level": "auto",
    "TwoPass": false,
    "Turbo": false,
    "ColorMatrixCode": 0,
    "Options": "",
    "Preset": "speed",
    "Profile": "auto",
    "Quality": 22.0,
    "QSV": {
      "Decode": false,
      "AsyncDepth": 0
    }
  }
}
[17:47:04] CPU: Intel(R) Atom(TM) x7-Z8700  CPU @ 1.60GHz
[17:47:04]  - Intel microarchitecture Airmont
[17:47:04]  - logical processor count: 4
[17:47:04] Intel Quick Sync Video support: yes
[17:47:04]  - Intel Media SDK hardware: API 1.20 (minimum: 1.3)
[17:47:04]  - H.264 encoder: yes
[17:47:04]     - preferred implementation: hardware (any) via D3D11
[17:47:04]     - capabilities (hardware):  icq+la+i+downs vsinfo opt1 opt2+extbrc+ib_adapt+nmpslice
[17:47:04]  - H.265 encoder: no
[17:47:04] hb_scan: path=C:\Users\corio\Videos\ToS-4k-1920.mov, title_index=1
udfread ERROR: ECMA 167 Volume Recognition failed
src/libbluray/disc/disc.c:323: failed opening UDF image C:\Users\corio\Videos\ToS-4k-1920.mov
src/libbluray/disc/disc.c:424: error opening file BDMV\index.bdmv
src/libbluray/disc/disc.c:424: error opening file BDMV\BACKUP\index.bdmv
src/libbluray/bluray.c:2585: nav_get_title_list(C:\Users\corio\Videos\ToS-4k-1920.mov\) failed
[17:47:04] bd: not a bd - trying as a stream/file instead
libdvdnav: Using dvdnav version 6.0.1
libdvdread: Encrypted DVD support unavailable.
libdvdread:DVDOpenFileUDF:UDFFindFile /VIDEO_TS/VIDEO_TS.IFO failed
libdvdread:DVDOpenFileUDF:UDFFindFile /VIDEO_TS/VIDEO_TS.BUP failed
libdvdread: Can't open file VIDEO_TS.IFO.
libdvdnav: vm: failed to read VIDEO_TS.IFO
[17:47:04] dvd: not a dvd - trying as a stream/file instead
Input #0, mov,mp4,m4a,3gp,3g2,mj2, from 'C:\Users\corio\Videos\ToS-4k-1920.mov':
  Metadata:
    major_brand     : qt
    minor_version   : 512
    compatible_brands: qt
    encoder         : Lavf54.29.104
  Duration: 00:12:14.17, start: 0.000000, bitrate: 8051 kb/s
    Stream #0:0(eng): Video: h264 (High) (avc1 / 0x31637661), yuv420p, 1920x800 [SAR 1:1 DAR 12:5], 7862 kb/s, 24 fps, 24 tbr, 24 tbn, 48 tbc (default)
    Metadata:
      handler_name    : VideoHandler
      encoder         : libx264
    Stream #0:1(eng): Audio: aac (LC) (mp4a / 0x6134706D), 44100 Hz, stereo, fltp, 182 kb/s (default)
    Metadata:
      handler_name    : SoundHandler
[17:47:04] scan: decoding previews for title 1
[17:47:04] scan: audio 0x1: aac, rate=44100Hz, bitrate=182815 English (AAC LC) (2.0 ch) (182 kbps)
[17:47:06] scan: 10 previews, 1920x800, 24.000 fps, autocrop = 0/0/0/0, aspect 2.40:1, PAR 1:1
[17:47:06] scan: supported video decoders: avcodec qsv
[17:47:06] libhb: scan thread found 1 valid title(s)
[17:47:06] Skipping subtitle scan.  No suitable subtitle tracks.
[17:47:06] Starting Task: Encoding Pass
[17:47:06] Skipping vfr filter
[17:47:06] Skipping crop/scale filter
[17:47:06] work: only 1 chapter, disabling chapter markers
[17:47:06] job configuration:
[17:47:06]  * source
[17:47:06]    + C:\Users\corio\Videos\ToS-4k-1920.mov
[17:47:06]    + title 1, chapter(s) 1 to 1
[17:47:06]    + container: mov,mp4,m4a,3gp,3g2,mj2
[17:47:06]    + data rate: 8051 kbps
[17:47:06]  * destination
[17:47:06]    + C:\Users\corio\Videos\Tears Of Steel 1080P[1]qsv.m4v
[17:47:06]    + container: MPEG-4 (libavformat)
[17:47:06]      + align initial A/V stream timestamps
[17:47:06]  * video track
[17:47:06]    + decoder: h264
[17:47:06]      + bitrate 7862 kbps
[17:47:06]    + filters
[17:47:06]      + Comb Detect (mode=3:spatial-metric=2:motion-thresh=1:spatial-thresh=1:filter-mode=2:block-thresh=40:block-width=16:block-height=16)
[17:47:06]      + Decomb (mode=39)
[17:47:06]    + Output geometry
[17:47:06]      + storage dimensions: 1920 x 800
[17:47:06]      + pixel aspect ratio: 1 : 1
[17:47:06]      + display dimensions: 1920 x 800
[17:47:06]    + encoder: H.264 (Intel Media SDK)
[17:47:06]      + preset:  speed
[17:47:06]      + profile: auto
[17:47:06]      + level:   auto
[17:47:06]      + quality: 22.00 (ICQ)
[17:47:06]      + color profile: 1-1-1
[17:47:06]  * audio track 1
[17:47:06]    + decoder: English (AAC LC) (2.0 ch) (182 kbps) (track 1, id 0x1)
[17:47:06]      + bitrate: 182 kbps, samplerate: 44100 Hz
[17:47:06]    + mixdown: Stereo
[17:47:06]    + dither: none
[17:47:06]    + encoder: AAC (libavcodec)
[17:47:06]      + bitrate: 160 kbps, samplerate: 44100 Hz
[17:47:06] sync: expecting 17620 video frames
[17:47:06] hb_d3d11va_device_check: QSV adapter with id 0 has been found
[17:47:07] encqsvInit: using encode-only path
[17:47:07] encqsvInit: H.264/AVC High profile @ level 4.0
[17:47:07] encqsvInit: TargetUsage 4 AsyncDepth 3
[17:47:07] encqsvInit: GopRefDist 3 GopPicSize 24 NumRefFrame 2
[17:47:07] encqsvInit: BFramesMax 2
[17:47:07] encqsvInit: RateControlMethod LA_ICQ ICQQuality 22 LookAheadDepth 40
[17:47:07] sync: first pts video is 0
[17:47:07] sync: "Chapter 1" (1) at frame 1 time 0
[17:47:07] sync: first pts audio 0x1 is 0
[17:47:07] qsv_enc_init: using 'hardware (1) via D3D11' implementation, API: 1.20
[18:04:05] reader: done. 1 scr changes
[18:04:09] work: average encoding speed for job is 17.252287 fps
[18:04:09] comb detect: heavy 749 | light 1928 | uncombed 14943 | total 17620
[18:04:09] decomb: deinterlaced 749 | blended 1928 | unfiltered 14943 | total 17620
[18:04:09] aac-decoder done: 31616 frames, 0 decoder errors
[18:04:09] h264-decoder done: 17620 frames, 0 decoder errors
[18:04:09] sync: got 17620 frames, 17620 expected
[18:04:09] sync: framerate min 24.000 fps, max 24.000 fps, avg 24.000 fps
[18:04:09] mux: track 0, 17620 frames, 902450198 bytes, 9833.18 kbps, fifo 512
[18:04:09] mux: track 1, 31617 frames, 14759879 bytes, 160.82 kbps, fifo 1024
[18:04:09] Finished work at: Sun Jun 13 18:04:09 2021
[18:04:09] libhb: work result = 0

# Encode Completed ...

Post Reply