Apple M1 Benchmarks

Post your testing results with HandBrake.
Post Reply
User avatar
s55
HandBrake Team
Posts: 9862
Joined: Sun Dec 24, 2006 1:05 pm

Apple M1 Benchmarks

Post by s55 »

Please read the Benchmark Guide: viewtopic.php?f=9&t=40721

And post them here :)
Botts
Posts: 5
Joined: Mon Nov 02, 2020 5:43 pm

Re: Apple M1 Benchmarks

Post by Botts »

Computer: M1 MacBook Pro - 8GB RAM - On Battery
File and Preset: Big Buck Bunny 1080p - Preset: H.265 MKV 1080p30

Stats:
Average FPS: 16.61fps
Time: 19 minutes 7 seconds

Code: Select all

[13:16:41] macgui: fr.handbrake.HandBrakeXPCService scanning specifically for title: 1
[13:16:41] CPU: 
[13:16:41]  - logical processor count: 8
[13:16:41] hb_scan: path=/Users/Brian/Downloads/bbb_sunflower_1080p_30fps_normal.mp4, title_index=1
udfread ERROR: ECMA 167 Volume Recognition failed
disc.c:323: failed opening UDF image /Users/Brian/Downloads/bbb_sunflower_1080p_30fps_normal.mp4
disc.c:424: error opening file BDMV/index.bdmv
disc.c:424: error opening file BDMV/BACKUP/index.bdmv
bluray.c:2585: nav_get_title_list(/Users/Brian/Downloads/bbb_sunflower_1080p_30fps_normal.mp4/) failed
[13:16:41] bd: not a bd - trying as a stream/file instead
libdvdnav: Using dvdnav version 6.0.1
libdvdread: Encrypted DVD support unavailable.
libdvdread:DVDOpenFileUDF:UDFFindFile /VIDEO_TS/VIDEO_TS.IFO failed
libdvdread:DVDOpenFileUDF:UDFFindFile /VIDEO_TS/VIDEO_TS.BUP failed
libdvdread: Can't open file VIDEO_TS.IFO.
libdvdnav: vm: failed to read VIDEO_TS.IFO
[13:16:41] dvd: not a dvd - trying as a stream/file instead
Input #0, mov,mp4,m4a,3gp,3g2,mj2, from '/Users/Brian/Downloads/bbb_sunflower_1080p_30fps_normal.mp4':
  Metadata:
    major_brand     : isom
    minor_version   : 1
    compatible_brands: isomavc1
    creation_time   : 2013-12-16T17:44:39.000000Z
    title           : Big Buck Bunny, Sunflower version
    artist          : Blender Foundation 2008, Janus Bager Kristensen 2013
    comment         : Creative Commons Attribution 3.0 - http://bbb3d.renderfarming.net
    genre           : Animation
    composer        : Sacha Goedegebure
  Duration: 00:10:34.53, start: 0.000000, bitrate: 3481 kb/s
    Stream #0:0(und): Video: h264 (High) (avc1 / 0x31637661), yuv420p, 1920x1080 [SAR 1:1 DAR 16:9], 2998 kb/s, 30 fps, 30 tbr, 30k tbn, 60 tbc (default)
    Metadata:
      creation_time   : 2013-12-16T17:44:39.000000Z
      handler_name    : GPAC ISO Video Handler
    Stream #0:1(und): Audio: mp3 (mp4a / 0x6134706D), 48000 Hz, stereo, fltp, 160 kb/s (default)
    Metadata:
      creation_time   : 2013-12-16T17:44:42.000000Z
      handler_name    : GPAC ISO Audio Handler
    Stream #0:2(und): Audio: ac3 (ac-3 / 0x332D6361), 48000 Hz, 5.1(side), fltp, 320 kb/s (default)
    Metadata:
      creation_time   : 2013-12-16T17:44:42.000000Z
      handler_name    : GPAC ISO Audio Handler
    Side data:
      audio service type: main
[13:16:41] scan: decoding previews for title 1
[13:16:41] scan: audio 0x1: mp3float, rate=48000Hz, bitrate=160000 Unknown (MP3) (2.0 ch) (160 kbps)
[13:16:41] scan: audio 0x2: ac3, rate=48000Hz, bitrate=320000 Unknown (AC3) (5.1 ch) (320 kbps)
[13:16:41] scan: 10 previews, 1920x1080, 30.000 fps, autocrop = 0/0/0/0, aspect 16:9, PAR 1:1
[13:16:41] libhb: scan thread found 1 valid title(s)
[13:16:42] macgui: Failed to create bookmark: Error Domain=NSCocoaErrorDomain Code=256 "Could not open() the item" UserInfo={NSURL=file:///Users/Brian/Library/Containers/fr.handbrake.HandBrake/Data/Movies/, NSDebugDescription=Could not open() the item}
[13:16:42] macgui: fr.handbrake.HandBrakeXPCService scan done
[13:16:42] macgui: fr.handbrake.HandBrakeXPCService started encoding bbb_sunflower_1080p_30fps_normal.mkv
[13:16:42] macgui: fr.handbrake.HandBrakeXPCService with preset H.265 MKV 1080p30
[13:16:42] Starting work at: Thu Nov 19 13:16:42 2020

[13:16:42] 1 job(s) to process
[13:16:42] Starting Task: Encoding Pass
[13:16:42] Skipping crop/scale filter
[13:16:42] work: only 1 chapter, disabling chapter markers
[13:16:42] job configuration:
[13:16:42]  * source
[13:16:42]    + /Users/Brian/Downloads/bbb_sunflower_1080p_30fps_normal.mp4
[13:16:42]    + title 1, chapter(s) 1 to 1
[13:16:42]    + container: mov,mp4,m4a,3gp,3g2,mj2
[13:16:42]    + data rate: 3481 kbps
[13:16:42]  * destination
[13:16:42]    + /Users/Brian/Library/Containers/fr.handbrake.HandBrake/Data/Movies/bbb_sunflower_1080p_30fps_normal.mkv
[13:16:42]    + container: Matroska (libavformat)
[13:16:42]  * video track
[13:16:42]    + decoder: h264
[13:16:42]      + bitrate 2998 kbps
[13:16:42]    + filters
[13:16:42]      + Comb Detect (mode=3:spatial-metric=2:motion-thresh=1:spatial-thresh=1:filter-mode=2:block-thresh=40:block-width=16:block-height=16)
[13:16:42]      + Decomb (mode=39)
[13:16:42]      + Framerate Shaper (mode=2:rate=27000000/900000)
[13:16:42]        + frame rate: 30.000 fps -> peak rate limited to 30.000 fps
[13:16:42]    + Output geometry
[13:16:42]      + storage dimensions: 1920 x 1080
[13:16:42]      + pixel aspect ratio: 1 : 1
[13:16:42]      + display dimensions: 1920 x 1080
[13:16:42]    + encoder: H.265 (libx265)
[13:16:42]      + preset:  slow
[13:16:42]      + options: strong-intra-smoothing=0:rect=0:aq-mode=1
[13:16:42]      + profile: main
[13:16:42]      + level:   auto
[13:16:42]      + quality: 22.00 (RF)
[13:16:42]      + color profile: 1-1-1
[13:16:42]  * audio track 1
[13:16:42]    + decoder: Unknown (MP3) (2.0 ch) (160 kbps) (track 1, id 0x1)
[13:16:42]      + bitrate: 160 kbps, samplerate: 48000 Hz
[13:16:42]    + mixdown: Stereo
[13:16:42]    + encoder: AAC (Apple AudioToolbox)
[13:16:42]      + bitrate: 160 kbps, samplerate: 48000 Hz
[13:16:42] sync: expecting 19035 video frames
x265 [info]: HEVC encoder version 3.2.1+1-b5c86a64bbbe
x265 [info]: build info [Mac OS X][clang 12.0.0][32 bit] 8bit+10bit+12bit
x265 [info]: using cpu capabilities: NEON
x265 [info]: Main profile, Level-4 (Main tier)
x265 [info]: Thread pool created using 8 threads
x265 [info]: Slices                              : 1
x265 [info]: frame threads / pool features       : 3 / wpp(17 rows)
x265 [info]: Coding QT: max CU size, min CU size : 64 / 8
x265 [info]: Residual QT: max TU size, max depth : 32 / 1 inter / 1 intra
x265 [info]: ME / range / subpel / merge         : star / 57 / 3 / 3
x265 [info]: Keyframe min / max / scenecut / bias: 30 / 300 / 40 / 5.00
x265 [info]: Lookahead / bframes / badapt        : 25 / 4 / 2
x265 [info]: b-pyramid / weightp / weightb       : 1 / 1 / 0
x265 [info]: References / ref-limit  cu / depth  : 4 / on / on
x265 [info]: AQ: mode / str / qg-size / cu-tree  : 1 / 1.0 / 32 / 1
x265 [info]: Rate Control / qCompress            : CRF-22.0 / 0.60
x265 [info]: tools: limit-modes rd=4 psy-rd=2.00 rdoq=2 psy-rdoq=1.00 rskip
x265 [info]: tools: signhide tmvp lslices=4 deblock sao
[13:16:42] sync: first pts audio 0x1 is 0
[13:16:42] sync: first pts video is 6000
[13:16:42] sync: "Chapter 1" (1) at frame 1 time 6000
[13:35:42] reader: done. 1 scr changes
[13:35:48] work: average encoding speed for job is 16.644562 fps
[13:35:48] comb detect: heavy 246 | light 1408 | uncombed 17382 | total 19036
[13:35:48] decomb: deinterlaced 246 | blended 1408 | unfiltered 17382 | total 19036
[13:35:48] vfr: 19036 frames output, 0 dropped and 0 duped for CFR/PFR
[13:35:48] vfr: lost time: 0 (0 frames)
[13:35:48] vfr: gained time: 0 (0 frames) (0 not accounted for)
[13:35:48] mp3float-decoder done: 26425 frames, 0 decoder errors
[13:35:48] h264-decoder done: 19036 frames, 0 decoder errors
[13:35:48] sync: got 19036 frames, 19035 expected
[13:35:48] sync: framerate min 30.000 fps, max 30.000 fps, avg 30.000 fps
x265 [info]: frame I:    159, Avg QP:17.90  kb/s: 38870.64
x265 [info]: frame P:   5592, Avg QP:22.62  kb/s: 6106.29 
x265 [info]: frame B:  13285, Avg QP:29.04  kb/s: 743.46  
x265 [info]: Weighted P-Frames: Y:4.4% UV:2.6%
x265 [info]: consecutive B-frames: 13.1% 13.6% 20.7% 34.2% 18.3% 

encoded 19036 frames in 1146.23s (16.61 fps), 2637.30 kb/s, Avg QP:27.06
[13:35:48] mux: track 0, 19036 frames, 209258350 bytes, 2637.85 kbps, fifo 2048
[13:35:48] mux: track 1, 29731 frames, 13128713 bytes, 165.50 kbps, fifo 4096
[13:35:48] Finished work at: Thu Nov 19 13:35:48 2020

[13:35:48] libhb: work result = 0

[13:35:48] macgui: Queue Done, there are no more pending encodes
[13:35:48] macgui: fr.handbrake.HandBrakeXPCService work done
User avatar
s55
HandBrake Team
Posts: 9862
Joined: Sun Dec 24, 2006 1:05 pm

Re: Apple M1 Benchmarks

Post by s55 »

To confirm, you used 1.4 or a nightly build?
Botts
Posts: 5
Joined: Mon Nov 02, 2020 5:43 pm

Re: Apple M1 Benchmarks

Post by Botts »

I used: Version 1.4.0-beta.1 (2020111100)
TheRealRichii
Posts: 2
Joined: Mon Nov 23, 2020 5:09 am

Re: Apple M1 Benchmarks

Post by TheRealRichii »

Using 1.4.0-beta.1, the BBB Fast 1080p30 encode took 4:03 of pure silence on a MacBook Air. The comparison on a MacBook Pro from late last year is 8:22 of full speed fans.

Hardware info:

Code: Select all

Hardware Overview:

  Model Name:	MacBook Air
  Model Identifier:	MacBookAir10,1
  Chip:	Apple M1
  Total Number of Cores:	8 (4 performance and 4 efficiency)
  Memory:	16 GB
  System Firmware Version:	6723.50.2
Activity log:

Code: Select all

HandBrake Activity Log for Session: 2020-11-23T05:03:34Z
Handbrake Version: 1.4.0-beta.1 (2020111100)
bbb_sunflower_1080p_30fps_normal.mp4
Preset: Fast 1080p30
[16:03:34] Compile-time hardening features are enabled
[16:03:34] hb_init: starting libhb thread
[16:03:34] macgui: fr.handbrake.HandBrakeXPCService scanning specifically for title: 1
[16:03:34] CPU: 
[16:03:34]  - logical processor count: 8
[16:03:34] hb_scan: path=/Users/richard/Downloads/bbb_sunflower_1080p_30fps_normal.mp4, title_index=1
udfread ERROR: ECMA 167 Volume Recognition failed
disc.c:323: failed opening UDF image /Users/richard/Downloads/bbb_sunflower_1080p_30fps_normal.mp4
disc.c:424: error opening file BDMV/index.bdmv
disc.c:424: error opening file BDMV/BACKUP/index.bdmv
bluray.c:2585: nav_get_title_list(/Users/richard/Downloads/bbb_sunflower_1080p_30fps_normal.mp4/) failed
[16:03:34] bd: not a bd - trying as a stream/file instead
libdvdnav: Using dvdnav version 6.0.1
libdvdread: Encrypted DVD support unavailable.
libdvdread:DVDOpenFileUDF:UDFFindFile /VIDEO_TS/VIDEO_TS.IFO failed
libdvdread:DVDOpenFileUDF:UDFFindFile /VIDEO_TS/VIDEO_TS.BUP failed
libdvdread: Can't open file VIDEO_TS.IFO.
libdvdnav: vm: failed to read VIDEO_TS.IFO
[16:03:34] dvd: not a dvd - trying as a stream/file instead
Input #0, mov,mp4,m4a,3gp,3g2,mj2, from '/Users/richard/Downloads/bbb_sunflower_1080p_30fps_normal.mp4':
  Metadata:
    major_brand     : isom
    minor_version   : 1
    compatible_brands: isomavc1
    creation_time   : 2013-12-16T17:44:39.000000Z
    title           : Big Buck Bunny, Sunflower version
    artist          : Blender Foundation 2008, Janus Bager Kristensen 2013
    comment         : Creative Commons Attribution 3.0 - http://bbb3d.renderfarming.net
    genre           : Animation
    composer        : Sacha Goedegebure
  Duration: 00:10:34.53, start: 0.000000, bitrate: 3481 kb/s
    Stream #0:0(und): Video: h264 (High) (avc1 / 0x31637661), yuv420p, 1920x1080 [SAR 1:1 DAR 16:9], 2998 kb/s, 30 fps, 30 tbr, 30k tbn, 60 tbc (default)
    Metadata:
      creation_time   : 2013-12-16T17:44:39.000000Z
      handler_name    : GPAC ISO Video Handler
    Stream #0:1(und): Audio: mp3 (mp4a / 0x6134706D), 48000 Hz, stereo, fltp, 160 kb/s (default)
    Metadata:
      creation_time   : 2013-12-16T17:44:42.000000Z
      handler_name    : GPAC ISO Audio Handler
    Stream #0:2(und): Audio: ac3 (ac-3 / 0x332D6361), 48000 Hz, 5.1(side), fltp, 320 kb/s (default)
    Metadata:
      creation_time   : 2013-12-16T17:44:42.000000Z
      handler_name    : GPAC ISO Audio Handler
    Side data:
      audio service type: main
[16:03:34] scan: decoding previews for title 1
[16:03:34] scan: audio 0x1: mp3float, rate=48000Hz, bitrate=160000 Unknown (MP3) (2.0 ch) (160 kbps)
[16:03:34] scan: audio 0x2: ac3, rate=48000Hz, bitrate=320000 Unknown (AC3) (5.1 ch) (320 kbps)
[16:03:34] scan: 10 previews, 1920x1080, 30.000 fps, autocrop = 0/0/0/0, aspect 16:9, PAR 1:1
[16:03:34] libhb: scan thread found 1 valid title(s)
[16:03:34] macgui: fr.handbrake.HandBrakeXPCService scan done
[16:03:34] macgui: fr.handbrake.HandBrakeXPCService started encoding bbb_sunflower_1080p_30fps_normal.mp4
[16:03:34] Starting work at: Mon Nov 23 16:03:34 2020

[16:03:34] 1 job(s) to process
[16:03:34] macgui: fr.handbrake.HandBrakeXPCService with preset Fast 1080p30
[16:03:34] Starting Task: Encoding Pass
[16:03:34] Skipping crop/scale filter
[16:03:34] work: only 1 chapter, disabling chapter markers
[16:03:34] job configuration:
[16:03:34]  * source
[16:03:34]    + /Users/richard/Downloads/bbb_sunflower_1080p_30fps_normal.mp4
[16:03:34]    + title 1, chapter(s) 1 to 1
[16:03:34]    + container: mov,mp4,m4a,3gp,3g2,mj2
[16:03:34]    + data rate: 3481 kbps
[16:03:34]  * destination
[16:03:34]    + /Users/richard/Library/Containers/fr.handbrake.HandBrake/Data/Movies/bbb_sunflower_1080p_30fps_normal.mp4
[16:03:34]    + container: MPEG-4 (libavformat)
[16:03:34]      + align initial A/V stream timestamps
[16:03:34]  * video track
[16:03:34]    + decoder: h264
[16:03:34]      + bitrate 2998 kbps
[16:03:34]    + filters
[16:03:34]      + Comb Detect (mode=3:spatial-metric=2:motion-thresh=1:spatial-thresh=1:filter-mode=2:block-thresh=40:block-width=16:block-height=16)
[16:03:34]      + Decomb (mode=39)
[16:03:34]      + Framerate Shaper (mode=2:rate=27000000/900000)
[16:03:34]        + frame rate: 30.000 fps -> peak rate limited to 30.000 fps
[16:03:34]    + Output geometry
[16:03:34]      + storage dimensions: 1920 x 1080
[16:03:34]      + pixel aspect ratio: 1 : 1
[16:03:34]      + display dimensions: 1920 x 1080
[16:03:34]    + encoder: H.264 (libx264)
[16:03:34]      + preset:  fast
[16:03:34]      + profile: main
[16:03:34]      + level:   4.0
[16:03:34]      + quality: 22.00 (RF)
[16:03:34]      + color profile: 1-1-1
[16:03:34]  * audio track 1
[16:03:34]    + decoder: Unknown (MP3) (2.0 ch) (160 kbps) (track 1, id 0x1)
[16:03:34]      + bitrate: 160 kbps, samplerate: 48000 Hz
[16:03:34]    + mixdown: Stereo
[16:03:34]    + encoder: AAC (Apple AudioToolbox)
[16:03:34]      + bitrate: 160 kbps, samplerate: 48000 Hz
[16:03:34] sync: expecting 19035 video frames
[16:03:34] encx264: min-keyint: 30, keyint: 300
[16:03:34] encx264: encoding at constant RF 22.000000
[16:03:34] encx264: unparsed options: level=4.0:ref=2:8x8dct=0:weightp=1:subme=6:vbv-bufsize=25000:vbv-maxrate=20000:rc-lookahead=30
x264 [info]: using SAR=1/1
x264 [info]: using cpu capabilities: ARMv8 NEON
x264 [info]: profile Main, level 4.0, 4:2:0, 8-bit
[16:03:34] sync: first pts video is 0
[16:03:34] sync: first pts audio 0x1 is 0
[16:03:34] sync: "Chapter 1" (1) at frame 3 time 6000
[16:07:35] reader: done. 1 scr changes
[16:07:36] work: average encoding speed for job is 78.749359 fps
[16:07:36] comb detect: heavy 246 | light 1408 | uncombed 17384 | total 19038
[16:07:37] decomb: deinterlaced 246 | blended 1408 | unfiltered 17384 | total 19038
[16:07:37] vfr: 19038 frames output, 0 dropped and 0 duped for CFR/PFR
[16:07:37] vfr: lost time: 0 (0 frames)
[16:07:37] vfr: gained time: 0 (0 frames) (0 not accounted for)
[16:07:37] mp3float-decoder done: 26425 frames, 0 decoder errors
[16:07:37] h264-decoder done: 19036 frames, 0 decoder errors
[16:07:37] sync: got 19038 frames, 19035 expected
[16:07:37] sync: framerate min 30.000 fps, max 30.000 fps, avg 30.000 fps
x264 [info]: frame I:158   Avg QP:15.85  size:245268
x264 [info]: frame P:5916  Avg QP:20.50  size: 26249
x264 [info]: frame B:12964 Avg QP:24.11  size:  5204
x264 [info]: consecutive B-frames:  4.4% 10.3% 12.6% 72.7%
x264 [info]: mb I  I16..4: 25.2%  0.0% 74.8%
x264 [info]: mb P  I16..4:  4.4%  0.0%  3.7%  P16..4: 27.1%  8.7%  4.7%  0.0%  0.0%    skip:51.4%
x264 [info]: mb B  I16..4:  1.3%  0.0%  0.5%  B16..8: 13.2%  2.4%  0.2%  direct: 3.3%  skip:79.0%  L0:43.1% L1:49.6% BI: 7.2%
x264 [info]: coded y,uvDC,uvAC intra: 42.6% 55.7% 25.6% inter: 5.8% 8.3% 0.7%
x264 [info]: i16 v,h,dc,p: 39% 23% 13% 25%
x264 [info]: i4 v,h,dc,ddl,ddr,vr,hd,vl,hu: 24% 16% 18%  6%  9%  9%  7%  7%  5%
x264 [info]: i8c dc,h,v,p: 53% 21% 18%  9%
x264 [info]: Weighted P-Frames: Y:3.1% UV:1.7%
x264 [info]: ref P L0: 75.5% 24.5%
x264 [info]: ref B L0: 83.1% 16.9%
x264 [info]: ref B L1: 95.4%  4.6%
x264 [info]: kb/s:3296.64
[16:07:37] mux: track 0, 19038 frames, 261500139 bytes, 3296.39 kbps, fifo 2048
[16:07:37] mux: track 1, 29731 frames, 13128713 bytes, 165.50 kbps, fifo 2048
[16:07:37] Finished work at: Mon Nov 23 16:07:37 2020

[16:07:37] libhb: work result = 0
I'll get to the other test shortly. I hate it when work gets in the way of playing with a new toy.
TheRealRichii
Posts: 2
Joined: Mon Nov 23, 2020 5:09 am

Re: Apple M1 Benchmarks

Post by TheRealRichii »

More M1 benchmark goodness.

Source: BBB 1080p30
Preset: H.265 MKV 1080p30
Run time: 00:23:28
Average FPS: 13.546661
Log:

Code: Select all

HandBrake Activity Log for Session: 2020-11-23T05:22:11Z
Handbrake Version: 1.4.0-beta.1 (2020111100)
bbb_sunflower_1080p_30fps_normal.mkv
Preset: H.265 MKV 1080p30
[16:22:11] macgui: fr.handbrake.HandBrakeXPCService scanning specifically for title: 1
[16:22:11] CPU: 
[16:22:11]  - logical processor count: 8
[16:22:11] hb_scan: path=/Users/richard/Downloads/bbb_sunflower_1080p_30fps_normal.mp4, title_index=1
udfread ERROR: ECMA 167 Volume Recognition failed
disc.c:323: failed opening UDF image /Users/richard/Downloads/bbb_sunflower_1080p_30fps_normal.mp4
disc.c:424: error opening file BDMV/index.bdmv
disc.c:424: error opening file BDMV/BACKUP/index.bdmv
bluray.c:2585: nav_get_title_list(/Users/richard/Downloads/bbb_sunflower_1080p_30fps_normal.mp4/) failed
[16:22:11] bd: not a bd - trying as a stream/file instead
libdvdnav: Using dvdnav version 6.0.1
libdvdread: Encrypted DVD support unavailable.
libdvdread:DVDOpenFileUDF:UDFFindFile /VIDEO_TS/VIDEO_TS.IFO failed
libdvdread:DVDOpenFileUDF:UDFFindFile /VIDEO_TS/VIDEO_TS.BUP failed
libdvdread: Can't open file VIDEO_TS.IFO.
libdvdnav: vm: failed to read VIDEO_TS.IFO
[16:22:11] dvd: not a dvd - trying as a stream/file instead
Input #0, mov,mp4,m4a,3gp,3g2,mj2, from '/Users/richard/Downloads/bbb_sunflower_1080p_30fps_normal.mp4':
  Metadata:
    major_brand     : isom
    minor_version   : 1
    compatible_brands: isomavc1
    creation_time   : 2013-12-16T17:44:39.000000Z
    title           : Big Buck Bunny, Sunflower version
    artist          : Blender Foundation 2008, Janus Bager Kristensen 2013
    comment         : Creative Commons Attribution 3.0 - http://bbb3d.renderfarming.net
    genre           : Animation
    composer        : Sacha Goedegebure
  Duration: 00:10:34.53, start: 0.000000, bitrate: 3481 kb/s
    Stream #0:0(und): Video: h264 (High) (avc1 / 0x31637661), yuv420p, 1920x1080 [SAR 1:1 DAR 16:9], 2998 kb/s, 30 fps, 30 tbr, 30k tbn, 60 tbc (default)
    Metadata:
      creation_time   : 2013-12-16T17:44:39.000000Z
      handler_name    : GPAC ISO Video Handler
    Stream #0:1(und): Audio: mp3 (mp4a / 0x6134706D), 48000 Hz, stereo, fltp, 160 kb/s (default)
    Metadata:
      creation_time   : 2013-12-16T17:44:42.000000Z
      handler_name    : GPAC ISO Audio Handler
    Stream #0:2(und): Audio: ac3 (ac-3 / 0x332D6361), 48000 Hz, 5.1(side), fltp, 320 kb/s (default)
    Metadata:
      creation_time   : 2013-12-16T17:44:42.000000Z
      handler_name    : GPAC ISO Audio Handler
    Side data:
      audio service type: main
[16:22:11] scan: decoding previews for title 1
[16:22:11] scan: audio 0x1: mp3float, rate=48000Hz, bitrate=160000 Unknown (MP3) (2.0 ch) (160 kbps)
[16:22:11] scan: audio 0x2: ac3, rate=48000Hz, bitrate=320000 Unknown (AC3) (5.1 ch) (320 kbps)
[16:22:11] scan: 10 previews, 1920x1080, 30.000 fps, autocrop = 0/0/0/0, aspect 16:9, PAR 1:1
[16:22:12] libhb: scan thread found 1 valid title(s)
[16:22:12] macgui: fr.handbrake.HandBrakeXPCService scan done
[16:22:12] Starting work at: Mon Nov 23 16:22:12 2020

[16:22:12] 1 job(s) to process
[16:22:12] macgui: fr.handbrake.HandBrakeXPCService started encoding bbb_sunflower_1080p_30fps_normal.mkv
[16:22:12] macgui: fr.handbrake.HandBrakeXPCService with preset H.265 MKV 1080p30
[16:22:12] Starting Task: Encoding Pass
[16:22:12] Skipping crop/scale filter
[16:22:12] work: only 1 chapter, disabling chapter markers
[16:22:12] job configuration:
[16:22:12]  * source
[16:22:12]    + /Users/richard/Downloads/bbb_sunflower_1080p_30fps_normal.mp4
[16:22:12]    + title 1, chapter(s) 1 to 1
[16:22:12]    + container: mov,mp4,m4a,3gp,3g2,mj2
[16:22:12]    + data rate: 3481 kbps
[16:22:12]  * destination
[16:22:12]    + /Users/richard/Library/Containers/fr.handbrake.HandBrake/Data/Movies/bbb_sunflower_1080p_30fps_normal.mkv
[16:22:12]    + container: Matroska (libavformat)
[16:22:12]  * video track
[16:22:12]    + decoder: h264
[16:22:12]      + bitrate 2998 kbps
[16:22:12]    + filters
[16:22:12]      + Comb Detect (mode=3:spatial-metric=2:motion-thresh=1:spatial-thresh=1:filter-mode=2:block-thresh=40:block-width=16:block-height=16)
[16:22:12]      + Decomb (mode=39)
[16:22:12]      + Framerate Shaper (mode=2:rate=27000000/900000)
[16:22:12]        + frame rate: 30.000 fps -> peak rate limited to 30.000 fps
[16:22:12]    + Output geometry
[16:22:12]      + storage dimensions: 1920 x 1080
[16:22:12]      + pixel aspect ratio: 1 : 1
[16:22:12]      + display dimensions: 1920 x 1080
[16:22:12]    + encoder: H.265 (libx265)
[16:22:12]      + preset:  slow
[16:22:12]      + options: strong-intra-smoothing=0:rect=0:aq-mode=1
[16:22:12]      + profile: main
[16:22:12]      + level:   auto
[16:22:12]      + quality: 22.00 (RF)
[16:22:12]      + color profile: 1-1-1
[16:22:12]  * audio track 1
[16:22:12]    + decoder: Unknown (MP3) (2.0 ch) (160 kbps) (track 1, id 0x1)
[16:22:12]      + bitrate: 160 kbps, samplerate: 48000 Hz
[16:22:12]    + mixdown: Stereo
[16:22:12]    + encoder: AAC (Apple AudioToolbox)
[16:22:12]      + bitrate: 160 kbps, samplerate: 48000 Hz
[16:22:12] sync: expecting 19035 video frames
x265 [info]: HEVC encoder version 3.2.1+1-b5c86a64bbbe
x265 [info]: build info [Mac OS X][clang 12.0.0][32 bit] 8bit+10bit+12bit
x265 [info]: using cpu capabilities: NEON
x265 [info]: Main profile, Level-4 (Main tier)
x265 [info]: Thread pool created using 8 threads
x265 [info]: Slices                              : 1
x265 [info]: frame threads / pool features       : 3 / wpp(17 rows)
x265 [info]: Coding QT: max CU size, min CU size : 64 / 8
x265 [info]: Residual QT: max TU size, max depth : 32 / 1 inter / 1 intra
x265 [info]: ME / range / subpel / merge         : star / 57 / 3 / 3
x265 [info]: Keyframe min / max / scenecut / bias: 30 / 300 / 40 / 5.00
x265 [info]: Lookahead / bframes / badapt        : 25 / 4 / 2
x265 [info]: b-pyramid / weightp / weightb       : 1 / 1 / 0
x265 [info]: References / ref-limit  cu / depth  : 4 / on / on
x265 [info]: AQ: mode / str / qg-size / cu-tree  : 1 / 1.0 / 32 / 1
x265 [info]: Rate Control / qCompress            : CRF-22.0 / 0.60
x265 [info]: tools: limit-modes rd=4 psy-rd=2.00 rdoq=2 psy-rdoq=1.00 rskip
x265 [info]: tools: signhide tmvp lslices=4 deblock sao
[16:22:12] sync: first pts audio 0x1 is 0
[16:22:12] sync: first pts video is 6000
[16:22:12] sync: "Chapter 1" (1) at frame 1 time 6000
[16:45:32] reader: done. 1 scr changes
[16:45:40] work: average encoding speed for job is 13.546661 fps
[16:45:40] comb detect: heavy 246 | light 1408 | uncombed 17382 | total 19036
[16:45:40] decomb: deinterlaced 246 | blended 1408 | unfiltered 17382 | total 19036
[16:45:40] vfr: 19036 frames output, 0 dropped and 0 duped for CFR/PFR
[16:45:40] vfr: lost time: 0 (0 frames)
[16:45:40] vfr: gained time: 0 (0 frames) (0 not accounted for)
[16:45:40] mp3float-decoder done: 26425 frames, 0 decoder errors
[16:45:40] h264-decoder done: 19036 frames, 0 decoder errors
[16:45:40] sync: got 19036 frames, 19035 expected
[16:45:40] sync: framerate min 30.000 fps, max 30.000 fps, avg 30.000 fps
x265 [info]: frame I:    159, Avg QP:17.90  kb/s: 38870.64
x265 [info]: frame P:   5592, Avg QP:22.62  kb/s: 6106.29 
x265 [info]: frame B:  13285, Avg QP:29.04  kb/s: 743.46  
x265 [info]: Weighted P-Frames: Y:4.4% UV:2.6%
x265 [info]: consecutive B-frames: 13.1% 13.6% 20.7% 34.2% 18.3% 

encoded 19036 frames in 1408.41s (13.52 fps), 2637.30 kb/s, Avg QP:27.06
[16:45:40] mux: track 0, 19036 frames, 209258350 bytes, 2637.85 kbps, fifo 2048
[16:45:40] mux: track 1, 29731 frames, 13128713 bytes, 165.50 kbps, fifo 4096
[16:45:40] Finished work at: Mon Nov 23 16:45:40 2020

[16:45:40] libhb: work result = 0
Source: BBB 2160p30
Preset: Fast 1080p30
Run time: 00:08:36
Average FPS: 37.019550
Log:

Code: Select all

HandBrake Activity Log for Session: 2020-11-23T10:40:49Z
Handbrake Version: 1.4.0-beta.1 (2020111100)
bbb_sunflower_2160p_30fps_normal.mp4
Preset: Fast 1080p30
[21:40:49] macgui: fr.handbrake.HandBrakeXPCService scanning specifically for title: 1
[21:40:49] CPU: 
[21:40:49]  - logical processor count: 8
[21:40:49] hb_scan: path=/Users/richard/Downloads/bbb_sunflower_2160p_30fps_normal.mp4, title_index=1
udfread ERROR: ECMA 167 Volume Recognition failed
disc.c:323: failed opening UDF image /Users/richard/Downloads/bbb_sunflower_2160p_30fps_normal.mp4
disc.c:424: error opening file BDMV/index.bdmv
disc.c:424: error opening file BDMV/BACKUP/index.bdmv
bluray.c:2585: nav_get_title_list(/Users/richard/Downloads/bbb_sunflower_2160p_30fps_normal.mp4/) failed
[21:40:49] bd: not a bd - trying as a stream/file instead
libdvdnav: Using dvdnav version 6.0.1
libdvdread: Encrypted DVD support unavailable.
libdvdread:DVDOpenFileUDF:UDFFindFile /VIDEO_TS/VIDEO_TS.IFO failed
libdvdread:DVDOpenFileUDF:UDFFindFile /VIDEO_TS/VIDEO_TS.BUP failed
libdvdread: Can't open file VIDEO_TS.IFO.
libdvdnav: vm: failed to read VIDEO_TS.IFO
[21:40:49] dvd: not a dvd - trying as a stream/file instead
Input #0, mov,mp4,m4a,3gp,3g2,mj2, from '/Users/richard/Downloads/bbb_sunflower_2160p_30fps_normal.mp4':
  Metadata:
    major_brand     : isom
    minor_version   : 1
    compatible_brands: isomavc1
    creation_time   : 2013-12-18T14:43:04.000000Z
    title           : Big Buck Bunny, Sunflower version
    artist          : Blender Foundation 2008, Janus Bager Kristensen 2013
    comment         : Creative Commons Attribution 3.0 - http://bbb3d.renderfarming.net
    genre           : Animation
    composer        : Sacha Goedegebure
  Duration: 00:10:34.53, start: 0.000000, bitrate: 7980 kb/s
    Stream #0:0(und): Video: h264 (High) (avc1 / 0x31637661), yuv420p, 3840x2160 [SAR 1:1 DAR 16:9], 7498 kb/s, 30 fps, 30 tbr, 30k tbn, 60 tbc (default)
    Metadata:
      creation_time   : 2013-12-18T14:43:04.000000Z
      handler_name    : GPAC ISO Video Handler
    Stream #0:1(und): Audio: mp3 (mp4a / 0x6134706D), 48000 Hz, stereo, fltp, 160 kb/s (default)
    Metadata:
      creation_time   : 2013-12-18T14:43:06.000000Z
      handler_name    : GPAC ISO Audio Handler
    Stream #0:2(und): Audio: ac3 (ac-3 / 0x332D6361), 48000 Hz, 5.1(side), fltp, 320 kb/s (default)
    Metadata:
      creation_time   : 2013-12-18T14:43:06.000000Z
      handler_name    : GPAC ISO Audio Handler
    Side data:
      audio service type: main
[21:40:49] scan: decoding previews for title 1
[21:40:49] scan: audio 0x1: mp3float, rate=48000Hz, bitrate=160000 Unknown (MP3) (2.0 ch) (160 kbps)
[21:40:49] scan: audio 0x2: ac3, rate=48000Hz, bitrate=320000 Unknown (AC3) (5.1 ch) (320 kbps)
[21:40:50] scan: 10 previews, 3840x2160, 30.000 fps, autocrop = 0/0/0/0, aspect 16:9, PAR 1:1
[21:40:50] libhb: scan thread found 1 valid title(s)
[21:40:50] macgui: fr.handbrake.HandBrakeXPCService scan done
[21:40:50] Starting work at: Mon Nov 23 21:40:50 2020

[21:40:50] 1 job(s) to process
[21:40:50] macgui: fr.handbrake.HandBrakeXPCService started encoding bbb_sunflower_2160p_30fps_normal.mp4
[21:40:50] macgui: fr.handbrake.HandBrakeXPCService with preset Fast 1080p30
[21:40:50] Starting Task: Encoding Pass
[21:40:50] work: only 1 chapter, disabling chapter markers
[21:40:50] job configuration:
[21:40:50]  * source
[21:40:50]    + /Users/richard/Downloads/bbb_sunflower_2160p_30fps_normal.mp4
[21:40:50]    + title 1, chapter(s) 1 to 1
[21:40:50]    + container: mov,mp4,m4a,3gp,3g2,mj2
[21:40:50]    + data rate: 7980 kbps
[21:40:50]  * destination
[21:40:50]    + /Users/richard/Library/Containers/fr.handbrake.HandBrake/Data/Movies/bbb_sunflower_2160p_30fps_normal.mp4
[21:40:50]    + container: MPEG-4 (libavformat)
[21:40:50]      + align initial A/V stream timestamps
[21:40:50]  * video track
[21:40:50]    + decoder: h264
[21:40:50]      + bitrate 7498 kbps
[21:40:50]    + filters
[21:40:50]      + Comb Detect (mode=3:spatial-metric=2:motion-thresh=1:spatial-thresh=1:filter-mode=2:block-thresh=40:block-width=16:block-height=16)
[21:40:50]      + Decomb (mode=39)
[21:40:50]      + Framerate Shaper (mode=2:rate=27000000/900000)
[21:40:50]        + frame rate: 30.000 fps -> peak rate limited to 30.000 fps
[21:40:50]      + Crop and Scale (width=1920:height=1080:crop-top=0:crop-bottom=0:crop-left=0:crop-right=0)
[21:40:50]        + source: 3840 * 2160, crop (0/0/0/0): 3840 * 2160, scale: 1920 * 1080
[21:40:50]    + Output geometry
[21:40:50]      + storage dimensions: 1920 x 1080
[21:40:50]      + pixel aspect ratio: 1 : 1
[21:40:50]      + display dimensions: 1920 x 1080
[21:40:50]    + encoder: H.264 (libx264)
[21:40:50]      + preset:  fast
[21:40:50]      + profile: main
[21:40:50]      + level:   4.0
[21:40:50]      + quality: 22.00 (RF)
[21:40:50]      + color profile: 1-1-1
[21:40:50]  * audio track 1
[21:40:50]    + decoder: Unknown (MP3) (2.0 ch) (160 kbps) (track 1, id 0x1)
[21:40:50]      + bitrate: 160 kbps, samplerate: 48000 Hz
[21:40:50]    + mixdown: Stereo
[21:40:50]    + encoder: AAC (Apple AudioToolbox)
[21:40:50]      + bitrate: 160 kbps, samplerate: 48000 Hz
[21:40:50] sync: expecting 19035 video frames
[21:40:50] encx264: min-keyint: 30, keyint: 300
[21:40:50] encx264: encoding at constant RF 22.000000
[21:40:50] encx264: unparsed options: level=4.0:ref=2:8x8dct=0:weightp=1:subme=6:vbv-bufsize=25000:vbv-maxrate=20000:rc-lookahead=30
x264 [info]: using SAR=1/1
x264 [info]: using cpu capabilities: ARMv8 NEON
x264 [info]: profile Main, level 4.0, 4:2:0, 8-bit
[21:40:50] sync: first pts video is 0
[21:40:50] sync: first pts audio 0x1 is 0
[21:40:50] sync: "Chapter 1" (1) at frame 3 time 6000
[21:49:22] reader: done. 1 scr changes
[21:49:24] work: average encoding speed for job is 37.019550 fps
[21:49:24] comb detect: heavy 880 | light 2520 | uncombed 15638 | total 19038
[21:49:24] decomb: deinterlaced 880 | blended 2520 | unfiltered 15638 | total 19038
[21:49:24] vfr: 19038 frames output, 0 dropped and 0 duped for CFR/PFR
[21:49:24] vfr: lost time: 0 (0 frames)
[21:49:24] vfr: gained time: 0 (0 frames) (0 not accounted for)
[21:49:25] mp3float-decoder done: 26425 frames, 0 decoder errors
[21:49:25] h264-decoder done: 19036 frames, 0 decoder errors
[21:49:25] sync: got 19038 frames, 19035 expected
[21:49:25] sync: framerate min 30.000 fps, max 30.000 fps, avg 30.000 fps
x264 [info]: frame I:159   Avg QP:16.11  size:254636
x264 [info]: frame P:5892  Avg QP:20.65  size: 28302
x264 [info]: frame B:12987 Avg QP:24.10  size:  5478
x264 [info]: consecutive B-frames:  5.0%  8.2% 11.8% 74.9%
x264 [info]: mb I  I16..4: 24.4%  0.0% 75.6%
x264 [info]: mb P  I16..4:  4.0%  0.0%  3.7%  P16..4: 25.2%  9.8%  6.2%  0.0%  0.0%    skip:51.0%
x264 [info]: mb B  I16..4:  1.4%  0.0%  0.5%  B16..8: 11.4%  3.0%  0.2%  direct: 3.9%  skip:79.5%  L0:41.4% L1:49.8% BI: 8.8%
x264 [info]: coded y,uvDC,uvAC intra: 44.4% 60.5% 29.7% inter: 6.2% 8.7% 0.9%
x264 [info]: i16 v,h,dc,p: 40% 22% 15% 23%
x264 [info]: i4 v,h,dc,ddl,ddr,vr,hd,vl,hu: 23% 16% 17%  6%  9%  9%  7%  7%  5%
x264 [info]: i8c dc,h,v,p: 55% 20% 17%  7%
x264 [info]: Weighted P-Frames: Y:3.3% UV:1.8%
x264 [info]: ref P L0: 77.2% 22.8%
x264 [info]: ref B L0: 83.2% 16.8%
x264 [info]: ref B L1: 94.9%  5.1%
x264 [info]: kb/s:3509.36
[21:49:25] mux: track 0, 19038 frames, 278373418 bytes, 3509.09 kbps, fifo 2048
[21:49:25] mux: track 1, 29731 frames, 13128713 bytes, 165.50 kbps, fifo 2048
[21:49:25] Finished work at: Mon Nov 23 21:49:25 2020

[21:49:25] libhb: work result = 0
Source: BBB 2160p30
Preset: H.264 MKV 2160p60
Run time: 00:19:26
Average FPS: 16.361307
Log:

Code: Select all

HandBrake Activity Log for Session: 2020-11-23T10:49:25Z
Handbrake Version: 1.4.0-beta.1 (2020111100)
bbb_sunflower_2160p_30fps_normal.mkv
Preset: H.264 MKV 2160p60
[21:49:25] macgui: fr.handbrake.HandBrakeXPCService work done
[21:49:25] macgui: fr.handbrake.HandBrakeXPCService scanning specifically for title: 1
[21:49:25] CPU: 
[21:49:25]  - logical processor count: 8
[21:49:25] hb_scan: path=/Users/richard/Downloads/bbb_sunflower_2160p_30fps_normal.mp4, title_index=1
udfread ERROR: ECMA 167 Volume Recognition failed
disc.c:323: failed opening UDF image /Users/richard/Downloads/bbb_sunflower_2160p_30fps_normal.mp4
disc.c:424: error opening file BDMV/index.bdmv
disc.c:424: error opening file BDMV/BACKUP/index.bdmv
bluray.c:2585: nav_get_title_list(/Users/richard/Downloads/bbb_sunflower_2160p_30fps_normal.mp4/) failed
[21:49:25] bd: not a bd - trying as a stream/file instead
libdvdnav: Using dvdnav version 6.0.1
libdvdread: Encrypted DVD support unavailable.
libdvdread:DVDOpenFileUDF:UDFFindFile /VIDEO_TS/VIDEO_TS.IFO failed
libdvdread:DVDOpenFileUDF:UDFFindFile /VIDEO_TS/VIDEO_TS.BUP failed
libdvdread: Can't open file VIDEO_TS.IFO.
libdvdnav: vm: failed to read VIDEO_TS.IFO
[21:49:25] dvd: not a dvd - trying as a stream/file instead
Input #0, mov,mp4,m4a,3gp,3g2,mj2, from '/Users/richard/Downloads/bbb_sunflower_2160p_30fps_normal.mp4':
  Metadata:
    major_brand     : isom
    minor_version   : 1
    compatible_brands: isomavc1
    creation_time   : 2013-12-18T14:43:04.000000Z
    title           : Big Buck Bunny, Sunflower version
    artist          : Blender Foundation 2008, Janus Bager Kristensen 2013
    comment         : Creative Commons Attribution 3.0 - http://bbb3d.renderfarming.net
    genre           : Animation
    composer        : Sacha Goedegebure
  Duration: 00:10:34.53, start: 0.000000, bitrate: 7980 kb/s
    Stream #0:0(und): Video: h264 (High) (avc1 / 0x31637661), yuv420p, 3840x2160 [SAR 1:1 DAR 16:9], 7498 kb/s, 30 fps, 30 tbr, 30k tbn, 60 tbc (default)
    Metadata:
      creation_time   : 2013-12-18T14:43:04.000000Z
      handler_name    : GPAC ISO Video Handler
    Stream #0:1(und): Audio: mp3 (mp4a / 0x6134706D), 48000 Hz, stereo, fltp, 160 kb/s (default)
    Metadata:
      creation_time   : 2013-12-18T14:43:06.000000Z
      handler_name    : GPAC ISO Audio Handler
    Stream #0:2(und): Audio: ac3 (ac-3 / 0x332D6361), 48000 Hz, 5.1(side), fltp, 320 kb/s (default)
    Metadata:
      creation_time   : 2013-12-18T14:43:06.000000Z
      handler_name    : GPAC ISO Audio Handler
    Side data:
      audio service type: main
[21:49:25] scan: decoding previews for title 1
[21:49:25] scan: audio 0x1: mp3float, rate=48000Hz, bitrate=160000 Unknown (MP3) (2.0 ch) (160 kbps)
[21:49:25] scan: audio 0x2: ac3, rate=48000Hz, bitrate=320000 Unknown (AC3) (5.1 ch) (320 kbps)
[21:49:26] scan: 10 previews, 3840x2160, 30.000 fps, autocrop = 0/0/0/0, aspect 16:9, PAR 1:1
[21:49:26] libhb: scan thread found 1 valid title(s)
[21:49:26] macgui: fr.handbrake.HandBrakeXPCService scan done
[21:49:26] Starting work at: Mon Nov 23 21:49:26 2020

[21:49:26] 1 job(s) to process
[21:49:26] macgui: fr.handbrake.HandBrakeXPCService started encoding bbb_sunflower_2160p_30fps_normal.mkv
[21:49:26] macgui: fr.handbrake.HandBrakeXPCService with preset H.264 MKV 2160p60
[21:49:26] Starting Task: Encoding Pass
[21:49:26] Skipping crop/scale filter
[21:49:26] work: only 1 chapter, disabling chapter markers
[21:49:26] job configuration:
[21:49:26]  * source
[21:49:26]    + /Users/richard/Downloads/bbb_sunflower_2160p_30fps_normal.mp4
[21:49:26]    + title 1, chapter(s) 1 to 1
[21:49:26]    + container: mov,mp4,m4a,3gp,3g2,mj2
[21:49:26]    + data rate: 7980 kbps
[21:49:26]  * destination
[21:49:26]    + /Users/richard/Library/Containers/fr.handbrake.HandBrake/Data/Movies/bbb_sunflower_2160p_30fps_normal.mkv
[21:49:26]    + container: Matroska (libavformat)
[21:49:26]  * video track
[21:49:26]    + decoder: h264
[21:49:26]      + bitrate 7498 kbps
[21:49:26]    + filters
[21:49:26]      + Comb Detect (mode=3:spatial-metric=2:motion-thresh=1:spatial-thresh=1:filter-mode=2:block-thresh=40:block-width=16:block-height=16)
[21:49:26]      + Decomb (mode=39)
[21:49:26]      + Framerate Shaper (mode=2:rate=27000000/450000)
[21:49:26]        + frame rate: 30.000 fps -> peak rate limited to 60.000 fps
[21:49:26]    + Output geometry
[21:49:26]      + storage dimensions: 3840 x 2160
[21:49:26]      + pixel aspect ratio: 1 : 1
[21:49:26]      + display dimensions: 3840 x 2160
[21:49:26]    + encoder: H.264 (libx264)
[21:49:26]      + preset:  medium
[21:49:26]      + profile: main
[21:49:26]      + level:   5.2
[21:49:26]      + quality: 24.00 (RF)
[21:49:26]      + color profile: 1-1-1
[21:49:26]  * audio track 1
[21:49:26]    + decoder: Unknown (MP3) (2.0 ch) (160 kbps) (track 1, id 0x1)
[21:49:26]      + bitrate: 160 kbps, samplerate: 48000 Hz
[21:49:26]    + mixdown: Stereo
[21:49:26]    + encoder: AAC (Apple AudioToolbox)
[21:49:26]      + bitrate: 160 kbps, samplerate: 48000 Hz
[21:49:26] sync: expecting 19035 video frames
[21:49:26] encx264: min-keyint: 30, keyint: 300
[21:49:26] encx264: encoding at constant RF 24.000000
[21:49:26] encx264: unparsed options: level=5.2:8x8dct=0:vbv-bufsize=240000:vbv-maxrate=240000
x264 [info]: using SAR=1/1
x264 [info]: using cpu capabilities: ARMv8 NEON
x264 [info]: profile Main, level 5.2, 4:2:0, 8-bit
[21:49:26] sync: first pts audio 0x1 is 0
[21:49:26] sync: first pts video is 6000
[21:49:26] sync: "Chapter 1" (1) at frame 1 time 6000
[22:08:46] reader: done. 1 scr changes
[22:08:51] work: average encoding speed for job is 16.361307 fps
[22:08:51] comb detect: heavy 880 | light 2520 | uncombed 15636 | total 19036
[22:08:51] decomb: deinterlaced 880 | blended 2520 | unfiltered 15636 | total 19036
[22:08:51] vfr: 19036 frames output, 0 dropped and 0 duped for CFR/PFR
[22:08:51] vfr: lost time: 0 (0 frames)
[22:08:51] vfr: gained time: 0 (0 frames) (0 not accounted for)
[22:08:51] mp3float-decoder done: 26425 frames, 0 decoder errors
[22:08:51] h264-decoder done: 19036 frames, 0 decoder errors
[22:08:51] sync: got 19036 frames, 19035 expected
[22:08:51] sync: framerate min 30.000 fps, max 30.000 fps, avg 30.000 fps
x264 [info]: frame I:162   Avg QP:16.90  size:545242
x264 [info]: frame P:6234  Avg QP:21.37  size: 59528
x264 [info]: frame B:12640 Avg QP:25.44  size: 13388
x264 [info]: consecutive B-frames:  5.5% 11.2% 20.3% 63.0%
x264 [info]: mb I  I16..4: 36.7%  0.0% 63.3%
x264 [info]: mb P  I16..4:  6.8%  0.0%  2.5%  P16..4: 24.7%  5.9%  2.9%  0.0%  0.0%    skip:57.2%
x264 [info]: mb B  I16..4:  0.6%  0.0%  0.2%  B16..8: 20.6%  1.0%  0.1%  direct: 0.8%  skip:76.7%  L0:41.3% L1:56.9% BI: 1.9%
x264 [info]: coded y,uvDC,uvAC intra: 28.4% 44.9% 15.4% inter: 3.0% 5.5% 0.2%
x264 [info]: i16 v,h,dc,p: 44% 20% 10% 26%
x264 [info]: i4 v,h,dc,ddl,ddr,vr,hd,vl,hu: 24% 16% 22%  6%  8%  8%  6%  6%  4%
x264 [info]: i8c dc,h,v,p: 54% 20% 17%  8%
x264 [info]: Weighted P-Frames: Y:2.2% UV:1.6%
x264 [info]: ref P L0: 64.3% 16.7% 13.8%  5.2%  0.0%
x264 [info]: ref B L0: 86.9% 10.7%  2.3%
x264 [info]: ref B L1: 98.0%  2.0%
x264 [info]: kb/s:7925.77
[22:08:51] mux: track 0, 19036 frames, 628639469 bytes, 7924.44 kbps, fifo 1024
[22:08:51] mux: track 1, 29731 frames, 13128713 bytes, 165.50 kbps, fifo 2048
[22:08:51] Finished work at: Mon Nov 23 22:08:51 2020

[22:08:51] libhb: work result = 0
Source: BBB 2160p30
Preset: H.265 MKV 2160p60
Run time: 01:36:42
Average FPS: 3.287832
Log:

Code: Select all

HandBrake Activity Log for Session: 2020-11-23T11:08:52Z
Handbrake Version: 1.4.0-beta.1 (2020111100)
bbb_sunflower_2160p_30fps_normal_265.mkv
Preset: H.265 MKV 2160p60
[22:08:52] macgui: fr.handbrake.HandBrakeXPCService work done
[22:08:52] macgui: fr.handbrake.HandBrakeXPCService scanning specifically for title: 1
[22:08:52] CPU: 
[22:08:52]  - logical processor count: 8
[22:08:52] hb_scan: path=/Users/richard/Downloads/bbb_sunflower_2160p_30fps_normal.mp4, title_index=1
udfread ERROR: ECMA 167 Volume Recognition failed
disc.c:323: failed opening UDF image /Users/richard/Downloads/bbb_sunflower_2160p_30fps_normal.mp4
disc.c:424: error opening file BDMV/index.bdmv
disc.c:424: error opening file BDMV/BACKUP/index.bdmv
bluray.c:2585: nav_get_title_list(/Users/richard/Downloads/bbb_sunflower_2160p_30fps_normal.mp4/) failed
[22:08:52] bd: not a bd - trying as a stream/file instead
libdvdnav: Using dvdnav version 6.0.1
libdvdread: Encrypted DVD support unavailable.
libdvdread:DVDOpenFileUDF:UDFFindFile /VIDEO_TS/VIDEO_TS.IFO failed
libdvdread:DVDOpenFileUDF:UDFFindFile /VIDEO_TS/VIDEO_TS.BUP failed
libdvdread: Can't open file VIDEO_TS.IFO.
libdvdnav: vm: failed to read VIDEO_TS.IFO
[22:08:52] dvd: not a dvd - trying as a stream/file instead
Input #0, mov,mp4,m4a,3gp,3g2,mj2, from '/Users/richard/Downloads/bbb_sunflower_2160p_30fps_normal.mp4':
  Metadata:
    major_brand     : isom
    minor_version   : 1
    compatible_brands: isomavc1
    creation_time   : 2013-12-18T14:43:04.000000Z
    title           : Big Buck Bunny, Sunflower version
    artist          : Blender Foundation 2008, Janus Bager Kristensen 2013
    comment         : Creative Commons Attribution 3.0 - http://bbb3d.renderfarming.net
    genre           : Animation
    composer        : Sacha Goedegebure
  Duration: 00:10:34.53, start: 0.000000, bitrate: 7980 kb/s
    Stream #0:0(und): Video: h264 (High) (avc1 / 0x31637661), yuv420p, 3840x2160 [SAR 1:1 DAR 16:9], 7498 kb/s, 30 fps, 30 tbr, 30k tbn, 60 tbc (default)
    Metadata:
      creation_time   : 2013-12-18T14:43:04.000000Z
      handler_name    : GPAC ISO Video Handler
    Stream #0:1(und): Audio: mp3 (mp4a / 0x6134706D), 48000 Hz, stereo, fltp, 160 kb/s (default)
    Metadata:
      creation_time   : 2013-12-18T14:43:06.000000Z
      handler_name    : GPAC ISO Audio Handler
    Stream #0:2(und): Audio: ac3 (ac-3 / 0x332D6361), 48000 Hz, 5.1(side), fltp, 320 kb/s (default)
    Metadata:
      creation_time   : 2013-12-18T14:43:06.000000Z
      handler_name    : GPAC ISO Audio Handler
    Side data:
      audio service type: main
[22:08:52] scan: decoding previews for title 1
[22:08:52] scan: audio 0x1: mp3float, rate=48000Hz, bitrate=160000 Unknown (MP3) (2.0 ch) (160 kbps)
[22:08:52] scan: audio 0x2: ac3, rate=48000Hz, bitrate=320000 Unknown (AC3) (5.1 ch) (320 kbps)
[22:08:53] scan: 10 previews, 3840x2160, 30.000 fps, autocrop = 0/0/0/0, aspect 16:9, PAR 1:1
[22:08:53] libhb: scan thread found 1 valid title(s)
[22:08:53] macgui: fr.handbrake.HandBrakeXPCService scan done
[22:08:53] Starting work at: Mon Nov 23 22:08:53 2020

[22:08:53] 1 job(s) to process
[22:08:53] macgui: fr.handbrake.HandBrakeXPCService started encoding bbb_sunflower_2160p_30fps_normal_265.mkv
[22:08:53] macgui: fr.handbrake.HandBrakeXPCService with preset H.265 MKV 2160p60
[22:08:53] Starting Task: Encoding Pass
[22:08:53] Skipping crop/scale filter
[22:08:53] work: only 1 chapter, disabling chapter markers
[22:08:53] job configuration:
[22:08:53]  * source
[22:08:53]    + /Users/richard/Downloads/bbb_sunflower_2160p_30fps_normal.mp4
[22:08:53]    + title 1, chapter(s) 1 to 1
[22:08:53]    + container: mov,mp4,m4a,3gp,3g2,mj2
[22:08:53]    + data rate: 7980 kbps
[22:08:53]  * destination
[22:08:53]    + /Users/richard/Library/Containers/fr.handbrake.HandBrake/Data/Movies/bbb_sunflower_2160p_30fps_normal_265.mkv
[22:08:53]    + container: Matroska (libavformat)
[22:08:53]  * video track
[22:08:53]    + decoder: h264
[22:08:53]      + bitrate 7498 kbps
[22:08:53]    + filters
[22:08:53]      + Comb Detect (mode=3:spatial-metric=2:motion-thresh=1:spatial-thresh=1:filter-mode=2:block-thresh=40:block-width=16:block-height=16)
[22:08:53]      + Decomb (mode=39)
[22:08:53]      + Framerate Shaper (mode=2:rate=27000000/450000)
[22:08:53]        + frame rate: 30.000 fps -> peak rate limited to 60.000 fps
[22:08:53]    + Output geometry
[22:08:53]      + storage dimensions: 3840 x 2160
[22:08:53]      + pixel aspect ratio: 1 : 1
[22:08:53]      + display dimensions: 3840 x 2160
[22:08:53]    + encoder: H.265 (libx265)
[22:08:53]      + preset:  slow
[22:08:53]      + options: strong-intra-smoothing=0:rect=0:aq-mode=1
[22:08:53]      + profile: main
[22:08:53]      + level:   auto
[22:08:53]      + quality: 24.00 (RF)
[22:08:53]      + color profile: 1-1-1
[22:08:53]  * audio track 1
[22:08:53]    + decoder: Unknown (MP3) (2.0 ch) (160 kbps) (track 1, id 0x1)
[22:08:53]      + bitrate: 160 kbps, samplerate: 48000 Hz
[22:08:53]    + mixdown: Stereo
[22:08:53]    + encoder: AAC (Apple AudioToolbox)
[22:08:53]      + bitrate: 160 kbps, samplerate: 48000 Hz
[22:08:53] sync: expecting 19035 video frames
x265 [info]: HEVC encoder version 3.2.1+1-b5c86a64bbbe
x265 [info]: build info [Mac OS X][clang 12.0.0][32 bit] 8bit+10bit+12bit
x265 [info]: using cpu capabilities: NEON
x265 [info]: Main profile, Level-5 (Main tier)
x265 [info]: Thread pool created using 8 threads
x265 [info]: Slices                              : 1
x265 [info]: frame threads / pool features       : 3 / wpp(34 rows)
x265 [info]: Coding QT: max CU size, min CU size : 64 / 8
x265 [info]: Residual QT: max TU size, max depth : 32 / 1 inter / 1 intra
x265 [info]: ME / range / subpel / merge         : star / 57 / 3 / 3
x265 [info]: Keyframe min / max / scenecut / bias: 30 / 300 / 40 / 5.00
x265 [info]: Lookahead / bframes / badapt        : 25 / 4 / 2
x265 [info]: b-pyramid / weightp / weightb       : 1 / 1 / 0
x265 [info]: References / ref-limit  cu / depth  : 4 / on / on
x265 [info]: AQ: mode / str / qg-size / cu-tree  : 1 / 1.0 / 32 / 1
x265 [info]: Rate Control / qCompress            : CRF-24.0 / 0.60
x265 [info]: tools: limit-modes rd=4 psy-rd=2.00 rdoq=2 psy-rdoq=1.00 rskip
x265 [info]: tools: signhide tmvp lslices=4 deblock sao
[22:08:53] sync: first pts audio 0x1 is 0
[22:08:53] sync: first pts video is 6000
[22:08:53] sync: "Chapter 1" (1) at frame 1 time 6000
[23:45:05] reader: done. 1 scr changes
[23:45:34] work: average encoding speed for job is 3.287832 fps
[23:45:34] comb detect: heavy 880 | light 2520 | uncombed 15636 | total 19036
[23:45:34] decomb: deinterlaced 880 | blended 2520 | unfiltered 15636 | total 19036
[23:45:34] vfr: 19036 frames output, 0 dropped and 0 duped for CFR/PFR
[23:45:34] vfr: lost time: 0 (0 frames)
[23:45:34] vfr: gained time: 0 (0 frames) (0 not accounted for)
[23:45:34] mp3float-decoder done: 26425 frames, 0 decoder errors
[23:45:34] h264-decoder done: 19036 frames, 0 decoder errors
[23:45:34] sync: got 19036 frames, 19035 expected
[23:45:34] sync: framerate min 30.000 fps, max 30.000 fps, avg 30.000 fps
x265 [info]: frame I:    158, Avg QP:19.33  kb/s: 78855.27
x265 [info]: frame P:   5860, Avg QP:23.98  kb/s: 12951.50
x265 [info]: frame B:  13018, Avg QP:30.45  kb/s: 1832.72 
x265 [info]: Weighted P-Frames: Y:1.9% UV:1.4%
x265 [info]: consecutive B-frames: 16.7% 14.4% 24.0% 25.8% 19.2% 

encoded 19036 frames in 5801.16s (3.28 fps), 5894.79 kb/s, Avg QP:28.37
[23:45:34] mux: track 0, 19036 frames, 467631491 bytes, 5894.82 kbps, fifo 1024
[23:45:34] mux: track 1, 29731 frames, 13128713 bytes, 165.50 kbps, fifo 2048
[23:45:34] Finished work at: Mon Nov 23 23:45:34 2020

[23:45:34] libhb: work result = 0
For comparison, the Intel MBP times for those encodes were 00:35:15 (9.014759 fps), 00:17:02 (18.685738 fps), 01:02:55 (5.047252 fps) and 02:06:54 (2.505711 fps).
Post Reply