Speed Test Results from Various Mac Computers

Post your testing results with HandBrake.
Post Reply
Rich364
Posts: 9
Joined: Wed Oct 01, 2014 12:24 pm

Speed Test Results from Various Mac Computers

Post by Rich364 » Wed Oct 01, 2014 12:45 pm

Since I have several Mac Computers - a friend asked me to test the HandBrake speed on each of them to see what the difference would be. I'm posting my process and results as a reference for anyone else that might be interested.

The Process
·         Updated Operating System on each computer
·         Updated HandBrake on each computer
·         Updated the HandBrake Presets on each computer
·         Stopped all 3rd Party Applications from launching on re-boot, unplugged all external devices and re-booted each computer
 

The Source File
·         Movie = Pacific Rim
·         File size and type = 37.47 GB .mkv
·         Created via MakeMKV from the original Blu-Ray Disc
·         Source File Location = on the respective Desktop of each computer
 

HandBrake Setting
·         Preset = AppleTV 3
·         Additional Subtitle Setting = Foreign Audio Search - (Bitmap) (PGS), Forced Only, Burned In
·         Output File Location = on the respective Desktop of each computer


Computer 1 - Tested on 02/24/2014
·         17” 2007 MacBook Pro (MacBookPro2,1)
·         3GB 667 MHz DDR2 SDRAM
·         2.33 GHz 2-Core Intel Core 2 Duo
·         Running Mac OS X 10.7.5 (Lion)
Results = it took 14 Hours and 19 minutes with a final file size of 9.81GB
 

Computer 2 - Tested on 02/24/2014 and then again on 10/19/2014
·         15” Retina, Mid 2012 - MacBook Pro (MacBookPro10,1) - A1398
·         16GB 1600 MHz DDR3 RAM
·         2.7 GHz 4-Core Intel Core i7
·         Running Mac OS X 10.9.1 (Mavericks) for the 1st test and 10.9.5 for the 2nd test
Results #1 = it took 13 Hours and 3 minutes with a final file size of 9.83GB 
Results #2 = took exactly 5 Hours with a final file size of 9.83GB 
* After posting the results from Test #1, it was suggested there may be an overheating issue with the laptop. I took it in for repair and they replaced the Logic Board and Heat Sink. I then completed test #2.


Computer 3 - Tested on 09/30/2014
·         27” Late 2013 - iMac (iMac14,2) - A1419
·         16GB 1600 MHz DDR3 RAM
·         3.4 GHz 4-Core Intel Core i5
·         Running Mac OS X 10.9.5 (Mavericks)
Results = it took 2 Hours and 54 minutes with a final file size of 9.82GB


Computer 4 - Tested on 09/21/2014
·         Late 2013 - Mac Pro (MacPro6,1) - A1481
·         64GB 1867 MHz DDR3 RAM
·         3.5 GHz 6-Core Intel Xeon E5
·         Running Mac OS X 10.9.5 (Mavericks)
·         Note - Because my primary user account’s home folder has been relocated to an external drive, I ran this process through the Guest Account so the HandBrake Application and Desktop were located on the same internal hard drive
Results = it took 1 Hour and 47 minutes with a final file size of 9.88GB
Last edited by Rich364 on Mon Oct 20, 2014 1:40 pm, edited 3 times in total.

User avatar
Rodeo
HandBrake Team
Posts: 11884
Joined: Tue Mar 03, 2009 8:55 pm

Re: Speed Test Results from Various Mac Computers

Post by Rodeo » Wed Oct 01, 2014 2:07 pm

Moving to benchmarks.

User avatar
Rodeo
HandBrake Team
Posts: 11884
Joined: Tue Mar 03, 2009 8:55 pm

Re: Speed Test Results from Various Mac Computers

Post by Rodeo » Wed Oct 01, 2014 2:09 pm

Rich364 wrote:Computer 1 - Tested on 02/24/2014
·         17” 2007 MacBook Pro
·         3GB 667 MHz DDR2 SDRAM
·         2.33 GHz 2-Core Intel Core 2 Duo
·         Running Mac OS X 10.7.5 (Lion)
Results = it took 14 Hours and 19 minutes with a final file size of 9.81GB
 
Computer 2 - Tested on 02/24/2014
·         15” Retina, Mid 2012 - MacBook Pro
·         16GB 1600 MHz DDR3 RAM
·         2.7 GHz 4-Core Intel Core i7
·         Running Mac OS X 10.9.1 (Mavericks)
Results = it took 13 Hours and 3 minutes with a final file size of 9.83GB 
All logs are saved to disk (Macintosh HD > Users > your username > Library > Application Support > HandBrake > EncodeLogs). I'd like to see the log for computer 2, as the encoding time is way too long for that hardware. Having the computer 1 log for comparison purposes might be nice too.

Rich364
Posts: 9
Joined: Wed Oct 01, 2014 12:24 pm

Re: Speed Test Results from Various Mac Computers

Post by Rich364 » Wed Oct 01, 2014 2:17 pm

It's long... should I copy and paste it in a reply to this thread... or is there a better way to share it?

User avatar
Rodeo
HandBrake Team
Posts: 11884
Joined: Tue Mar 03, 2009 8:55 pm

Re: Speed Test Results from Various Mac Computers

Post by Rodeo » Wed Oct 01, 2014 3:37 pm

Code: Select all

[code]place log inline here
[/code]

…or use a pastebin website and post the link.

Rich364
Posts: 9
Joined: Wed Oct 01, 2014 12:24 pm

Re: Speed Test Results from Various Mac Computers

Post by Rich364 » Wed Oct 01, 2014 3:39 pm

Computer 1

Code: Select all

HandBrake Activity Log for /Users/Rich364/Desktop/Pacific_Rim_t00.m4v: 2014-02-23 20:44:31 -0500
Handbrake Version: 0.9.9 x86_64 (2013051800)

[20:44:30] macgui: Rip: Pending queue count is 1
[20:44:30] macgui: getNextPendingQueueIndex next pending encode index is:0
[20:44:31] macgui: scanning specifically for title: 1
[20:44:31] hb_scan: path=/Users/Rich364/Desktop/Pacific_Rim_t00.mkv, title_index=1
libbluray/bdnav/index_parse.c:162: indx_parse(): error opening /Users/Rich364/Desktop/Pacific_Rim_t00.mkv/BDMV/index.bdmv
libbluray/bdnav/index_parse.c:162: indx_parse(): error opening /Users/Rich364/Desktop/Pacific_Rim_t00.mkv/BDMV/BACKUP/index.bdmv
libbluray/bluray.c:1725: nav_get_title_list(/Users/Rich364/Desktop/Pacific_Rim_t00.mkv) failed (0x10214a000)
[20:44:31] bd: not a bd - trying as a stream/file instead
libdvdnav: Using dvdnav version 4.1.3
libdvdread: Using libdvdcss version 1.2.11 for DVD access
libdvdnav:DVDOpenFileUDF:UDFFindFile /VIDEO_TS/VIDEO_TS.IFO failed
libdvdnav:DVDOpenFileUDF:UDFFindFile /VIDEO_TS/VIDEO_TS.BUP failed
libdvdread: Can't open file VIDEO_TS.IFO.
libdvdnav: vm: failed to read VIDEO_TS.IFO
[20:44:31] dvd: not a dvd - trying as a stream/file instead
Input #0, matroska,webm, from '/Users/Rich364/Desktop/Pacific_Rim_t00.mkv':
  Metadata:
    title           : Pacific Rim
  Duration: 02:11:17.88, start: 0.000000, bitrate: 38053 kb/s
    Chapter #0.0: start 0.000000, end 548.881667
    Metadata:
      title           : Chapter 01
    Chapter #0.1: start 548.881667, end 1115.656208
    Metadata:
      title           : Chapter 02
    Chapter #0.2: start 1115.656208, end 1384.299583
    Metadata:
      title           : Chapter 03
    Chapter #0.3: start 1384.299583, end 1980.353375
    Metadata:
      title           : Chapter 04
    Chapter #0.4: start 1980.353375, end 2564.853958
    Metadata:
      title           : Chapter 05
    Chapter #0.5: start 2564.853958, end 3001.623625
    Metadata:
      title           : Chapter 06
    Chapter #0.6: start 3001.623625, end 3669.499167
    Metadata:
      title           : Chapter 07
    Chapter #0.7: start 3669.499167, end 4484.813667
    Metadata:
      title           : Chapter 08
    Chapter #0.8: start 4484.813667, end 4941.269667
    Metadata:
      title           : Chapter 09
    Chapter #0.9: start 4941.269667, end 5529.899375
    Metadata:
      title           : Chapter 10
    Chapter #0.10: start 5529.899375, end 6115.567792
    Metadata:
      title           : Chapter 11
    Chapter #0.11: start 6115.567792, end 6697.816125
    Metadata:
      title           : Chapter 12
    Chapter #0.12: start 6697.816125, end 7161.028875
    Metadata:
      title           : Chapter 13
    Chapter #0.13: start 7161.028875, end 7337.580250
    Metadata:
      title           : Chapter 14
    Chapter #0.14: start 7337.580250, end 7877.888000
    Metadata:
      title           : Chapter 15
    Stream #0.0(eng): Video: h264 (High), yuv420p, 1920x1080 [PAR 1:1 DAR 16:9], 23.98 fps, 23.98 tbr, 1k tbn, 47.95 tbc
    Stream #0.1(eng): Audio: dca (DTS-HD MA), 48000 Hz, 5.1, fltp, 1536 kb/s (default)
    Metadata:
      title           : Lossless
    Stream #0.2(eng): Audio: dca (DTS), 48000 Hz, 5.1, fltp, 1536 kb/s
    Metadata:
      title           : 3/2+1
    Stream #0.3(eng): Audio: dca (DTS-HD MA), 48000 Hz, 5.1, fltp, 1536 kb/s
    Metadata:
      title           : Lossless
    Stream #0.4(eng): Audio: dca (DTS), 48000 Hz, 5.1, fltp, 1536 kb/s
    Metadata:
      title           : 3/2+1
    Stream #0.5(fra): Audio: ac3, 48000 Hz, 5.1, fltp, 640 kb/s
    Metadata:
      title           : 3/2+1
    Stream #0.6(spa): Audio: ac3, 48000 Hz, 5.1, fltp, 640 kb/s
    Metadata:
      title           : 3/2+1
    Stream #0.7(eng): Subtitle: pgssub
    Stream #0.8(fra): Subtitle: pgssub
    Stream #0.9(spa): Subtitle: pgssub
    Stream #0.10: Attachment: mjpeg
    Metadata:
      filename        : cover.jpg
      mimetype        : image/jpeg
[20:44:31] scan: decoding previews for title 1
[20:44:31] scan: audio 0x1: dca, rate=48000Hz, bitrate=1536000 English (DTS-HD MA) (5.1 ch)
[20:44:31] scan: audio 0x2: dca, rate=48000Hz, bitrate=1536000 English (DTS) (5.1 ch)
[20:44:31] scan: audio 0x3: dca, rate=48000Hz, bitrate=1536000 English (DTS-HD MA) (5.1 ch)
[20:44:31] scan: audio 0x4: dca, rate=48000Hz, bitrate=1536000 English (DTS) (5.1 ch)
[20:44:31] scan: audio 0x5: AC-3, rate=48000Hz, bitrate=640000 Francais (AC3) (5.1 ch)
[20:44:31] scan: audio 0x6: AC-3, rate=48000Hz, bitrate=640000 Espanol (AC3) (5.1 ch)
[20:44:32] scan: 10 previews, 1920x1080, 23.976 fps, autocrop = 0/0/0/0, aspect 16:9, PAR 1:1
[20:44:32] libhb: scan thread found 1 valid title(s)
[20:44:32] macgui: ScanDone state received from fQueueEncodeLibhb
[20:44:32] macgui: Preset: AppleTV 3
[20:44:32] macgui: processNewQueueEncode number of passes expected is: 1
[20:44:32] macgui: Start / Stop set to chapters
[20:44:32] macgui: Foreign Language Search: 1
[20:44:32] macgui: prepareJob exiting
[20:44:32] 2 job(s) to process
[20:44:32] starting job
[20:44:32] sync: expecting 188880 video frames
[20:44:32] job configuration:
[20:44:32]  * source
[20:44:32]    + /Users/Rich364/Desktop/Pacific_Rim_t00.mkv
[20:44:32]    + title 1, chapter(s) 1 to 15
[20:44:32]    + container: matroska,webm
[20:44:32]    + data rate: 38053 kbps
[20:44:32]  * destination
[20:44:32]    + /Users/Rich364/Desktop/Pacific_Rim_t00.m4v
[20:44:32]    + container: MPEG-4 (.mp4 and .m4v)
[20:44:32]      + 64-bit formatting
[20:44:32]      + chapter markers
[20:44:32]  * video track
[20:44:32]    + decoder: h264
[20:44:32]    + frame rate: 23.976 fps -> peak rate limited to 30.000 fps
[20:44:32]    + filters
[20:44:32]      + Decomb (7:2:6:9:1:80)
[20:44:32]      + Framerate Shaper (2:27000000:900000)
[20:44:32]        + frame rate: 30.000 fps -> peak rate limited to 30.000 fps
[20:44:32]      + Crop and Scale (1920:1080:0:0:0:0)
[20:44:32]        + source: 1920 * 1080, crop (0/0/0/0): 1920 * 1080, scale: 1920 * 1080
[20:44:32]    + loose anamorphic
[20:44:32]      + storage dimensions: 1920 * 1080, mod 2
[20:44:32]      + pixel aspect ratio: 1 / 1
[20:44:32]      + display dimensions: 1920 * 1080
[20:44:32]  * Foreign Audio Search: Render/Burn-in, Forced Only
[20:44:32]    + subtitle, English (track 7, id 0x7) Picture [PGS]
[20:44:32] yadif thread started for segment 0
[20:44:32] yadif thread started for segment 1
[20:44:32] decomb filter thread started for segment 0
[20:44:32] decomb filter thread started for segment 1
[20:44:32] decomb check thread started for segment 0
[20:44:32] decomb check thread started for segment 1
[20:53:41] reader: done. 1 scr changes
[20:53:41] work: average encoding speed for job is 0.000000 fps
[20:53:41] decomb: deinterlaced 0 | blended 0 | unfiltered 0 | total 0
[20:53:41] render: 0 frames output, 0 dropped and 0 duped for CFR/PFR
[20:53:41] render: lost time: 0 (0 frames)
[20:53:41] render: gained time: 0 (0 frames) (0 not accounted for)
[20:53:41] h264-decoder done: 0 frames, 0 decoder errors, 0 drops
[20:53:41] Subtitle track 7 (id 0x7) 'English': 1835 hits (0 forced)
[20:53:41] No candidate detected during subtitle scan
[20:53:41] starting job
[20:53:41] yadif thread started for segment 0
[20:53:41] yadif thread started for segment 1
[20:53:41] decomb filter thread started for segment 0
[20:53:41] decomb filter thread started for segment 1
[20:53:41] decomb check thread started for segment 0
[20:53:41] sync: expecting 188880 video frames
[20:53:41] decomb check thread started for segment 1
[20:53:41] job configuration:
[20:53:41]  * source
[20:53:41]    + /Users/Rich364/Desktop/Pacific_Rim_t00.mkv
[20:53:41]    + title 1, chapter(s) 1 to 15
[20:53:41]    + container: matroska,webm
[20:53:41]    + data rate: 38053 kbps
[20:53:41]  * destination
[20:53:41]    + /Users/Rich364/Desktop/Pacific_Rim_t00.m4v
[20:53:41]    + container: MPEG-4 (.mp4 and .m4v)
[20:53:41]      + 64-bit formatting
[20:53:41]      + chapter markers
[20:53:41]  * video track
[20:53:41]    + decoder: h264
[20:53:41]    + frame rate: 23.976 fps -> peak rate limited to 30.000 fps
[20:53:41]    + filters
[20:53:41]      + Decomb (7:2:6:9:1:80)
[20:53:41]      + Framerate Shaper (2:27000000:900000)
[20:53:41]        + frame rate: 30.000 fps -> peak rate limited to 30.000 fps
[20:53:41]      + Crop and Scale (1920:1080:0:0:0:0)
[20:53:41]        + source: 1920 * 1080, crop (0/0/0/0): 1920 * 1080, scale: 1920 * 1080
[20:53:41]    + loose anamorphic
[20:53:41]      + storage dimensions: 1920 * 1080, mod 2
[20:53:41]      + pixel aspect ratio: 1 / 1
[20:53:41]      + display dimensions: 1920 * 1080
[20:53:41]    + encoder: H.264 (x264)
[20:53:41]      + x264 preset: medium
[20:53:41]      + h264 profile: high
[20:53:41]      + h264 level: 4.0
[20:53:41]      + quality: 20.00 (RF)
[20:53:41]  * audio track 1
[20:53:41]    + decoder: English (DTS-HD MA) (5.1 ch) (track 1, id 0x1)
[20:53:41]      + bitrate: 1536 kbps, samplerate: 48000 Hz
[20:53:41]    + mixdown: Dolby Pro Logic II
[20:53:41]    + encoder: AAC (CoreAudio)
[20:53:41]      + bitrate: 160 kbps, samplerate: 48000 Hz
[20:53:41]  * audio track 2
[20:53:41]    + decoder: English (DTS-HD MA) (5.1 ch) (track 1, id 0x1)
[20:53:41]      + bitrate: 1536 kbps, samplerate: 48000 Hz
[20:53:41]    + mixdown: 5.1 Channels
[20:53:41]    + encoder: AC3 (ffmpeg)
[20:53:41]      + bitrate: 640 kbps, samplerate: 48000 Hz
[20:53:41] reader: first SCR 0 id 0x0 DTS 0
[20:53:41] encx264: min-keyint: 30, keyint: 300
[20:53:41] encx264: encoding with stored aspect 1/1
[20:53:41] encx264: Encoding at constant RF 20.000000
x264 [warning]: --psnr used with psy on: results will be invalid!
x264 [warning]: --tune psnr should be used if attempting to benchmark psnr!
x264 [info]: using SAR=1/1
x264 [info]: using cpu capabilities: MMX2 SSE2Fast SSSE3 Cache64 SlowShuffle
x264 [info]: profile High, level 4.0
[21:52:44] h264: "Chapter 2" (2) at frame 13168 time 49399380
[23:02:37] h264: "Chapter 3" (3) at frame 26759 time 100416600
[23:30:28] h264: "Chapter 4" (4) at frame 33198 time 124587000
[00:31:02] h264: "Chapter 5" (5) at frame 47490 time 178235550
[01:24:51] h264: "Chapter 6" (6) at frame 61503 time 230836860
[02:08:11] h264: "Chapter 7" (7) at frame 71975 time 270146160
[03:16:05] h264: "Chapter 8" (8) at frame 87989 time 330258690
[04:50:45] h264: "Chapter 9" (9) at frame 107536 time 403633260
[05:51:52] h264: "Chapter 10" (10) at frame 118480 time 444714300
[07:03:56] h264: "Chapter 11" (11) at frame 132594 time 497694690
[08:03:17] h264: "Chapter 12" (12) at frame 146635 time 550401120
[09:12:36] h264: "Chapter 13" (13) at frame 160596 time 602807220
[10:11:38] h264: "Chapter 14" (14) at frame 171701 time 644492610
[10:30:37] h264: "Chapter 15" (15) at frame 175935 time 660385980
[11:02:41] reader: done. 1 scr changes
[11:02:53] work: average encoding speed for job is 3.706909 fps
[11:02:53] sync: got 188857 frames, 188880 expected
[11:02:53] decomb: deinterlaced 0 | blended 44 | unfiltered 188812 | total 188856
[11:02:53] render: 188856 frames output, 0 dropped and 0 duped for CFR/PFR
[11:02:53] render: lost time: 0 (0 frames)
[11:02:53] render: gained time: 0 (0 frames) (0 not accounted for)
[11:02:53] h264-decoder done: 188857 frames, 0 decoder errors, 0 drops
x264 [info]: frame I:3340  Avg QP:17.53  size:146305  PSNR Mean Y:49.56 U:51.42 V:52.74 Avg:50.20 Global:49.74
x264 [info]: frame P:121225 Avg QP:20.73  size: 60472  PSNR Mean Y:46.47 U:47.84 V:49.82 Avg:46.97 Global:46.52
x264 [info]: frame B:64291 Avg QP:22.40  size: 18615  PSNR Mean Y:45.99 U:47.13 V:49.66 Avg:46.40 Global:45.59
x264 [info]: consecutive B-frames: 42.2% 35.1%  6.3% 16.4%
x264 [info]: mb I  I16..4: 13.6% 65.5% 20.9%
x264 [info]: mb P  I16..4:  5.6% 22.0%  2.9%  P16..4: 36.6% 12.4%  5.7%  0.0%  0.0%    skip:14.8%
x264 [info]: mb B  I16..4:  0.5%  1.5%  0.2%  B16..8: 37.4%  4.6%  0.9%  direct: 6.2%  skip:48.7%  L0:40.7% L1:51.3% BI: 8.0%
x264 [info]: 8x8 transform intra:71.5% inter:76.8%
x264 [info]: coded y,uvDC,uvAC intra: 65.5% 88.1% 66.7% inter: 24.3% 40.8% 11.0%
x264 [info]: i16 v,h,dc,p: 51% 16%  8% 24%
x264 [info]: i8 v,h,dc,ddl,ddr,vr,hd,vl,hu: 19% 16% 27%  5%  6%  7%  6%  6%  7%
x264 [info]: i4 v,h,dc,ddl,ddr,vr,hd,vl,hu: 25% 19% 16%  5%  9%  8%  8%  5%  5%
x264 [info]: i8c dc,h,v,p: 57% 18% 18%  7%
x264 [info]: Weighted P-Frames: Y:3.0% UV:2.1%
x264 [info]: ref P L0: 65.6% 12.2% 15.9%  6.2%  0.1%
x264 [info]: ref B L0: 88.8% 10.3%  0.9%
x264 [info]: ref B L1: 97.6%  2.4%
x264 [info]: SSIM Mean Y:0.9862069 (18.603db)
x264 [info]: PSNR Mean Y:46.362 U:47.660 V:49.816 Avg:46.834 Global:46.214 kb/s:9157.12
[11:02:53] dca-decoder done: 0 frames, 0 decoder errors, 0 drops
[11:02:53] dca-decoder done: 0 frames, 0 decoder errors, 0 drops
[11:02:54] mux: track 0, 188856 frames, 9016074994 bytes, 9155.82 kbps, fifo 1024
[11:02:54] mux: track 1, 369276 frames, 162103008 bytes, 164.62 kbps, fifo 4096
[11:02:54] mux: track 2, 246183 frames, 630228480 bytes, 640.00 kbps, fifo 2048
[11:02:54] libhb: work result = 0
Last edited by Rodeo on Wed Oct 01, 2014 3:47 pm, edited 1 time in total.
Reason: Logs must be placed between [code] [/code] blocks

Rich364
Posts: 9
Joined: Wed Oct 01, 2014 12:24 pm

Re: Speed Test Results from Various Mac Computers

Post by Rich364 » Wed Oct 01, 2014 3:40 pm

Computer 2

Code: Select all

HandBrake Activity Log for /Users/Rich364/Desktop/Exclude from TM/Pacific_Rim_t00.m4v: 2014-02-23 20:44:25 -0500
Handbrake Version: 0.9.9 x86_64 (2013051800)

[20:44:25] macgui: Rip: Pending queue count is 1
[20:44:25] macgui: getNextPendingQueueIndex next pending encode index is:0
[20:44:25] macgui: scanning specifically for title: 1
[20:44:25] hb_scan: path=/Users/Rich364/Desktop/Exclude from TM/Pacific_Rim_t00.mkv, title_index=1
libbluray/bdnav/index_parse.c:162: indx_parse(): error opening /Users/Rich364/Desktop/Exclude from TM/Pacific_Rim_t00.mkv/BDMV/index.bdmv
libbluray/bdnav/index_parse.c:162: indx_parse(): error opening /Users/Rich364/Desktop/Exclude from TM/Pacific_Rim_t00.mkv/BDMV/BACKUP/index.bdmv
libbluray/bluray.c:1725: nav_get_title_list(/Users/Rich364/Desktop/Exclude from TM/Pacific_Rim_t00.mkv) failed (0x10292e800)
[20:44:25] bd: not a bd - trying as a stream/file instead
libdvdnav: Using dvdnav version 4.1.3
libdvdread: Using libdvdcss version 1.2.11 for DVD access
libdvdnav:DVDOpenFileUDF:UDFFindFile /VIDEO_TS/VIDEO_TS.IFO failed
libdvdnav:DVDOpenFileUDF:UDFFindFile /VIDEO_TS/VIDEO_TS.BUP failed
libdvdread: Can't open file VIDEO_TS.IFO.
libdvdnav: vm: failed to read VIDEO_TS.IFO
[20:44:25] dvd: not a dvd - trying as a stream/file instead
Input #0, matroska,webm, from '/Users/Rich364/Desktop/Exclude from TM/Pacific_Rim_t00.mkv':
  Metadata:
    title           : Pacific Rim
  Duration: 02:11:17.88, start: 0.000000, bitrate: 38053 kb/s
    Chapter #0.0: start 0.000000, end 548.881667
    Metadata:
      title           : Chapter 01
    Chapter #0.1: start 548.881667, end 1115.656208
    Metadata:
      title           : Chapter 02
    Chapter #0.2: start 1115.656208, end 1384.299583
    Metadata:
      title           : Chapter 03
    Chapter #0.3: start 1384.299583, end 1980.353375
    Metadata:
      title           : Chapter 04
    Chapter #0.4: start 1980.353375, end 2564.853958
    Metadata:
      title           : Chapter 05
    Chapter #0.5: start 2564.853958, end 3001.623625
    Metadata:
      title           : Chapter 06
    Chapter #0.6: start 3001.623625, end 3669.499167
    Metadata:
      title           : Chapter 07
    Chapter #0.7: start 3669.499167, end 4484.813667
    Metadata:
      title           : Chapter 08
    Chapter #0.8: start 4484.813667, end 4941.269667
    Metadata:
      title           : Chapter 09
    Chapter #0.9: start 4941.269667, end 5529.899375
    Metadata:
      title           : Chapter 10
    Chapter #0.10: start 5529.899375, end 6115.567792
    Metadata:
      title           : Chapter 11
    Chapter #0.11: start 6115.567792, end 6697.816125
    Metadata:
      title           : Chapter 12
    Chapter #0.12: start 6697.816125, end 7161.028875
    Metadata:
      title           : Chapter 13
    Chapter #0.13: start 7161.028875, end 7337.580250
    Metadata:
      title           : Chapter 14
    Chapter #0.14: start 7337.580250, end 7877.888000
    Metadata:
      title           : Chapter 15
    Stream #0.0(eng): Video: h264 (High), yuv420p, 1920x1080 [PAR 1:1 DAR 16:9], 23.98 fps, 23.98 tbr, 1k tbn, 47.95 tbc
    Stream #0.1(eng): Audio: dca (DTS-HD MA), 48000 Hz, 5.1, fltp, 1536 kb/s (default)
    Metadata:
      title           : Lossless
    Stream #0.2(eng): Audio: dca (DTS), 48000 Hz, 5.1, fltp, 1536 kb/s
    Metadata:
      title           : 3/2+1
    Stream #0.3(eng): Audio: dca (DTS-HD MA), 48000 Hz, 5.1, fltp, 1536 kb/s
    Metadata:
      title           : Lossless
    Stream #0.4(eng): Audio: dca (DTS), 48000 Hz, 5.1, fltp, 1536 kb/s
    Metadata:
      title           : 3/2+1
    Stream #0.5(fra): Audio: ac3, 48000 Hz, 5.1, fltp, 640 kb/s
    Metadata:
      title           : 3/2+1
    Stream #0.6(spa): Audio: ac3, 48000 Hz, 5.1, fltp, 640 kb/s
    Metadata:
      title           : 3/2+1
    Stream #0.7(eng): Subtitle: pgssub
    Stream #0.8(fra): Subtitle: pgssub
    Stream #0.9(spa): Subtitle: pgssub
    Stream #0.10: Attachment: mjpeg
    Metadata:
      filename        : cover.jpg
      mimetype        : image/jpeg
[20:44:25] scan: decoding previews for title 1
[20:44:25] scan: audio 0x1: dca, rate=48000Hz, bitrate=1536000 English (DTS-HD MA) (5.1 ch)
[20:44:25] scan: audio 0x2: dca, rate=48000Hz, bitrate=1536000 English (DTS) (5.1 ch)
[20:44:25] scan: audio 0x3: dca, rate=48000Hz, bitrate=1536000 English (DTS-HD MA) (5.1 ch)
[20:44:25] scan: audio 0x4: dca, rate=48000Hz, bitrate=1536000 English (DTS) (5.1 ch)
[20:44:25] scan: audio 0x5: AC-3, rate=48000Hz, bitrate=640000 Francais (AC3) (5.1 ch)
[20:44:25] scan: audio 0x6: AC-3, rate=48000Hz, bitrate=640000 Espanol (AC3) (5.1 ch)
[20:44:26] scan: 10 previews, 1920x1080, 23.976 fps, autocrop = 0/0/0/0, aspect 16:9, PAR 1:1
[20:44:26] libhb: scan thread found 1 valid title(s)
[20:44:26] macgui: ScanDone state received from fQueueEncodeLibhb
[20:44:26] macgui: Preset: AppleTV 3
[20:44:26] macgui: processNewQueueEncode number of passes expected is: 1
[20:44:26] macgui: Start / Stop set to chapters
[20:44:26] macgui: Foreign Language Search: 1
[20:44:26] macgui: prepareJob exiting
[20:44:26] 2 job(s) to process
[20:44:26] starting job
[20:44:26] yadif thread started for segment 0
[20:44:26] yadif thread started for segment 2
[20:44:26] yadif thread started for segment 1
[20:44:26] yadif thread started for segment 3
[20:44:26] yadif thread started for segment 5
[20:44:26] yadif thread started for segment 4
[20:44:26] yadif thread started for segment 6
[20:44:26] yadif thread started for segment 7
[20:44:26] decomb filter thread started for segment 0
[20:44:26] decomb filter thread started for segment 1
[20:44:26] decomb filter thread started for segment 2
[20:44:26] decomb filter thread started for segment 3
[20:44:26] decomb filter thread started for segment 4
[20:44:26] decomb filter thread started for segment 5
[20:44:26] decomb filter thread started for segment 6
[20:44:26] decomb check thread started for segment 0
[20:44:26] decomb filter thread started for segment 7
[20:44:26] decomb check thread started for segment 1
[20:44:26] decomb check thread started for segment 2
[20:44:26] decomb check thread started for segment 3
[20:44:26] decomb check thread started for segment 4
[20:44:26] decomb check thread started for segment 5
[20:44:26] decomb check thread started for segment 6
[20:44:26] decomb check thread started for segment 7
[20:44:26] sync: expecting 188880 video frames
[20:44:26] job configuration:
[20:44:26]  * source
[20:44:26]    + /Users/Rich364/Desktop/Exclude from TM/Pacific_Rim_t00.mkv
[20:44:26]    + title 1, chapter(s) 1 to 15
[20:44:26]    + container: matroska,webm
[20:44:26]    + data rate: 38053 kbps
[20:44:26]  * destination
[20:44:26]    + /Users/Rich364/Desktop/Exclude from TM/Pacific_Rim_t00.m4v
[20:44:26]    + container: MPEG-4 (.mp4 and .m4v)
[20:44:26]      + 64-bit formatting
[20:44:26]      + chapter markers
[20:44:26]  * video track
[20:44:26]    + decoder: h264
[20:44:26]    + frame rate: 23.976 fps -> peak rate limited to 30.000 fps
[20:44:26]    + filters
[20:44:26]      + Decomb (7:2:6:9:1:80)
[20:44:26]      + Framerate Shaper (2:27000000:900000)
[20:44:26]        + frame rate: 30.000 fps -> peak rate limited to 30.000 fps
[20:44:26]      + Crop and Scale (1920:1080:0:0:0:0)
[20:44:26]        + source: 1920 * 1080, crop (0/0/0/0): 1920 * 1080, scale: 1920 * 1080
[20:44:26]    + loose anamorphic
[20:44:26]      + storage dimensions: 1920 * 1080, mod 2
[20:44:26]      + pixel aspect ratio: 1 / 1
[20:44:26]      + display dimensions: 1920 * 1080
[20:44:26]  * Foreign Audio Search: Render/Burn-in, Forced Only
[20:44:26]    + subtitle, English (track 7, id 0x7) Picture [PGS]
[20:46:05] reader: done. 1 scr changes
[20:46:05] work: average encoding speed for job is 0.000000 fps
[20:46:05] decomb: deinterlaced 0 | blended 0 | unfiltered 0 | total 0
[20:46:05] render: 0 frames output, 0 dropped and 0 duped for CFR/PFR
[20:46:05] render: lost time: 0 (0 frames)
[20:46:05] render: gained time: 0 (0 frames) (0 not accounted for)
[20:46:05] h264-decoder done: 0 frames, 0 decoder errors, 0 drops
[20:46:05] Subtitle track 7 (id 0x7) 'English': 1835 hits (0 forced)
[20:46:05] No candidate detected during subtitle scan
[20:46:05] starting job
[20:46:05] yadif thread started for segment 0
[20:46:05] yadif thread started for segment 1
[20:46:05] yadif thread started for segment 3
[20:46:05] yadif thread started for segment 2
[20:46:05] yadif thread started for segment 5
[20:46:05] yadif thread started for segment 4
[20:46:05] yadif thread started for segment 6
[20:46:05] yadif thread started for segment 7
[20:46:05] decomb filter thread started for segment 1
[20:46:05] decomb filter thread started for segment 0
[20:46:05] decomb filter thread started for segment 3
[20:46:05] decomb filter thread started for segment 2
[20:46:05] decomb filter thread started for segment 4
[20:46:05] decomb filter thread started for segment 5
[20:46:05] decomb filter thread started for segment 7
[20:46:05] decomb filter thread started for segment 6
[20:46:05] decomb check thread started for segment 0
[20:46:05] decomb check thread started for segment 1
[20:46:05] decomb check thread started for segment 2
[20:46:05] decomb check thread started for segment 3
[20:46:05] decomb check thread started for segment 4
[20:46:05] decomb check thread started for segment 5
[20:46:05] decomb check thread started for segment 6
[20:46:05] decomb check thread started for segment 7
[20:46:05] sync: expecting 188880 video frames
[20:46:05] job configuration:
[20:46:05]  * source
[20:46:05]    + /Users/Rich364/Desktop/Exclude from TM/Pacific_Rim_t00.mkv
[20:46:05]    + title 1, chapter(s) 1 to 15
[20:46:05]    + container: matroska,webm
[20:46:05]    + data rate: 38053 kbps
[20:46:05]  * destination
[20:46:05]    + /Users/Rich364/Desktop/Exclude from TM/Pacific_Rim_t00.m4v
[20:46:05]    + container: MPEG-4 (.mp4 and .m4v)
[20:46:05]      + 64-bit formatting
[20:46:05]      + chapter markers
[20:46:05]  * video track
[20:46:05]    + decoder: h264
[20:46:05]    + frame rate: 23.976 fps -> peak rate limited to 30.000 fps
[20:46:05]    + filters
[20:46:05]      + Decomb (7:2:6:9:1:80)
[20:46:05]      + Framerate Shaper (2:27000000:900000)
[20:46:05]        + frame rate: 30.000 fps -> peak rate limited to 30.000 fps
[20:46:05]      + Crop and Scale (1920:1080:0:0:0:0)
[20:46:05]        + source: 1920 * 1080, crop (0/0/0/0): 1920 * 1080, scale: 1920 * 1080
[20:46:05]    + loose anamorphic
[20:46:05]      + storage dimensions: 1920 * 1080, mod 2
[20:46:05]      + pixel aspect ratio: 1 / 1
[20:46:05]      + display dimensions: 1920 * 1080
[20:46:05]    + encoder: H.264 (x264)
[20:46:05]      + x264 preset: medium
[20:46:05]      + h264 profile: high
[20:46:05]      + h264 level: 4.0
[20:46:05]      + quality: 20.00 (RF)
[20:46:05]  * audio track 1
[20:46:05]    + decoder: English (DTS-HD MA) (5.1 ch) (track 1, id 0x1)
[20:46:05]      + bitrate: 1536 kbps, samplerate: 48000 Hz
[20:46:05]    + mixdown: Dolby Pro Logic II
[20:46:05]    + encoder: AAC (CoreAudio)
[20:46:05]      + bitrate: 160 kbps, samplerate: 48000 Hz
[20:46:05]  * audio track 2
[20:46:05]    + decoder: English (DTS-HD MA) (5.1 ch) (track 1, id 0x1)
[20:46:05]      + bitrate: 1536 kbps, samplerate: 48000 Hz
[20:46:05]    + mixdown: 5.1 Channels
[20:46:05]    + encoder: AC3 (ffmpeg)
[20:46:05]      + bitrate: 640 kbps, samplerate: 48000 Hz
[20:46:05] reader: first SCR 0 id 0x0 DTS 0
[20:46:05] encx264: min-keyint: 30, keyint: 300
[20:46:05] encx264: encoding with stored aspect 1/1
[20:46:05] encx264: Encoding at constant RF 20.000000
x264 [warning]: --psnr used with psy on: results will be invalid!
x264 [warning]: --tune psnr should be used if attempting to benchmark psnr!
x264 [info]: using SAR=1/1
x264 [info]: using cpu capabilities: MMX2 SSE2Fast SSSE3 SSE4.2 AVX
x264 [info]: profile High, level 4.0
[21:47:15] h264: "Chapter 2" (2) at frame 13168 time 49399380
[22:59:29] h264: "Chapter 3" (3) at frame 26759 time 100416600
[23:24:17] h264: "Chapter 4" (4) at frame 33198 time 124587000
[00:18:58] h264: "Chapter 5" (5) at frame 47490 time 178235550
[01:08:03] h264: "Chapter 6" (6) at frame 61503 time 230836860
[01:46:12] h264: "Chapter 7" (7) at frame 71975 time 270146160
[02:45:47] h264: "Chapter 8" (8) at frame 87989 time 330258690
[04:08:28] h264: "Chapter 9" (9) at frame 107536 time 403633260
[05:00:54] h264: "Chapter 10" (10) at frame 118480 time 444714300
[06:02:05] h264: "Chapter 11" (11) at frame 132594 time 497694690
[06:52:16] h264: "Chapter 12" (12) at frame 146635 time 550401120
[07:52:10] h264: "Chapter 13" (13) at frame 160596 time 602807220
[08:52:54] h264: "Chapter 14" (14) at frame 171701 time 644492610
[09:13:18] h264: "Chapter 15" (15) at frame 175935 time 660385980
[09:46:09] reader: done. 1 scr changes
[09:46:24] work: average encoding speed for job is 4.034271 fps
[09:46:24] sync: got 188857 frames, 188880 expected
[09:46:24] decomb: deinterlaced 0 | blended 44 | unfiltered 188812 | total 188856
[09:46:24] render: 188856 frames output, 0 dropped and 0 duped for CFR/PFR
[09:46:24] render: lost time: 0 (0 frames)
[09:46:24] render: gained time: 0 (0 frames) (0 not accounted for)
[09:46:24] h264-decoder done: 188857 frames, 0 decoder errors, 0 drops
x264 [info]: frame I:3354  Avg QP:17.52  size:145753  PSNR Mean Y:49.56 U:51.42 V:52.73 Avg:50.20 Global:49.74
x264 [info]: frame P:121826 Avg QP:20.74  size: 60472  PSNR Mean Y:46.46 U:47.83 V:49.81 Avg:46.95 Global:46.50
x264 [info]: frame B:63676 Avg QP:22.42  size: 18503  PSNR Mean Y:46.01 U:47.12 V:49.69 Avg:46.40 Global:45.60
x264 [info]: consecutive B-frames: 42.4% 36.0%  6.1% 15.5%
x264 [info]: mb I  I16..4: 13.8% 65.4% 20.8%
x264 [info]: mb P  I16..4:  5.6% 22.2%  2.9%  P16..4: 36.4% 12.4%  5.7%  0.0%  0.0%    skip:14.8%
x264 [info]: mb B  I16..4:  0.5%  1.5%  0.2%  B16..8: 37.4%  4.5%  0.9%  direct: 6.2%  skip:48.9%  L0:40.7% L1:51.3% BI: 8.0%
x264 [info]: 8x8 transform intra:71.5% inter:76.7%
x264 [info]: coded y,uvDC,uvAC intra: 65.4% 88.1% 66.7% inter: 24.3% 40.8% 11.0%
x264 [info]: i16 v,h,dc,p: 51% 16%  8% 25%
x264 [info]: i8 v,h,dc,ddl,ddr,vr,hd,vl,hu: 20% 16% 27%  5%  6%  7%  6%  6%  7%
x264 [info]: i4 v,h,dc,ddl,ddr,vr,hd,vl,hu: 25% 19% 16%  5%  9%  8%  8%  5%  5%
x264 [info]: i8c dc,h,v,p: 57% 18% 18%  7%
x264 [info]: Weighted P-Frames: Y:3.0% UV:2.1%
x264 [info]: ref P L0: 65.5% 12.3% 15.9%  6.1%  0.1%
x264 [info]: ref B L0: 88.9% 10.4%  0.7%
x264 [info]: ref B L1: 97.9%  2.1%
x264 [info]: SSIM Mean Y:0.9862123 (18.605db)
x264 [info]: PSNR Mean Y:46.361 U:47.656 V:49.820 Avg:46.825 Global:46.213 kb/s:9175.35
[09:46:24] dca-decoder done: 0 frames, 0 decoder errors, 0 drops
[09:46:24] dca-decoder done: 0 frames, 0 decoder errors, 0 drops
[09:46:24] mux: track 0, 188856 frames, 9034027823 bytes, 9174.05 kbps, fifo 1024
[09:46:24] mux: track 1, 369276 frames, 162325476 bytes, 164.84 kbps, fifo 4096
[09:46:24] mux: track 2, 246183 frames, 630228480 bytes, 640.00 kbps, fifo 2048
[09:46:24] libhb: work result = 0
Last edited by Rodeo on Wed Oct 01, 2014 3:47 pm, edited 1 time in total.
Reason: Logs must be placed between [code] [/code] blocks

User avatar
Rodeo
HandBrake Team
Posts: 11884
Joined: Tue Mar 03, 2009 8:55 pm

Re: Speed Test Results from Various Mac Computers

Post by Rodeo » Fri Oct 03, 2014 9:59 pm

Nothing obvious, unfortunately. Perhaps the early days of OS X 10.9?

Rich364
Posts: 9
Joined: Wed Oct 01, 2014 12:24 pm

Re: Speed Test Results from Various Mac Computers

Post by Rich364 » Sun Oct 05, 2014 11:48 am

Maybe for the 2007 MacBook Pro... but it's disappointing that a fairly new computer (2012 Retina MacBook Pro) with good specs and running the latest OS available would perform almost as well (or poorly). I'm not sure how it works... but maybe it's the power of a desktop processor verse a laptop.

And just to confirm the results... I ran the same .mkv file through the same process on Computer 2 again (2012 Retina MacBook Pro). It actually took more time... though I did launch Preview in order to take a screenshot this time. I would post the screenshot and the log... but again, I'm new to the forum and I'm not sure how to do it when posting a reply.

But thanks for looking through my prior results and your input.

User avatar
Rodeo
HandBrake Team
Posts: 11884
Joined: Tue Mar 03, 2009 8:55 pm

Re: Speed Test Results from Various Mac Computers

Post by Rodeo » Sun Oct 05, 2014 12:34 pm

No, the rMBP should be much faster than the older dual core (I would expect the encode to take between 4 and 5 hours, at most 6). Have you tried updating it to 10.9.5?

Rich364
Posts: 9
Joined: Wed Oct 01, 2014 12:24 pm

Re: Speed Test Results from Various Mac Computers

Post by Rich364 » Wed Oct 08, 2014 7:01 pm

Yeah, when I re-tested a couple of days ago and reposted above... Computer #2 (2012 Retina MacBook Pro) was running 10.9.5

Maybe I have a hardware issue... though I'm not sure how I can diagnose it (so I can get it repaired).

User avatar
Rodeo
HandBrake Team
Posts: 11884
Joined: Tue Mar 03, 2009 8:55 pm

Re: Speed Test Results from Various Mac Computers

Post by Rodeo » Wed Oct 08, 2014 7:19 pm

Not quite sure how you'd do that either, to be honest. But it is definitely slower than it should be.

TedJ
Veteran User
Posts: 5388
Joined: Wed Feb 20, 2008 11:25 pm

Re: Speed Test Results from Various Mac Computers

Post by TedJ » Thu Oct 09, 2014 12:18 pm

I'd be checking CPU temperatures and fan speeds for a start... If your CPU is overheating, say due to a poorly fitted heatsink, then CPU throttling may be responsible for the slow encode speeds.

Speaking from personal experience, I've owned both a 2007 Macbook Pro (2.4 GHz C2D) and a 2011 Macbook Pro (2.2 GHz i7) and the latter is dramatically faster.

Rich364
Posts: 9
Joined: Wed Oct 01, 2014 12:24 pm

Re: Speed Test Results from Various Mac Computers

Post by Rich364 » Thu Oct 09, 2014 3:40 pm

Thank you for the suggestion... I'll definitely check how it's running during the next task.

mike548141
Posts: 26
Joined: Mon Nov 08, 2010 5:02 am

Re: Speed Test Results from Various Mac Computers

Post by mike548141 » Fri Oct 10, 2014 1:33 am

Rich364, first off thanks for sharing this info, its quite useful.

Secondly,
1. Could you please also post Computer 3 & 4's encode log?
2. Could you edit your original post to include the Apple model (e.g. A1234) and order (e.g. MC123/XA) numbers for exact hardware specs?

Cheers,

MC

Rich364
Posts: 9
Joined: Wed Oct 01, 2014 12:24 pm

Re: Speed Test Results from Various Mac Computers

Post by Rich364 » Sat Oct 11, 2014 3:44 pm

I updated the original post with the Apple Model... but I don't know where to pull the Order number from.

The encode log for Computer 3 is below... unfortunately I can't get the log for Computer 4 because it was completed within the Guest Account and all the data gets erased when you log out (I did it within the Guest Account because I wanted to do the closest comparison as possible... and my primary user account on the Mac Pro does not reside on the internal hard drive like my other computers).

Code: Select all

HandBrake Activity Log for /Users/Rich364/Desktop/Pacific_Rim_t00.m4v: 2014-09-30 16:19:29 -0400
Handbrake Version: 0.9.9 x86_64 (2013051800)

[16:19:29] macgui: Rip: Pending queue count is 1
[16:19:29] macgui: getNextPendingQueueIndex next pending encode index is:0
[16:19:29] macgui: scanning specifically for title: 1
[16:19:29] hb_scan: path=/Users/Rich364/Desktop/Pacific_Rim_t00.mkv, title_index=1
libbluray/bdnav/index_parse.c:162: indx_parse(): error opening /Users/Rich364/Desktop/Pacific_Rim_t00.mkv/BDMV/index.bdmv
libbluray/bdnav/index_parse.c:162: indx_parse(): error opening /Users/Rich364/Desktop/Pacific_Rim_t00.mkv/BDMV/BACKUP/index.bdmv
libbluray/bluray.c:1725: nav_get_title_list(/Users/Rich364/Desktop/Pacific_Rim_t00.mkv) failed (0x1030d2200)
[16:19:29] bd: not a bd - trying as a stream/file instead
libdvdnav: Using dvdnav version 4.1.3
libdvdread: Encrypted DVD support unavailable.
libdvdnav:DVDOpenFileUDF:UDFFindFile /VIDEO_TS/VIDEO_TS.IFO failed
libdvdnav:DVDOpenFileUDF:UDFFindFile /VIDEO_TS/VIDEO_TS.BUP failed
libdvdread: Can't open file VIDEO_TS.IFO.
libdvdnav: vm: failed to read VIDEO_TS.IFO
[16:19:29] dvd: not a dvd - trying as a stream/file instead
Input #0, matroska,webm, from '/Users/Rich364/Desktop/Pacific_Rim_t00.mkv':
  Metadata:
    title           : Pacific Rim
  Duration: 02:11:17.88, start: 0.000000, bitrate: 38053 kb/s
    Chapter #0.0: start 0.000000, end 548.881667
    Metadata:
      title           : Chapter 01
    Chapter #0.1: start 548.881667, end 1115.656208
    Metadata:
      title           : Chapter 02
    Chapter #0.2: start 1115.656208, end 1384.299583
    Metadata:
      title           : Chapter 03
    Chapter #0.3: start 1384.299583, end 1980.353375
    Metadata:
      title           : Chapter 04
    Chapter #0.4: start 1980.353375, end 2564.853958
    Metadata:
      title           : Chapter 05
    Chapter #0.5: start 2564.853958, end 3001.623625
    Metadata:
      title           : Chapter 06
    Chapter #0.6: start 3001.623625, end 3669.499167
    Metadata:
      title           : Chapter 07
    Chapter #0.7: start 3669.499167, end 4484.813667
    Metadata:
      title           : Chapter 08
    Chapter #0.8: start 4484.813667, end 4941.269667
    Metadata:
      title           : Chapter 09
    Chapter #0.9: start 4941.269667, end 5529.899375
    Metadata:
      title           : Chapter 10
    Chapter #0.10: start 5529.899375, end 6115.567792
    Metadata:
      title           : Chapter 11
    Chapter #0.11: start 6115.567792, end 6697.816125
    Metadata:
      title           : Chapter 12
    Chapter #0.12: start 6697.816125, end 7161.028875
    Metadata:
      title           : Chapter 13
    Chapter #0.13: start 7161.028875, end 7337.580250
    Metadata:
      title           : Chapter 14
    Chapter #0.14: start 7337.580250, end 7877.888000
    Metadata:
      title           : Chapter 15
    Stream #0.0(eng): Video: h264 (High), yuv420p, 1920x1080 [PAR 1:1 DAR 16:9], 23.98 fps, 23.98 tbr, 1k tbn, 47.95 tbc
    Stream #0.1(eng): Audio: dca (DTS-HD MA), 48000 Hz, 5.1, fltp, 1536 kb/s (default)
    Metadata:
      title           : Lossless
    Stream #0.2(eng): Audio: dca (DTS), 48000 Hz, 5.1, fltp, 1536 kb/s
    Metadata:
      title           : 3/2+1
    Stream #0.3(eng): Audio: dca (DTS-HD MA), 48000 Hz, 5.1, fltp, 1536 kb/s
    Metadata:
      title           : Lossless
    Stream #0.4(eng): Audio: dca (DTS), 48000 Hz, 5.1, fltp, 1536 kb/s
    Metadata:
      title           : 3/2+1
    Stream #0.5(fra): Audio: ac3, 48000 Hz, 5.1, fltp, 640 kb/s
    Metadata:
      title           : 3/2+1
    Stream #0.6(spa): Audio: ac3, 48000 Hz, 5.1, fltp, 640 kb/s
    Metadata:
      title           : 3/2+1
    Stream #0.7(eng): Subtitle: pgssub
    Stream #0.8(fra): Subtitle: pgssub
    Stream #0.9(spa): Subtitle: pgssub
    Stream #0.10: Attachment: mjpeg
    Metadata:
      filename        : cover.jpg
      mimetype        : image/jpeg
[16:19:29] scan: decoding previews for title 1
[16:19:29] scan: audio 0x1: dca, rate=48000Hz, bitrate=1536000 English (DTS-HD MA) (5.1 ch)
[16:19:29] scan: audio 0x2: dca, rate=48000Hz, bitrate=1536000 English (DTS) (5.1 ch)
[16:19:29] scan: audio 0x3: dca, rate=48000Hz, bitrate=1536000 English (DTS-HD MA) (5.1 ch)
[16:19:29] scan: audio 0x4: dca, rate=48000Hz, bitrate=1536000 English (DTS) (5.1 ch)
[16:19:29] scan: audio 0x5: AC-3, rate=48000Hz, bitrate=640000 Francais (AC3) (5.1 ch)
[16:19:29] scan: audio 0x6: AC-3, rate=48000Hz, bitrate=640000 Espanol (AC3) (5.1 ch)
[16:19:29] scan: 10 previews, 1920x1080, 23.976 fps, autocrop = 0/0/0/0, aspect 16:9, PAR 1:1
[16:19:29] libhb: scan thread found 1 valid title(s)
[16:19:30] macgui: ScanDone state received from fQueueEncodeLibhb
[16:19:30] macgui: Preset: AppleTV 3
[16:19:30] macgui: processNewQueueEncode number of passes expected is: 1
[16:19:30] macgui: Start / Stop set to chapters
[16:19:30] macgui: Foreign Language Search: 1
[16:19:30] macgui: prepareJob exiting
[16:19:30] 2 job(s) to process
[16:19:30] starting job
[16:19:30] yadif thread started for segment 0
[16:19:30] yadif thread started for segment 1
[16:19:30] yadif thread started for segment 2
[16:19:30] yadif thread started for segment 3
[16:19:30] decomb filter thread started for segment 0
[16:19:30] decomb filter thread started for segment 1
[16:19:30] decomb filter thread started for segment 2
[16:19:30] decomb filter thread started for segment 3
[16:19:30] decomb check thread started for segment 0
[16:19:30] decomb check thread started for segment 1
[16:19:30] decomb check thread started for segment 2
[16:19:30] decomb check thread started for segment 3
[16:19:30] sync: expecting 188880 video frames
[16:19:30] job configuration:
[16:19:30]  * source
[16:19:30]    + /Users/Rich364/Desktop/Pacific_Rim_t00.mkv
[16:19:30]    + title 1, chapter(s) 1 to 15
[16:19:30]    + container: matroska,webm
[16:19:30]    + data rate: 38053 kbps
[16:19:30]  * destination
[16:19:30]    + /Users/Rich364/Desktop/Pacific_Rim_t00.m4v
[16:19:30]    + container: MPEG-4 (.mp4 and .m4v)
[16:19:30]      + 64-bit formatting
[16:19:30]      + chapter markers
[16:19:30]  * video track
[16:19:30]    + decoder: h264
[16:19:30]    + frame rate: 23.976 fps -> peak rate limited to 30.000 fps
[16:19:30]    + filters
[16:19:30]      + Decomb (7:2:6:9:1:80)
[16:19:30]      + Framerate Shaper (2:27000000:900000)
[16:19:30]        + frame rate: 30.000 fps -> peak rate limited to 30.000 fps
[16:19:30]      + Crop and Scale (1920:1080:0:0:0:0)
[16:19:30]        + source: 1920 * 1080, crop (0/0/0/0): 1920 * 1080, scale: 1920 * 1080
[16:19:30]    + loose anamorphic
[16:19:30]      + storage dimensions: 1920 * 1080, mod 2
[16:19:30]      + pixel aspect ratio: 1 / 1
[16:19:30]      + display dimensions: 1920 * 1080
[16:19:30]  * Foreign Audio Search: Render/Burn-in, Forced Only
[16:19:30]    + subtitle, English (track 7, id 0x7) Picture [PGS]
[16:22:59] reader: done. 1 scr changes
[16:22:59] work: average encoding speed for job is 0.000000 fps
[16:22:59] decomb: deinterlaced 0 | blended 0 | unfiltered 0 | total 0
[16:22:59] render: 0 frames output, 0 dropped and 0 duped for CFR/PFR
[16:22:59] render: lost time: 0 (0 frames)
[16:22:59] render: gained time: 0 (0 frames) (0 not accounted for)
[16:22:59] h264-decoder done: 0 frames, 0 decoder errors, 0 drops
[16:22:59] Subtitle track 7 (id 0x7) 'English': 1835 hits (0 forced)
[16:22:59] No candidate detected during subtitle scan
[16:22:59] starting job
[16:22:59] yadif thread started for segment 1
[16:22:59] yadif thread started for segment 0
[16:22:59] yadif thread started for segment 2
[16:22:59] decomb filter thread started for segment 0
[16:22:59] yadif thread started for segment 3
[16:22:59] decomb filter thread started for segment 1
[16:22:59] decomb filter thread started for segment 2
[16:22:59] decomb filter thread started for segment 3
[16:22:59] decomb check thread started for segment 0
[16:22:59] decomb check thread started for segment 1
[16:22:59] decomb check thread started for segment 2
[16:22:59] decomb check thread started for segment 3
[16:22:59] sync: expecting 188880 video frames
[16:22:59] job configuration:
[16:22:59]  * source
[16:22:59]    + /Users/Rich364/Desktop/Pacific_Rim_t00.mkv
[16:22:59]    + title 1, chapter(s) 1 to 15
[16:22:59]    + container: matroska,webm
[16:22:59]    + data rate: 38053 kbps
[16:22:59]  * destination
[16:22:59]    + /Users/Rich364/Desktop/Pacific_Rim_t00.m4v
[16:22:59]    + container: MPEG-4 (.mp4 and .m4v)
[16:22:59]      + 64-bit formatting
[16:22:59]      + chapter markers
[16:22:59]  * video track
[16:22:59]    + decoder: h264
[16:22:59]    + frame rate: 23.976 fps -> peak rate limited to 30.000 fps
[16:22:59]    + filters
[16:22:59]      + Decomb (7:2:6:9:1:80)
[16:22:59]      + Framerate Shaper (2:27000000:900000)
[16:22:59]        + frame rate: 30.000 fps -> peak rate limited to 30.000 fps
[16:22:59]      + Crop and Scale (1920:1080:0:0:0:0)
[16:22:59]        + source: 1920 * 1080, crop (0/0/0/0): 1920 * 1080, scale: 1920 * 1080
[16:22:59]    + loose anamorphic
[16:22:59]      + storage dimensions: 1920 * 1080, mod 2
[16:22:59]      + pixel aspect ratio: 1 / 1
[16:22:59]      + display dimensions: 1920 * 1080
[16:22:59]    + encoder: H.264 (x264)
[16:22:59]      + x264 preset: medium
[16:22:59]      + h264 profile: high
[16:22:59]      + h264 level: 4.0
[16:22:59]      + quality: 20.00 (RF)
[16:22:59]  * audio track 1
[16:22:59]    + decoder: English (DTS-HD MA) (5.1 ch) (track 1, id 0x1)
[16:22:59]      + bitrate: 1536 kbps, samplerate: 48000 Hz
[16:22:59]    + mixdown: Dolby Pro Logic II
[16:22:59]    + encoder: AAC (CoreAudio)
[16:22:59]      + bitrate: 160 kbps, samplerate: 48000 Hz
[16:22:59]  * audio track 2
[16:22:59]    + decoder: English (DTS-HD MA) (5.1 ch) (track 1, id 0x1)
[16:22:59]      + bitrate: 1536 kbps, samplerate: 48000 Hz
[16:22:59]    + mixdown: 5.1 Channels
[16:22:59]    + encoder: AC3 (ffmpeg)
[16:22:59]      + bitrate: 640 kbps, samplerate: 48000 Hz
[16:22:59] reader: first SCR 0 id 0x0 DTS 0
[16:22:59] encx264: min-keyint: 30, keyint: 300
[16:22:59] encx264: encoding with stored aspect 1/1
[16:22:59] encx264: Encoding at constant RF 20.000000
x264 [warning]: --psnr used with psy on: results will be invalid!
x264 [warning]: --tune psnr should be used if attempting to benchmark psnr!
x264 [info]: using SAR=1/1
x264 [info]: using cpu capabilities: MMX2 SSE2Fast SSSE3 SSE4.2 AVX AVX2 FMA3 LZCNT BMI1 BMI2
x264 [info]: profile High, level 4.0
[16:34:41] h264: "Chapter 2" (2) at frame 13168 time 49399380
[16:48:43] h264: "Chapter 3" (3) at frame 26759 time 100416600
[16:54:17] h264: "Chapter 4" (4) at frame 33198 time 124587000
[17:06:26] h264: "Chapter 5" (5) at frame 47490 time 178235550
[17:17:13] h264: "Chapter 6" (6) at frame 61503 time 230836860
[17:25:52] h264: "Chapter 7" (7) at frame 71975 time 270146160
[17:39:31] h264: "Chapter 8" (8) at frame 87989 time 330258690
[17:58:40] h264: "Chapter 9" (9) at frame 107536 time 403633260
[18:11:08] h264: "Chapter 10" (10) at frame 118480 time 444714300
[18:25:47] h264: "Chapter 11" (11) at frame 132594 time 497694690
[18:37:36] h264: "Chapter 12" (12) at frame 146635 time 550401120
[18:51:25] h264: "Chapter 13" (13) at frame 160596 time 602807220
[19:03:08] h264: "Chapter 14" (14) at frame 171701 time 644492610
[19:06:54] h264: "Chapter 15" (15) at frame 175935 time 660385980
[19:13:23] reader: done. 1 scr changes
[19:13:25] work: average encoding speed for job is 18.469090 fps
[19:13:25] sync: got 188857 frames, 188880 expected
[19:13:25] decomb: deinterlaced 0 | blended 44 | unfiltered 188812 | total 188856
[19:13:25] render: 188856 frames output, 0 dropped and 0 duped for CFR/PFR
[19:13:25] render: lost time: 0 (0 frames)
[19:13:25] render: gained time: 0 (0 frames) (0 not accounted for)
[19:13:25] h264-decoder done: 188857 frames, 0 decoder errors, 0 drops
x264 [info]: frame I:3340  Avg QP:17.53  size:146304  PSNR Mean Y:49.56 U:51.42 V:52.74 Avg:50.20 Global:49.74
x264 [info]: frame P:121225 Avg QP:20.73  size: 60478  PSNR Mean Y:46.47 U:47.84 V:49.82 Avg:46.97 Global:46.52
x264 [info]: frame B:64291 Avg QP:22.40  size: 18616  PSNR Mean Y:45.99 U:47.13 V:49.67 Avg:46.40 Global:45.59
x264 [info]: consecutive B-frames: 42.2% 35.1%  6.3% 16.4%
x264 [info]: mb I  I16..4: 13.6% 65.5% 20.9%
x264 [info]: mb P  I16..4:  5.6% 22.0%  2.9%  P16..4: 36.6% 12.4%  5.7%  0.0%  0.0%    skip:14.8%
x264 [info]: mb B  I16..4:  0.5%  1.5%  0.2%  B16..8: 37.4%  4.6%  0.9%  direct: 6.2%  skip:48.7%  L0:40.7% L1:51.3% BI: 8.0%
x264 [info]: 8x8 transform intra:71.4% inter:76.8%
x264 [info]: coded y,uvDC,uvAC intra: 65.5% 88.1% 66.7% inter: 24.3% 40.8% 11.0%
x264 [info]: i16 v,h,dc,p: 51% 16%  8% 24%
x264 [info]: i8 v,h,dc,ddl,ddr,vr,hd,vl,hu: 19% 16% 27%  5%  6%  7%  6%  6%  7%
x264 [info]: i4 v,h,dc,ddl,ddr,vr,hd,vl,hu: 25% 19% 16%  5%  9%  8%  8%  5%  5%
x264 [info]: i8c dc,h,v,p: 57% 18% 18%  7%
x264 [info]: Weighted P-Frames: Y:3.0% UV:2.1%
x264 [info]: ref P L0: 65.6% 12.2% 15.9%  6.2%  0.1%
x264 [info]: ref B L0: 88.8% 10.3%  0.9%
x264 [info]: ref B L1: 97.6%  2.4%
x264 [info]: SSIM Mean Y:0.9862075 (18.604db)
x264 [info]: PSNR Mean Y:46.363 U:47.663 V:49.819 Avg:46.836 Global:46.214 kb/s:9157.90
[19:13:25] dca-decoder done: 0 frames, 0 decoder errors, 0 drops
[19:13:25] dca-decoder done: 0 frames, 0 decoder errors, 0 drops
[19:13:25] mux: track 0, 188856 frames, 9016846307 bytes, 9156.60 kbps, fifo 1024
[19:13:25] mux: track 1, 369276 frames, 162325400 bytes, 164.84 kbps, fifo 4096
[19:13:25] mux: track 2, 246183 frames, 630228480 bytes, 640.00 kbps, fifo 2048
[19:13:25] libhb: work result = 0

Rich364
Posts: 9
Joined: Wed Oct 01, 2014 12:24 pm

Re: Speed Test Results from Various Mac Computers

Post by Rich364 » Mon Oct 20, 2014 1:44 pm

Thanks to TedJ I brought the RetinaMBP in and they found some issues. Apple replaced the Logic Board and the Heat Sink (no charge). After I got it home I ran the test above again... and found much better results (I updated the original post). Thank you again for the help!

User avatar
Rodeo
HandBrake Team
Posts: 11884
Joined: Tue Mar 03, 2009 8:55 pm

Re: Speed Test Results from Various Mac Computers

Post by Rodeo » Mon Oct 20, 2014 1:56 pm

Glad we could help! :)

5K4Me
Posts: 1
Joined: Sat Dec 27, 2014 2:48 pm

Re: Speed Test Results from Various Mac Computers (Retina 5k iMac)

Post by 5K4Me » Mon Dec 29, 2014 4:08 pm

In response to Rich364's post I thought I would post what I have seen with the new iMac with the 5k Retina display.

I selected 6 different BluRay MKV files last night, ranging in size from 28 to 33 GB. All were 1080p sources and used the "Normal" setting (since I really haven't discerned a huge difference from one setting to another, but let me know if you would like to see a different setting). MKVs were read from the local SSD and M4Vs were written back to the same local SSD.

One thing to note is that I have the 4.0 GHz processor and it runs REALLY hot... The temperature from iStat Menus is always in the 93+ degrees Celsius range and occasionally core 3 reports crossing into triple digits while the fan is at max. All eight threads show pretty much maximum and activity monitor during Handbrake encoding is often as high as 790%.

I noticed a 10-ish% performance improvement in fps when I disabled a second 2k display during encoding. I did not notice a significant performance improvement when I reduced the 5K display resolution to 1080p during encoding.

Machine Type: iMac 15,1
CPU Speed: 4.0 GHz
Number of CPUs: Quad
Rip Format (MP4, AVI etc): MP4
Video Size & settings: 1080 "normal setting"
Quality / Bit Rate: "normal" setting
1 or 2 Pass: 1
Min/Max or Average Frames Per Second (FPS): 81.82, 77.31, 80.24, 83.89, and 100.34 (queue of 6 movies)

Dunno if this is helpful or not. Hopefully it is.

Post Reply