Intel(R) Core(TM) i7-4770K CPU x264 vs. qsv_h264

Post your testing results with HandBrake.
Post Reply
AlBundy
Bright Spark User
Posts: 368
Joined: Mon Dec 31, 2012 4:47 am

Intel(R) Core(TM) i7-4770K CPU x264 vs. qsv_h264

Post by AlBundy » Thu May 01, 2014 1:21 am

Testfile: http://www.bigbuckbunny.org/index.php/download/ (Full-HD MP4)

encoding with x264
info

Code: Select all

hb.rb Copyright (C) 2014 AlBundy
This program comes with ABSOLUTELY NO WARRANTY; for details see LICENSE.txt.
This is free software, and you are welcome to redistribute it under certain conditions.

For questions, feature-requests etc. visit: https://forum.handbrake.fr/viewtopic.php?f=10&t=26163

[2014-05-01, 03:06:01]  WARN -- hb.rb: checking D:/benchmark/big_buck_bunny_1080p_surround.avi (title=, title_alt=, name=big_buck_bunny_1080p_surround)
[2014-05-01, 03:06:01]  WARN -- hb.rb: input: D:/benchmark/big_buck_bunny_1080p_surround.avi (title=, title_alt=, name=big_buck_bunny_1080p_surround)
[2014-05-01, 03:06:01]  WARN -- hb.rb:   title 1 (main-feature) 00:09:56 1920x1080 (blocks: -1)
[2014-05-01, 03:06:01]  WARN -- hb.rb:   audio-tracks
[2014-05-01, 03:06:01]  WARN -- hb.rb:     - track 1: [und] Unknown (AC3) (5.1 ch)
[2014-05-01, 03:06:01]  WARN -- hb.rb: output: D:/benchmark/test_x264.mkv
[2014-05-01, 03:06:01]  WARN -- hb.rb:   audio-tracks
[2014-05-01, 03:06:01]  WARN -- hb.rb:     - track 1: Unknown (AC3) (5.1 ch) - original
[2014-05-01, 03:06:01]  WARN -- hb.rb: "E:/DVD-Rips/hb/tools/handbrake/windows/HandBrakeCLI" --input "D:/benchmark/big_buck_bunny_1080p_surround.avi" --output "D:/benchmark/test_x264.mkv" --
encoder x264 --quality 20.0 --decomb --detelecine --crop 0:0:0:0 --loose-anamorphic --format mkv --markers --title 1 --audio 1 --aencoder copy --mixdown auto --ab auto --drc 0.0 --aname "Unk
nown (AC3) (5.1 ch)" --audio-fallback lame  2>"D:/benchmark/test_x264.mkv_encode.log"
Muxing: this may take awhile... (53.14 fps, avg 35.23 fps, ETA 00h00m00s)
[2014-05-01, 03:12:49]  WARN -- hb.rb: created file D:/benchmark/test_x264.mkv (392.87 MB)
[2014-05-01, 03:12:51]  WARN -- hb.rb: == done (required time: 00:06:49) =================================
[2014-05-01, 03:12:51]  WARN -- hb.rb: overview
[2014-05-01, 03:12:51]  WARN -- hb.rb: input: D:/benchmark/big_buck_bunny_1080p_surround.avi
[2014-05-01, 03:12:51]  WARN -- hb.rb:   D:/benchmark/test_x264.mkv (392.87 MB)
[2014-05-01, 03:12:51]  WARN -- hb.rb:     title 1 00:09:56, 1920x1072, 24.000fps
[2014-05-01, 03:12:51]  WARN -- hb.rb:       audio-tracks:
[2014-05-01, 03:12:51]  WARN -- hb.rb:         track 1. Unknown (AC3) (5.1 ch) (und)
encode-log

Code: Select all

[03:06:01] hb_init: starting libhb thread
HandBrake svn6170 (2014042501) - MinGW x86_64 - http://handbrake.fr
8 CPUs detected
Opening D:/benchmark/big_buck_bunny_1080p_surround.avi...
[03:06:01] CPU: Intel(R) Core(TM) i7-4770K CPU @ 3.50GHz
[03:06:01]  - Intel microarchitecture Haswell
[03:06:01]  - logical processor count: 8
[03:06:01] OpenCL device #1: Advanced Micro Devices, Inc. Tahiti
[03:06:01]  - OpenCL version: 1.2 AMD-APP (1311.2)
[03:06:01]  - driver version: 1311.2 (VM)
[03:06:01]  - device type:    GPU
[03:06:01]  - supported:      YES
[03:06:01] OpenCL device #2: Intel(R) Corporation Intel(R) HD Graphics 4600
[03:06:01]  - OpenCL version: 1.2 
[03:06:01]  - driver version: 10.18.10.3277
[03:06:01]  - device type:    GPU
[03:06:01]  - supported:      YES
[03:06:01] Intel Quick Sync Video support: yes
[03:06:01]  - Intel Media SDK hardware: API 1.7 (minimum: 1.3)
[03:06:01]  - H.264 encoder: yes
[03:06:01]     - preferred implementation: hardware (any)
[03:06:01]  - H.265 encoder: no
[03:06:01] hb_scan: path=D:/benchmark/big_buck_bunny_1080p_surround.avi, title_index=1
libbluray/bdnav/index_parse.c:162: indx_parse(): error opening D:/benchmark/big_buck_bunny_1080p_surround.avi/BDMV/index.bdmv
libbluray/bdnav/index_parse.c:162: indx_parse(): error opening D:/benchmark/big_buck_bunny_1080p_surround.avi/BDMV/BACKUP/index.bdmv
libbluray/bluray.c:2182: nav_get_title_list(D:/benchmark/big_buck_bunny_1080p_surround.avi) failed
[03:06:01] bd: not a bd - trying as a stream/file instead
libdvdnav: Using dvdnav version 5.0.0
libdvdread: Encrypted DVD support unavailable.
libdvdread:DVDOpenFileUDF:UDFFindFile /VIDEO_TS/VIDEO_TS.IFO failed
libdvdread:DVDOpenFileUDF:UDFFindFile /VIDEO_TS/VIDEO_TS.BUP failed
libdvdread: Can't open file VIDEO_TS.IFO.
libdvdnav: vm: failed to read VIDEO_TS.IFO
[03:06:01] dvd: not a dvd - trying as a stream/file instead
Input #0, avi, from 'D:/benchmark/big_buck_bunny_1080p_surround.avi':
  Metadata:
    encoder         : AVI-Mux GUI 1.17.7, Aug  8 2006  20:59:17
    JUNK            : 
  Duration: 00:09:56.45, start: 0.000000, bitrate: 12455 kb/s
    Stream #0.0: Video: mpeg4 (Simple Profile), yuv420p, 1920x1080 [PAR 1:1 DAR 16:9], 24 tbn, 24 tbc
    Stream #0.1: Audio: ac3, 48000 Hz, 5.1, fltp, 448 kb/s
[03:06:01] dxva2:DxFindVideoServiceConversion failed
[03:06:01] scan: decoding previews for title 1
[03:06:01] scan: audio 0x1: ac3, rate=48000Hz, bitrate=448000 Unknown (AC3) (5.1 ch)
[03:06:02] scan: 10 previews, 1920x1080, 24.000 fps, autocrop = 0/0/0/0, aspect 16:9, PAR 1:1
[03:06:02] libhb: scan thread found 1 valid title(s)
+ title 1:
  + stream: D:/benchmark/big_buck_bunny_1080p_surround.avi
  + duration: 00:09:56
  + size: 1920x1080, pixel aspect: 1/1, display aspect: 1.78, 24.000 fps
  + autocrop: 0/0/0/0
  + support opencl: yes
  + support hwd: no
  + chapters:
    + 1: cells 0->0, 0 blocks, duration 00:09:56
  + audio tracks:
    + 1, Unknown (AC3) (5.1 ch) (iso639-2: und), 48000Hz, 448000bps
  + subtitle tracks:
[03:06:02] 1 job(s) to process
[03:06:02] starting job
[03:06:02] yadif thread started for segment 0
[03:06:02] yadif thread started for segment 1
[03:06:02] yadif thread started for segment 2
[03:06:02] yadif thread started for segment 3
[03:06:02] yadif thread started for segment 4
[03:06:02] yadif thread started for segment 5
[03:06:02] yadif thread started for segment 6
[03:06:02] yadif thread started for segment 7
[03:06:02] decomb filter thread started for segment 0
[03:06:02] decomb filter thread started for segment 1
[03:06:02] decomb filter thread started for segment 2
[03:06:02] decomb filter thread started for segment 3
[03:06:02] decomb filter thread started for segment 4
[03:06:02] decomb filter thread started for segment 5
[03:06:02] decomb filter thread started for segment 6
[03:06:02] decomb filter thread started for segment 7
[03:06:02] decomb check thread started for segment 0
[03:06:02] decomb check thread started for segment 1
[03:06:02] decomb check thread started for segment 2
[03:06:02] decomb check thread started for segment 3
[03:06:02] decomb check thread started for segment 4
[03:06:02] decomb check thread started for segment 5
[03:06:02] decomb check thread started for segment 6
[03:06:02] decomb check thread started for segment 7
[03:06:02] mask filter thread started for segment 0
[03:06:02] mask filter thread started for segment 1
[03:06:02] mask filter thread started for segment 2
[03:06:02] mask filter thread started for segment 3
[03:06:02] mask filter thread started for segment 4
[03:06:02] mask filter thread started for segment 5
[03:06:02] mask filter thread started for segment 6
[03:06:02] mask filter thread started for segment 7
[03:06:02] mask erode thread started for segment 0
[03:06:02] mask erode thread started for segment 1
[03:06:02] mask erode thread started for segment 2
[03:06:02] mask erode thread started for segment 3
[03:06:02] mask erode thread started for segment 4
[03:06:02] mask erode thread started for segment 5
[03:06:02] mask erode thread started for segment 6
[03:06:02] mask erode thread started for segment 7
[03:06:02] mask dilate thread started for segment 0
[03:06:02] mask dilate thread started for segment 1
[03:06:02] mask dilate thread started for segment 2
[03:06:02] mask dilate thread started for segment 3
[03:06:02] mask dilate thread started for segment 4
[03:06:02] mask dilate thread started for segment 5
[03:06:02] mask dilate thread started for segment 6
[03:06:02] mask dilate thread started for segment 7
[03:06:02] Auto Passthru: allowed codecs are AAC, AC3, DTS, DTS-HD, MP3
[03:06:02] Auto Passthru: fallback is MP3
[03:06:02] Auto Passthru: using AC3 Passthru for track 1
[03:06:02] sync: expecting 14314 video frames
[03:06:02] work: only 1 chapter, disabling chapter markers
[03:06:02] job configuration:
[03:06:02]  * source
[03:06:02]    + D:/benchmark/big_buck_bunny_1080p_surround.avi
[03:06:02]    + title 1, chapter(s) 1 to 1
[03:06:02]    + container: avi
[03:06:02]    + data rate: 12455 kbps
[03:06:02]  * destination
[03:06:02]    + D:/benchmark/test_x264.mkv
[03:06:02]    + container: Matroska (libavformat)
[03:06:02]  * video track
[03:06:02]    + decoder: mpeg4
[03:06:02]    + filters
[03:06:02]      + Detelecine (pullup) (default settings)
[03:06:02]      + Decomb (default settings)
[03:06:02]      + Framerate Shaper (0:27000000:1125000)
[03:06:02]        + frame rate: same as source (around 24.000 fps)
[03:06:02]      + Crop and Scale (1920:1072:0:0:0:0)
[03:06:02]        + source: 1920 * 1080, crop (0/0/0/0): 1920 * 1080, scale: 1920 * 1072
[03:06:02]    + loose anamorphic
[03:06:02]      + storage dimensions: 1920 * 1072, mod 0
[03:06:02]      + pixel aspect ratio: 134 / 135
[03:06:02]      + display dimensions: 1905 * 1072
[03:06:02]    + encoder: H.264 (libx264)
[03:06:02]      + quality: 20.00 (RF)
[03:06:02]  * audio track 1
[03:06:02]    + name: Unknown (AC3) (5.1 ch)
[03:06:02]    + decoder: Unknown (AC3) (5.1 ch) (track 1, id 0x1)
[03:06:02]      + bitrate: 448 kbps, samplerate: 48000 Hz
[03:06:02]    + AC3 Passthru
[03:06:02] reader: first SCR 0 id 0x1 DTS 0
[03:06:02] encx264: min-keyint: 24, keyint: 240
[03:06:02] encx264: encoding at constant RF 20.000000
x264 [info]: using SAR=134/135
x264 [info]: using cpu capabilities: MMX2 SSE2Fast SSSE3 SSE4.2 AVX AVX2 FMA3 LZCNT BMI2
x264 [info]: profile High, level 4.0
[03:12:47] reader: done. 1 scr changes
[03:12:48] work: average encoding speed for job is 35.232891 fps
[03:12:49] sync: got 14315 frames, 14314 expected
[03:12:49] decomb: deinterlaced 431 | blended 425 | unfiltered 13456 | total 14312
[03:12:49] render: lost time: 7500 (0 frames)
[03:12:49] render: gained time: 7500 (8 frames) (0 not accounted for)
[03:12:49] mpeg4-decoder done: 14315 frames, 0 decoder errors, 0 drops
x264 [info]: frame I:156   Avg QP:13.74  size:251686
x264 [info]: frame P:6594  Avg QP:18.07  size: 42212
x264 [info]: frame B:7562  Avg QP:22.49  size:  8028
x264 [info]: consecutive B-frames: 24.4% 12.1% 10.1% 53.4%
x264 [info]: mb I  I16..4: 16.4% 66.7% 17.0%
x264 [info]: mb P  I16..4:  1.7%  6.9%  0.6%  P16..4: 30.5% 12.8%  8.2%  0.0%  0.0%    skip:39.3%
x264 [info]: mb B  I16..4:  0.2%  0.8%  0.1%  B16..8: 25.3%  2.4%  0.5%  direct: 1.7%  skip:68.9%  L0:40.4% L1:51.1% BI: 8.5%
x264 [info]: 8x8 transform intra:73.2% inter:69.8%
x264 [info]: coded y,uvDC,uvAC intra: 57.0% 61.3% 33.1% inter: 14.7% 15.6% 2.7%
x264 [info]: i16 v,h,dc,p: 34% 25%  9% 32%
x264 [info]: i8 v,h,dc,ddl,ddr,vr,hd,vl,hu: 27% 16% 23%  4%  5%  9%  6%  6%  5%
x264 [info]: i4 v,h,dc,ddl,ddr,vr,hd,vl,hu: 27% 16% 12%  5%  9% 10%  8%  7%  5%
x264 [info]: i8c dc,h,v,p: 51% 19% 21%  9%
x264 [info]: Weighted P-Frames: Y:4.0% UV:2.6%
x264 [info]: ref P L0: 69.9% 14.4% 12.3%  3.4%  0.1%
x264 [info]: ref B L0: 86.7% 12.0%  1.3%
x264 [info]: ref B L1: 95.5%  4.5%
x264 [info]: kb/s:5074.51
[03:12:49] ac3-decoder done: 0 frames, 0 decoder errors, 0 drops
[03:12:49] mux: track 0, 14312 frames, 378307736 bytes, 5074.05 kbps, fifo 1024
[03:12:49] mux: track 1, 18640 frames, 33402880 bytes, 448.02 kbps, fifo 2048
[03:12:49] libhb: work result = 0

Encode done!
HandBrake has exited.




encoding with qsv_h264
info

Code: Select all

hb.rb Copyright (C) 2014 AlBundy
This program comes with ABSOLUTELY NO WARRANTY; for details see LICENSE.txt.
This is free software, and you are welcome to redistribute it under certain conditions.

For questions, feature-requests etc. visit: https://forum.handbrake.fr/viewtopic.php?f=10&t=26163

[2014-05-01, 03:12:53]  WARN -- hb.rb: checking D:/benchmark/big_buck_bunny_1080p_surround.avi (title=, title_alt=, name=big_buck_bunny_1080p_surround)
[2014-05-01, 03:12:53]  WARN -- hb.rb: input: D:/benchmark/big_buck_bunny_1080p_surround.avi (title=, title_alt=, name=big_buck_bunny_1080p_surround)
[2014-05-01, 03:12:53]  WARN -- hb.rb:   title 1 (main-feature) 00:09:56 1920x1080 (blocks: -1)
[2014-05-01, 03:12:53]  WARN -- hb.rb:   audio-tracks
[2014-05-01, 03:12:53]  WARN -- hb.rb:     - track 1: [und] Unknown (AC3) (5.1 ch)
[2014-05-01, 03:12:53]  WARN -- hb.rb: output: D:/benchmark/test_qsv_h264.mkv
[2014-05-01, 03:12:53]  WARN -- hb.rb:   audio-tracks
[2014-05-01, 03:12:53]  WARN -- hb.rb:     - track 1: Unknown (AC3) (5.1 ch) - original
[2014-05-01, 03:12:53]  WARN -- hb.rb: "E:/DVD-Rips/hb/tools/handbrake/windows/HandBrakeCLI" --input "D:/benchmark/big_buck_bunny_1080p_surround.avi" --output "D:/benchmark/test_qsv_h264.mkv
" --encoder qsv_h264 --quality 20.0 --decomb --detelecine --crop 0:0:0:0 --loose-anamorphic --format mkv --markers --title 1 --audio 1 --aencoder copy --mixdown auto --ab auto --drc 0.0 --an
ame "Unknown (AC3) (5.1 ch)" --audio-fallback lame  2>"D:/benchmark/test_qsv_h264.mkv_encode.log"
Encoding: task 1 of 1, 100.00 % (86.76 fps, avg 81.70 fps, ETA 00h00m00s)
[2014-05-01, 03:15:50]  WARN -- hb.rb: created file D:/benchmark/test_qsv_h264.mkv (440.52 MB)
[2014-05-01, 03:15:51]  WARN -- hb.rb: == done (required time: 00:02:57) =================================
[2014-05-01, 03:15:51]  WARN -- hb.rb: overview
[2014-05-01, 03:15:51]  WARN -- hb.rb: input: D:/benchmark/big_buck_bunny_1080p_surround.avi
[2014-05-01, 03:15:51]  WARN -- hb.rb:   D:/benchmark/test_qsv_h264.mkv (440.52 MB)
[2014-05-01, 03:15:51]  WARN -- hb.rb:     title 1 00:09:56, 1920x1072, 24.000fps
[2014-05-01, 03:15:51]  WARN -- hb.rb:       audio-tracks:
[2014-05-01, 03:15:51]  WARN -- hb.rb:         track 1. Unknown (AC3) (5.1 ch) (und)
encode-log

Code: Select all

[03:12:53] hb_init: starting libhb thread
HandBrake svn6170 (2014042501) - MinGW x86_64 - http://handbrake.fr
8 CPUs detected
Opening D:/benchmark/big_buck_bunny_1080p_surround.avi...
[03:12:53] CPU: Intel(R) Core(TM) i7-4770K CPU @ 3.50GHz
[03:12:53]  - Intel microarchitecture Haswell
[03:12:53]  - logical processor count: 8
[03:12:53] OpenCL device #1: Advanced Micro Devices, Inc. Tahiti
[03:12:53]  - OpenCL version: 1.2 AMD-APP (1311.2)
[03:12:53]  - driver version: 1311.2 (VM)
[03:12:53]  - device type:    GPU
[03:12:53]  - supported:      YES
[03:12:53] OpenCL device #2: Intel(R) Corporation Intel(R) HD Graphics 4600
[03:12:53]  - OpenCL version: 1.2 
[03:12:53]  - driver version: 10.18.10.3277
[03:12:53]  - device type:    GPU
[03:12:53]  - supported:      YES
[03:12:53] Intel Quick Sync Video support: yes
[03:12:53]  - Intel Media SDK hardware: API 1.7 (minimum: 1.3)
[03:12:53]  - H.264 encoder: yes
[03:12:53]     - preferred implementation: hardware (any)
[03:12:53]  - H.265 encoder: no
[03:12:53] hb_scan: path=D:/benchmark/big_buck_bunny_1080p_surround.avi, title_index=1
libbluray/bdnav/index_parse.c:162: indx_parse(): error opening D:/benchmark/big_buck_bunny_1080p_surround.avi/BDMV/index.bdmv
libbluray/bdnav/index_parse.c:162: indx_parse(): error opening D:/benchmark/big_buck_bunny_1080p_surround.avi/BDMV/BACKUP/index.bdmv
libbluray/bluray.c:2182: nav_get_title_list(D:/benchmark/big_buck_bunny_1080p_surround.avi) failed
[03:12:53] bd: not a bd - trying as a stream/file instead
libdvdnav: Using dvdnav version 5.0.0
libdvdread: Encrypted DVD support unavailable.
libdvdread:DVDOpenFileUDF:UDFFindFile /VIDEO_TS/VIDEO_TS.IFO failed
libdvdread:DVDOpenFileUDF:UDFFindFile /VIDEO_TS/VIDEO_TS.BUP failed
libdvdread: Can't open file VIDEO_TS.IFO.
libdvdnav: vm: failed to read VIDEO_TS.IFO
[03:12:53] dvd: not a dvd - trying as a stream/file instead
Input #0, avi, from 'D:/benchmark/big_buck_bunny_1080p_surround.avi':
  Metadata:
    encoder         : AVI-Mux GUI 1.17.7, Aug  8 2006  20:59:17
    JUNK            : 
  Duration: 00:09:56.45, start: 0.000000, bitrate: 12455 kb/s
    Stream #0.0: Video: mpeg4 (Simple Profile), yuv420p, 1920x1080 [PAR 1:1 DAR 16:9], 24 tbn, 24 tbc
    Stream #0.1: Audio: ac3, 48000 Hz, 5.1, fltp, 448 kb/s
[03:12:53] dxva2:DxFindVideoServiceConversion failed
[03:12:53] scan: decoding previews for title 1
[03:12:53] scan: audio 0x1: ac3, rate=48000Hz, bitrate=448000 Unknown (AC3) (5.1 ch)
[03:12:54] scan: 10 previews, 1920x1080, 24.000 fps, autocrop = 0/0/0/0, aspect 16:9, PAR 1:1
[03:12:54] libhb: scan thread found 1 valid title(s)
+ title 1:
  + stream: D:/benchmark/big_buck_bunny_1080p_surround.avi
  + duration: 00:09:56
  + size: 1920x1080, pixel aspect: 1/1, display aspect: 1.78, 24.000 fps
  + autocrop: 0/0/0/0
  + support opencl: yes
  + support hwd: no
  + chapters:
    + 1: cells 0->0, 0 blocks, duration 00:09:56
  + audio tracks:
    + 1, Unknown (AC3) (5.1 ch) (iso639-2: und), 48000Hz, 448000bps
  + subtitle tracks:
[03:12:54] 1 job(s) to process
[03:12:54] starting job
[03:12:54] yadif thread started for segment 0
[03:12:54] yadif thread started for segment 1
[03:12:54] yadif thread started for segment 2
[03:12:54] yadif thread started for segment 3
[03:12:54] yadif thread started for segment 4
[03:12:54] yadif thread started for segment 5
[03:12:54] yadif thread started for segment 6
[03:12:54] yadif thread started for segment 7
[03:12:54] decomb filter thread started for segment 1
[03:12:54] decomb filter thread started for segment 0
[03:12:54] decomb filter thread started for segment 2
[03:12:54] decomb filter thread started for segment 3
[03:12:54] decomb filter thread started for segment 4
[03:12:54] decomb filter thread started for segment 5
[03:12:54] decomb filter thread started for segment 6
[03:12:54] decomb filter thread started for segment 7
[03:12:54] decomb check thread started for segment 0
[03:12:54] decomb check thread started for segment 1
[03:12:54] decomb check thread started for segment 2
[03:12:54] decomb check thread started for segment 3
[03:12:54] decomb check thread started for segment 4
[03:12:54] decomb check thread started for segment 5
[03:12:54] decomb check thread started for segment 6
[03:12:54] decomb check thread started for segment 7
[03:12:54] mask filter thread started for segment 0
[03:12:54] mask filter thread started for segment 1
[03:12:54] mask filter thread started for segment 2
[03:12:54] mask filter thread started for segment 3
[03:12:54] mask filter thread started for segment 4
[03:12:54] mask filter thread started for segment 5
[03:12:54] mask filter thread started for segment 6
[03:12:54] mask filter thread started for segment 7
[03:12:54] mask erode thread started for segment 0
[03:12:54] mask erode thread started for segment 1
[03:12:54] mask erode thread started for segment 2
[03:12:54] mask erode thread started for segment 3
[03:12:54] mask erode thread started for segment 4
[03:12:54] mask erode thread started for segment 5
[03:12:54] mask dilate thread started for segment 0
[03:12:54] mask erode thread started for segment 7
[03:12:54] mask erode thread started for segment 6
[03:12:54] mask dilate thread started for segment 1
[03:12:54] mask dilate thread started for segment 2
[03:12:54] mask dilate thread started for segment 3
[03:12:54] mask dilate thread started for segment 4
[03:12:54] mask dilate thread started for segment 5
[03:12:54] mask dilate thread started for segment 6
[03:12:54] mask dilate thread started for segment 7
[03:12:54] Auto Passthru: allowed codecs are AAC, AC3, DTS, DTS-HD, MP3
[03:12:54] Auto Passthru: fallback is MP3
[03:12:54] Auto Passthru: using AC3 Passthru for track 1
[03:12:54] sync: expecting 14314 video frames
[03:12:54] work: only 1 chapter, disabling chapter markers
[03:12:54] job configuration:
[03:12:54]  * source
[03:12:54]    + D:/benchmark/big_buck_bunny_1080p_surround.avi
[03:12:54]    + title 1, chapter(s) 1 to 1
[03:12:54]    + container: avi
[03:12:54]    + data rate: 12455 kbps
[03:12:54]  * destination
[03:12:54]    + D:/benchmark/test_qsv_h264.mkv
[03:12:54]    + container: Matroska (libavformat)
[03:12:54]  * video track
[03:12:54]    + decoder: mpeg4
[03:12:54]    + filters
[03:12:54]      + Detelecine (pullup) (default settings)
[03:12:54]      + Decomb (default settings)
[03:12:54]      + Framerate Shaper (0:27000000:1125000)
[03:12:54]        + frame rate: same as source (around 24.000 fps)
[03:12:54]      + Crop and Scale (1920:1072:0:0:0:0)
[03:12:54]        + source: 1920 * 1080, crop (0/0/0/0): 1920 * 1080, scale: 1920 * 1072
[03:12:54]    + loose anamorphic
[03:12:54]      + storage dimensions: 1920 * 1072, mod 0
[03:12:54]      + pixel aspect ratio: 134 / 135
[03:12:54]      + display dimensions: 1905 * 1072
[03:12:54]    + encoder: H.264 (Intel Media SDK)
[03:12:54]      + quality: 20.00 (QP)
[03:12:54]  * audio track 1
[03:12:54]    + name: Unknown (AC3) (5.1 ch)
[03:12:54]    + decoder: Unknown (AC3) (5.1 ch) (track 1, id 0x1)
[03:12:54]      + bitrate: 448 kbps, samplerate: 48000 Hz
[03:12:54]    + AC3 Passthru
[03:12:54] reader: first SCR 0 id 0x1 DTS 0
[03:12:54] encqsvInit: using encode-only path
[03:12:54] encqsvInit: TargetUsage 2 AsyncDepth 4
[03:12:54] encqsvInit: GopRefDist 4 GopPicSize 32 NumRefFrame 3
[03:12:54] encqsvInit: BFrames on BPyramid on
[03:12:54] encqsvInit: RateControlMethod CQP with QPI 20 QPP 22 QPB 24
[03:12:54] encqsvInit: CAVLC off
[03:12:54] encqsvInit: Trellis off
[03:12:54] encqsvInit: H.264 profile High @ level 4.0
[03:12:54] qsv_enc_init: using 'hardware (3)' implementation, API: 1.7
[03:15:48] reader: done. 1 scr changes
[03:15:49] work: average encoding speed for job is 81.704803 fps
[03:15:49] sync: got 14315 frames, 14314 expected
[03:15:49] decomb: deinterlaced 431 | blended 425 | unfiltered 13456 | total 14312
[03:15:49] render: lost time: 7500 (0 frames)
[03:15:49] render: gained time: 7500 (8 frames) (0 not accounted for)
[03:15:49] mpeg4-decoder done: 14315 frames, 0 decoder errors, 0 drops
[03:15:49] ac3-decoder done: 0 frames, 0 decoder errors, 0 drops
[03:15:49] mux: track 0, 14312 frames, 428257552 bytes, 5744.01 kbps, fifo 1024
[03:15:49] mux: track 1, 18640 frames, 33402880 bytes, 448.02 kbps, fifo 1024
[03:15:49] libhb: work result = 0

Encode done!
HandBrake has exited.


AlBundy
Bright Spark User
Posts: 368
Joined: Mon Dec 31, 2012 4:47 am

Re: Intel(R) Core(TM) i7-4770K CPU x264 vs. qsv_h264

Post by AlBundy » Sun Jul 27, 2014 8:04 pm

encoding with x264 (preset veryfast)

Code: Select all

hb.rb Copyright (C) 2014 AlBundy
This program comes with ABSOLUTELY NO WARRANTY; for details see LICENSE.txt.
This is free software, and you are welcome to redistribute it under certain conditions.

For questions, feature-requests etc. visit: https://forum.handbrake.fr/viewtopic.php?f=10&t=26163

[2014-07-27, 21:55:25]  WARN -- hb.rb: processing D:/benchmark/big_buck_bunny_1080p_surround.avi (title=, title_alt=, name=big_buck_bunny_1080p_surround, size=885.65 MB)
[2014-07-27, 21:55:25]  INFO -- hb.rb: checking title 01: 00:09:56, 1920x1080, 24.000 fps, main-feature: true, blocks: -1, chapters: 1, audio-tracks: und, subtitles: 
[2014-07-27, 21:55:25]  INFO -- hb.rb: converting title 01: 00:09:56, 1920x1080, 24.000 fps, main-feature: true, blocks: -1, chapters: 1, audio-tracks: und, subtitles: 
[2014-07-27, 21:55:25]  INFO -- hb.rb: checking audio-track 1. Unknown (AC3) (5.1 ch) (codec=AC3, channels=5.1 ch, lang=und, comment=, rate=48000Hz, bitrate=448000bps, commentary=false)
[2014-07-27, 21:55:25]  INFO -- hb.rb: adding audio-track: 1. Unknown (AC3) (5.1 ch) (codec=AC3, channels=5.1 ch, lang=und, comment=, rate=48000Hz, bitrate=448000bps, commentary=false)
[2014-07-27, 21:55:25]  WARN -- hb.rb: input: D:/benchmark/big_buck_bunny_1080p_surround.avi (title=, title_alt=, name=big_buck_bunny_1080p_surround, size=885.65 MB)
[2014-07-27, 21:55:25]  WARN -- hb.rb:   title 1 (main-feature) 00:09:56 1920x1080 (blocks: -1)
[2014-07-27, 21:55:25]  WARN -- hb.rb:   audio-tracks
[2014-07-27, 21:55:25]  WARN -- hb.rb:     - track 1: [und] Unknown (AC3) (5.1 ch)
[2014-07-27, 21:55:25]  WARN -- hb.rb: output: D:/benchmark/big_buck_bunny_1080p_surround_x264_veryfast.mkv
[2014-07-27, 21:55:25]  WARN -- hb.rb:   audio-tracks
[2014-07-27, 21:55:25]  WARN -- hb.rb:     - track 1: Unknown (AC3) (5.1 ch) - Auto Passthru
[2014-07-27, 21:55:25]  WARN -- hb.rb: "E:/DVD-Rips/hb/tools/handbrake/windows/HandBrakeCLI" --input "D:/benchmark/big_buck_bunny_1080p_surround.avi" --output "D:/benchmark/big_buck_bunny_1080p_surround_x264_veryfast.mkv" --verbose --encoder x264 --quality 20.0 --decomb --detelecine --crop 0:0:0:0 --loose-anamorphic --x264-preset veryfast --format mkv --markers --title 1 --audio 1 --aencoder copy --mixdown auto --ab auto --drc 0.0 --aname "Unknown (AC3) (5.1 ch)" --audio-fallback lame  1>NUL
[21:55:25] hb_init: starting libhb thread
HandBrake svn6239 (2014072201) - MinGW x86_64 - http://handbrake.fr
8 CPUs detected
Opening D:/benchmark/big_buck_bunny_1080p_surround.avi...
[21:55:25] CPU: Intel(R) Core(TM) i7-4770K CPU @ 3.50GHz
[21:55:25]  - Intel microarchitecture Haswell
[21:55:25]  - logical processor count: 8
[21:55:25] OpenCL device #1: Advanced Micro Devices, Inc. Tahiti
[21:55:25]  - OpenCL version: 1.2 AMD-APP (1526.3)
[21:55:25]  - driver version: 1526.3 (VM)
[21:55:25]  - device type:    GPU
[21:55:25]  - supported:      YES
[21:55:25] OpenCL device #2: Intel(R) Corporation Intel(R) HD Graphics 4600
[21:55:25]  - OpenCL version: 1.2 
[21:55:25]  - driver version: 10.18.10.3277
[21:55:25]  - device type:    GPU
[21:55:25]  - supported:      YES
[21:55:25] Intel Quick Sync Video support: yes
[21:55:25]  - Intel Media SDK hardware: API 1.7 (minimum: 1.3)
[21:55:25]  - H.264 encoder: yes
[21:55:25]     - preferred implementation: hardware (any)
[21:55:25]  - H.265 encoder: no
[21:55:25] hb_scan: path=D:/benchmark/big_buck_bunny_1080p_surround.avi, title_index=1
libbluray/bdnav/index_parse.c:162: indx_parse(): error opening D:/benchmark/big_buck_bunny_1080p_surround.avi/BDMV/index.bdmv
libbluray/bdnav/index_parse.c:162: indx_parse(): error opening D:/benchmark/big_buck_bunny_1080p_surround.avi/BDMV/BACKUP/index.bdmv
libbluray/bluray.c:2182: nav_get_title_list(D:/benchmark/big_buck_bunny_1080p_surround.avi) failed
[21:55:25] bd: not a bd - trying as a stream/file instead
libdvdnav: Using dvdnav version 5.0.0
libdvdread:DVDOpenFileUDF:UDFFindFile /VIDEO_TS/VIDEO_TS.IFO failed
libdvdread:DVDOpenFileUDF:UDFFindFile /VIDEO_TS/VIDEO_TS.BUP failed
libdvdread: Can't open file VIDEO_TS.IFO.
libdvdnav: vm: failed to read VIDEO_TS.IFO
[21:55:25] dvd: not a dvd - trying as a stream/file instead
Input #0, avi, from 'D:/benchmark/big_buck_bunny_1080p_surround.avi':
  Metadata:
    encoder         : AVI-Mux GUI 1.17.7, Aug  8 2006  20:59:17
    JUNK            : 
  Duration: 00:09:56.45, start: 0.000000, bitrate: 12455 kb/s
    Stream #0.0: Video: mpeg4 (Simple Profile), yuv420p, 1920x1080 [PAR 1:1 DAR 16:9], 24 tbn, 24 tbc
    Stream #0.1: Audio: ac3, 48000 Hz, 5.1, fltp, 448 kb/s
[21:55:25] dxva2:DxFindVideoServiceConversion failed
[21:55:25] scan: decoding previews for title 1
[21:55:25] scan: audio 0x1: ac3, rate=48000Hz, bitrate=448000 Unknown (AC3) (5.1 ch)
[21:55:25] scan: 10 previews, 1920x1080, 24.000 fps, autocrop = 0/0/0/0, aspect 16:9, PAR 1:1
[21:55:25] libhb: scan thread found 1 valid title(s)
+ title 1:
  + stream: D:/benchmark/big_buck_bunny_1080p_surround.avi
  + duration: 00:09:56
  + size: 1920x1080, pixel aspect: 1/1, display aspect: 1.78, 24.000 fps
  + autocrop: 0/0/0/0
  + support opencl: yes
  + support hwd: no
  + chapters:
    + 1: cells 0->0, 0 blocks, duration 00:09:56
  + audio tracks:
    + 1, Unknown (AC3) (5.1 ch) (iso639-2: und), 48000Hz, 448000bps
  + subtitle tracks:
[21:55:25] 1 job(s) to process
[21:55:25] starting job
[21:55:25] yadif thread started for segment 0
[21:55:25] yadif thread started for segment 1
[21:55:25] yadif thread started for segment 2
[21:55:25] yadif thread started for segment 3
[21:55:25] yadif thread started for segment 4
[21:55:25] yadif thread started for segment 5
[21:55:25] yadif thread started for segment 6
[21:55:25] yadif thread started for segment 7
[21:55:25] decomb filter thread started for segment 0
[21:55:25] decomb filter thread started for segment 1
[21:55:25] decomb filter thread started for segment 2
[21:55:25] decomb filter thread started for segment 3
[21:55:25] decomb filter thread started for segment 4
[21:55:25] decomb filter thread started for segment 5
[21:55:25] decomb filter thread started for segment 6
[21:55:25] decomb filter thread started for segment 7
[21:55:25] decomb check thread started for segment 0
[21:55:25] decomb check thread started for segment 1
[21:55:25] decomb check thread started for segment 2
[21:55:25] decomb check thread started for segment 3
[21:55:25] decomb check thread started for segment 4
[21:55:25] decomb check thread started for segment 5
[21:55:25] decomb check thread started for segment 6
[21:55:25] decomb check thread started for segment 7
[21:55:25] mask filter thread started for segment 2
[21:55:25] mask filter thread started for segment 1
[21:55:25] mask filter thread started for segment 0
[21:55:25] mask filter thread started for segment 3
[21:55:25] mask filter thread started for segment 4
[21:55:25] mask filter thread started for segment 5
[21:55:25] mask filter thread started for segment 6
[21:55:25] mask filter thread started for segment 7
[21:55:25] mask erode thread started for segment 0
[21:55:25] mask erode thread started for segment 1
[21:55:25] mask erode thread started for segment 2
[21:55:25] mask erode thread started for segment 3
[21:55:25] mask erode thread started for segment 4
[21:55:25] mask erode thread started for segment 5
[21:55:25] mask erode thread started for segment 6
[21:55:25] mask erode thread started for segment 7
[21:55:25] mask dilate thread started for segment 0
[21:55:25] mask dilate thread started for segment 1
[21:55:25] mask dilate thread started for segment 2
[21:55:25] mask dilate thread started for segment 3
[21:55:25] mask dilate thread started for segment 4
[21:55:25] Auto Passthru: allowed codecs are AAC, AC3, DTS, DTS-HD, MP3
[21:55:25] mask dilate thread started for segment 5
[21:55:25] Auto Passthru: fallback is MP3
[21:55:25] mask dilate thread started for segment 6
[21:55:25] Auto Passthru: using AC3 Passthru for track 1
[21:55:25] mask dilate thread started for segment 7
[21:55:25] sync: expecting 14314 video frames
[21:55:25] work: only 1 chapter, disabling chapter markers
[21:55:25] job configuration:
[21:55:25]  * source
[21:55:25]    + D:/benchmark/big_buck_bunny_1080p_surround.avi
[21:55:25]    + title 1, chapter(s) 1 to 1
[21:55:25]    + container: avi
[21:55:25]    + data rate: 12455 kbps
[21:55:25]  * destination
[21:55:25]    + D:/benchmark/big_buck_bunny_1080p_surround_x264_veryfast.mkv
[21:55:25]    + container: Matroska (libavformat)
[21:55:25]  * video track
[21:55:25]    + decoder: mpeg4
[21:55:25]    + filters
[21:55:25]      + Detelecine (pullup) (default settings)
[21:55:25]      + Decomb (default settings)
[21:55:25]      + Framerate Shaper (0:27000000:1125000)
[21:55:25]        + frame rate: same as source (around 24.000 fps)
[21:55:25]      + Crop and Scale (1920:1080:0:0:0:0)
[21:55:25]        + source: 1920 * 1080, crop (0/0/0/0): 1920 * 1080, scale: 1920 * 1080
[21:55:25]    + loose anamorphic
[21:55:25]      + storage dimensions: 1920 * 1080, mod 0
[21:55:25]      + pixel aspect ratio: 1 / 1
[21:55:25]      + display dimensions: 1920 * 1080
[21:55:25]    + encoder: H.264 (libx264)
[21:55:25]      + preset:  veryfast
[21:55:25]      + quality: 20.00 (RF)
[21:55:25]  * audio track 1
[21:55:25]    + name: Unknown (AC3) (5.1 ch)
[21:55:25]    + decoder: Unknown (AC3) (5.1 ch) (track 1, id 0x1)
[21:55:25]      + bitrate: 448 kbps, samplerate: 48000 Hz
[21:55:25]    + AC3 Passthru
[21:55:25] reader: first SCR 0 id 0x1 DTS 0
[21:55:25] encx264: min-keyint: 24, keyint: 240
[21:55:25] encx264: encoding at constant RF 20.000000
[21:55:25] encx264: unparsed options: ref=1:weightp=1:subme=2:mixed-refs=0:trellis=0:rc-lookahead=10
x264 [info]: using SAR=1/1
x264 [info]: using cpu capabilities: MMX2 SSE2Fast SSSE3 SSE4.2 AVX AVX2 FMA3 LZCNT BMI2
x264 [info]: profile High, level 4.0
[21:59:05] reader: done. 1 scr changes
[21:59:06] work: average encoding speed for job is 64.930099 fps
[21:59:06] sync: got 14315 frames, 14314 expected
[21:59:06] decomb: deinterlaced 431 | blended 425 | unfiltered 13456 | total 14312
[21:59:06] render: lost time: 7500 (0 frames)
[21:59:06] render: gained time: 7500 (8 frames) (0 not accounted for)
[21:59:06] mpeg4-decoder done: 14315 frames, 0 decoder errors, 0 drops
x264 [info]: frame I:154   Avg QP:14.24  size:210698
x264 [info]: frame P:9870  Avg QP:18.45  size: 30496
x264 [info]: frame B:4288  Avg QP:21.76  size:  6997
x264 [info]: consecutive B-frames: 57.3%  6.3%  6.4% 30.1%
x264 [info]: mb I  I16..4: 16.6% 39.8% 43.5%
x264 [info]: mb P  I16..4:  2.5%  3.4%  0.3%  P16..4: 31.4%  9.1%  5.7%  0.0%  0.0%    skip:47.6%
x264 [info]: mb B  I16..4:  0.4%  0.6%  0.1%  B16..8:  8.3%  2.8%  0.5%  direct: 5.4%  skip:82.0%  L0:40.4% L1:40.4% BI:19.2%
x264 [info]: 8x8 transform intra:52.1% inter:53.9%
x264 [info]: coded y,uvDC,uvAC intra: 50.5% 50.0% 18.4% inter: 13.2% 14.0% 1.6%
x264 [info]: i16 v,h,dc,p: 61% 23% 12%  4%
x264 [info]: i8 v,h,dc,ddl,ddr,vr,hd,vl,hu: 29% 23% 32%  2%  2%  4%  2%  3%  3%
x264 [info]: i4 v,h,dc,ddl,ddr,vr,hd,vl,hu: 27% 17% 12%  6%  7% 10%  7%  8%  7%
x264 [info]: i8c dc,h,v,p: 53% 21% 19%  6%
x264 [info]: Weighted P-Frames: Y:2.0% UV:1.2%
x264 [info]: kb/s:4875.13
[21:59:06] ac3-decoder done: 0 frames, 0 decoder errors, 0 drops
[21:59:06] mux: track 0, 14312 frames, 363444266 bytes, 4874.70 kbps, fifo 1024
[21:59:06] mux: track 1, 18640 frames, 33402880 bytes, 448.02 kbps, fifo 2048
[21:59:06] libhb: work result = 0

Encode done!
HandBrake has exited.
[2014-07-27, 21:59:06]  WARN -- hb.rb: created file D:/benchmark/big_buck_bunny_1080p_surround_x264_veryfast.mkv (378.70 MB)
[2014-07-27, 21:59:08]  WARN -- hb.rb: == done (required time: 00:03:43) =================================
[2014-07-27, 21:59:08]  WARN -- hb.rb: overview
[2014-07-27, 21:59:08]  WARN -- hb.rb: input: D:/benchmark/big_buck_bunny_1080p_surround.avi (885.65 MB)
[2014-07-27, 21:59:08]  WARN -- hb.rb:   D:/benchmark/big_buck_bunny_1080p_surround_x264_veryfast.mkv (378.70 MB)
[2014-07-27, 21:59:08]  WARN -- hb.rb:     title 1 00:09:56, 1920x1080, 24.000fps
[2014-07-27, 21:59:08]  WARN -- hb.rb:       audio-tracks:
[2014-07-27, 21:59:08]  WARN -- hb.rb:         track 1. Unknown (AC3) (5.1 ch) (und)

encoding with qsv_h264 (preset speed)

Code: Select all

hb.rb Copyright (C) 2014 AlBundy
This program comes with ABSOLUTELY NO WARRANTY; for details see LICENSE.txt.
This is free software, and you are welcome to redistribute it under certain conditions.

For questions, feature-requests etc. visit: https://forum.handbrake.fr/viewtopic.php?f=10&t=26163

[2014-07-27, 21:59:10]  WARN -- hb.rb: processing D:/benchmark/big_buck_bunny_1080p_surround.avi (title=, title_alt=, name=big_buck_bunny_1080p_surround, size=885.65 MB)
[2014-07-27, 21:59:10]  INFO -- hb.rb: checking title 01: 00:09:56, 1920x1080, 24.000 fps, main-feature: true, blocks: -1, chapters: 1, audio-tracks: und, subtitles: 
[2014-07-27, 21:59:10]  INFO -- hb.rb: converting title 01: 00:09:56, 1920x1080, 24.000 fps, main-feature: true, blocks: -1, chapters: 1, audio-tracks: und, subtitles: 
[2014-07-27, 21:59:10]  INFO -- hb.rb: checking audio-track 1. Unknown (AC3) (5.1 ch) (codec=AC3, channels=5.1 ch, lang=und, comment=, rate=48000Hz, bitrate=448000bps, commentary=false)
[2014-07-27, 21:59:10]  INFO -- hb.rb: adding audio-track: 1. Unknown (AC3) (5.1 ch) (codec=AC3, channels=5.1 ch, lang=und, comment=, rate=48000Hz, bitrate=448000bps, commentary=false)
[2014-07-27, 21:59:10]  WARN -- hb.rb: input: D:/benchmark/big_buck_bunny_1080p_surround.avi (title=, title_alt=, name=big_buck_bunny_1080p_surround, size=885.65 MB)
[2014-07-27, 21:59:10]  WARN -- hb.rb:   title 1 (main-feature) 00:09:56 1920x1080 (blocks: -1)
[2014-07-27, 21:59:10]  WARN -- hb.rb:   audio-tracks
[2014-07-27, 21:59:10]  WARN -- hb.rb:     - track 1: [und] Unknown (AC3) (5.1 ch)
[2014-07-27, 21:59:10]  WARN -- hb.rb: output: D:/benchmark/big_buck_bunny_1080p_surround_qsv_h264_speed.mkv
[2014-07-27, 21:59:10]  WARN -- hb.rb:   audio-tracks
[2014-07-27, 21:59:10]  WARN -- hb.rb:     - track 1: Unknown (AC3) (5.1 ch) - Auto Passthru
[2014-07-27, 21:59:10]  WARN -- hb.rb: "E:/DVD-Rips/hb/tools/handbrake/windows/HandBrakeCLI" --input "D:/benchmark/big_buck_bunny_1080p_surround.avi" --output "D:/benchmark/big_buck_bunny_1080p_surround_qsv_h264_speed.mkv" --verbose --encoder qsv_h264 --quality 20.0 --decomb --detelecine --crop 0:0:0:0 --loose-anamorphic --format mkv --markers --title 1 --audio 1 --aencoder copy --mixdown auto --ab auto --drc 0.0 --aname "Unknown (AC3) (5.1 ch)" --audio-fallback lame --encoder-preset speed  1>NUL
[21:59:11] hb_init: starting libhb thread
HandBrake svn6239 (2014072201) - MinGW x86_64 - http://handbrake.fr
8 CPUs detected
Opening D:/benchmark/big_buck_bunny_1080p_surround.avi...
[21:59:11] CPU: Intel(R) Core(TM) i7-4770K CPU @ 3.50GHz
[21:59:11]  - Intel microarchitecture Haswell
[21:59:11]  - logical processor count: 8
[21:59:11] OpenCL device #1: Advanced Micro Devices, Inc. Tahiti
[21:59:11]  - OpenCL version: 1.2 AMD-APP (1526.3)
[21:59:11]  - driver version: 1526.3 (VM)
[21:59:11]  - device type:    GPU
[21:59:11]  - supported:      YES
[21:59:11] OpenCL device #2: Intel(R) Corporation Intel(R) HD Graphics 4600
[21:59:11]  - OpenCL version: 1.2 
[21:59:11]  - driver version: 10.18.10.3277
[21:59:11]  - device type:    GPU
[21:59:11]  - supported:      YES
[21:59:11] Intel Quick Sync Video support: yes
[21:59:11]  - Intel Media SDK hardware: API 1.7 (minimum: 1.3)
[21:59:11]  - H.264 encoder: yes
[21:59:11]     - preferred implementation: hardware (any)
[21:59:11]  - H.265 encoder: no
[21:59:11] hb_scan: path=D:/benchmark/big_buck_bunny_1080p_surround.avi, title_index=1
libbluray/bdnav/index_parse.c:162: indx_parse(): error opening D:/benchmark/big_buck_bunny_1080p_surround.avi/BDMV/index.bdmv
libbluray/bdnav/index_parse.c:162: indx_parse(): error opening D:/benchmark/big_buck_bunny_1080p_surround.avi/BDMV/BACKUP/index.bdmv
libbluray/bluray.c:2182: nav_get_title_list(D:/benchmark/big_buck_bunny_1080p_surround.avi) failed
[21:59:11] bd: not a bd - trying as a stream/file instead
libdvdnav: Using dvdnav version 5.0.0
libdvdread:DVDOpenFileUDF:UDFFindFile /VIDEO_TS/VIDEO_TS.IFO failed
libdvdread:DVDOpenFileUDF:UDFFindFile /VIDEO_TS/VIDEO_TS.BUP failed
libdvdread: Can't open file VIDEO_TS.IFO.
libdvdnav: vm: failed to read VIDEO_TS.IFO
[21:59:11] dvd: not a dvd - trying as a stream/file instead
Input #0, avi, from 'D:/benchmark/big_buck_bunny_1080p_surround.avi':
  Metadata:
    encoder         : AVI-Mux GUI 1.17.7, Aug  8 2006  20:59:17
    JUNK            : 
  Duration: 00:09:56.45, start: 0.000000, bitrate: 12455 kb/s
    Stream #0.0: Video: mpeg4 (Simple Profile), yuv420p, 1920x1080 [PAR 1:1 DAR 16:9], 24 tbn, 24 tbc
    Stream #0.1: Audio: ac3, 48000 Hz, 5.1, fltp, 448 kb/s
[21:59:11] dxva2:DxFindVideoServiceConversion failed
[21:59:11] scan: decoding previews for title 1
[21:59:11] scan: audio 0x1: ac3, rate=48000Hz, bitrate=448000 Unknown (AC3) (5.1 ch)
[21:59:11] scan: 10 previews, 1920x1080, 24.000 fps, autocrop = 0/0/0/0, aspect 16:9, PAR 1:1
[21:59:11] libhb: scan thread found 1 valid title(s)
+ title 1:
  + stream: D:/benchmark/big_buck_bunny_1080p_surround.avi
  + duration: 00:09:56
  + size: 1920x1080, pixel aspect: 1/1, display aspect: 1.78, 24.000 fps
  + autocrop: 0/0/0/0
  + support opencl: yes
  + support hwd: no
  + chapters:
    + 1: cells 0->0, 0 blocks, duration 00:09:56
  + audio tracks:
    + 1, Unknown (AC3) (5.1 ch) (iso639-2: und), 48000Hz, 448000bps
  + subtitle tracks:
[21:59:11] 1 job(s) to process
[21:59:11] starting job
[21:59:11] yadif thread started for segment 0
[21:59:11] yadif thread started for segment 1
[21:59:11] yadif thread started for segment 2
[21:59:11] yadif thread started for segment 3
[21:59:11] yadif thread started for segment 4
[21:59:11] yadif thread started for segment 5
[21:59:11] yadif thread started for segment 6
[21:59:11] yadif thread started for segment 7
[21:59:11] decomb filter thread started for segment 0
[21:59:11] decomb filter thread started for segment 1
[21:59:11] decomb filter thread started for segment 2
[21:59:11] decomb filter thread started for segment 3
[21:59:11] decomb filter thread started for segment 4
[21:59:11] decomb filter thread started for segment 6
[21:59:11] decomb filter thread started for segment 5
[21:59:11] decomb filter thread started for segment 7
[21:59:11] decomb check thread started for segment 0
[21:59:11] decomb check thread started for segment 1
[21:59:11] decomb check thread started for segment 2
[21:59:11] decomb check thread started for segment 3
[21:59:11] decomb check thread started for segment 4
[21:59:11] decomb check thread started for segment 6
[21:59:11] decomb check thread started for segment 5
[21:59:11] decomb check thread started for segment 7
[21:59:11] mask filter thread started for segment 0
[21:59:11] mask filter thread started for segment 1
[21:59:11] mask filter thread started for segment 2
[21:59:11] mask filter thread started for segment 3
[21:59:11] mask filter thread started for segment 4
[21:59:11] mask filter thread started for segment 5
[21:59:11] mask filter thread started for segment 6
[21:59:11] mask filter thread started for segment 7
[21:59:11] mask erode thread started for segment 0
[21:59:11] mask erode thread started for segment 2
[21:59:11] mask erode thread started for segment 3
[21:59:11] mask erode thread started for segment 1
[21:59:11] mask erode thread started for segment 5
[21:59:11] mask erode thread started for segment 4
[21:59:11] mask erode thread started for segment 6
[21:59:11] mask erode thread started for segment 7
[21:59:11] mask dilate thread started for segment 0
[21:59:11] mask dilate thread started for segment 1
[21:59:11] mask dilate thread started for segment 2
[21:59:11] mask dilate thread started for segment 3
[21:59:11] mask dilate thread started for segment 4
[21:59:11] mask dilate thread started for segment 5
[21:59:11] mask dilate thread started for segment 6
[21:59:11] mask dilate thread started for segment 7
[21:59:11] Auto Passthru: allowed codecs are AAC, AC3, DTS, DTS-HD, MP3
[21:59:11] Auto Passthru: fallback is MP3
[21:59:11] Auto Passthru: using AC3 Passthru for track 1
[21:59:11] sync: expecting 14314 video frames
[21:59:11] work: only 1 chapter, disabling chapter markers
[21:59:11] job configuration:
[21:59:11]  * source
[21:59:11]    + D:/benchmark/big_buck_bunny_1080p_surround.avi
[21:59:11]    + title 1, chapter(s) 1 to 1
[21:59:11]    + container: avi
[21:59:11]    + data rate: 12455 kbps
[21:59:11]  * destination
[21:59:11]    + D:/benchmark/big_buck_bunny_1080p_surround_qsv_h264_speed.mkv
[21:59:11]    + container: Matroska (libavformat)
[21:59:11]  * video track
[21:59:11]    + decoder: mpeg4
[21:59:11]    + filters
[21:59:11]      + Detelecine (pullup) (default settings)
[21:59:11]      + Decomb (default settings)
[21:59:11]      + Framerate Shaper (0:27000000:1125000)
[21:59:11]        + frame rate: same as source (around 24.000 fps)
[21:59:11]      + Crop and Scale (1920:1080:0:0:0:0)
[21:59:11]        + source: 1920 * 1080, crop (0/0/0/0): 1920 * 1080, scale: 1920 * 1080
[21:59:11]    + loose anamorphic
[21:59:11]      + storage dimensions: 1920 * 1080, mod 0
[21:59:11]      + pixel aspect ratio: 1 / 1
[21:59:11]      + display dimensions: 1920 * 1080
[21:59:11]    + encoder: H.264 (Intel Media SDK)
[21:59:11]      + preset:  speed
[21:59:11]      + quality: 20.00 (QP)
[21:59:11]  * audio track 1
[21:59:11]    + name: Unknown (AC3) (5.1 ch)
[21:59:11]    + decoder: Unknown (AC3) (5.1 ch) (track 1, id 0x1)
[21:59:11]      + bitrate: 448 kbps, samplerate: 48000 Hz
[21:59:11]    + AC3 Passthru
[21:59:11] reader: first SCR 0 id 0x1 DTS 0
[21:59:11] encqsvInit: using encode-only path
[21:59:11] encqsvInit: TargetUsage 6 AsyncDepth 4
[21:59:11] encqsvInit: GopRefDist 4 GopPicSize 32 NumRefFrame 3
[21:59:11] encqsvInit: BFrames on BPyramid on
[21:59:11] encqsvInit: RateControlMethod CQP with QPI 20 QPP 22 QPB 24
[21:59:11] encqsvInit: CAVLC off
[21:59:11] encqsvInit: Trellis off
[21:59:11] encqsvInit: H.264 profile High @ level 4.0
[21:59:11] qsv_enc_init: using 'hardware (3)' implementation, API: 1.7
[22:02:00] reader: done. 1 scr changes
[22:02:01] work: average encoding speed for job is 84.345879 fps
[22:02:01] sync: got 14315 frames, 14314 expected
[22:02:01] decomb: deinterlaced 431 | blended 425 | unfiltered 13456 | total 14312
[22:02:01] render: lost time: 7500 (0 frames)
[22:02:01] render: gained time: 7500 (8 frames) (0 not accounted for)
[22:02:01] mpeg4-decoder done: 14315 frames, 0 decoder errors, 0 drops
[22:02:01] ac3-decoder done: 0 frames, 0 decoder errors, 0 drops
[22:02:01] mux: track 0, 14312 frames, 459928327 bytes, 6168.79 kbps, fifo 1024
[22:02:01] mux: track 1, 18640 frames, 33402880 bytes, 448.02 kbps, fifo 1024
[22:02:01] libhb: work result = 0

Encode done!
HandBrake has exited.
[2014-07-27, 22:02:01]  WARN -- hb.rb: created file D:/benchmark/big_buck_bunny_1080p_surround_qsv_h264_speed.mkv (470.72 MB)
[2014-07-27, 22:02:02]  WARN -- hb.rb: == done (required time: 00:02:52) =================================
[2014-07-27, 22:02:02]  WARN -- hb.rb: overview
[2014-07-27, 22:02:02]  WARN -- hb.rb: input: D:/benchmark/big_buck_bunny_1080p_surround.avi (885.65 MB)
[2014-07-27, 22:02:02]  WARN -- hb.rb:   D:/benchmark/big_buck_bunny_1080p_surround_qsv_h264_speed.mkv (470.72 MB)
[2014-07-27, 22:02:03]  WARN -- hb.rb:     title 1 00:09:56, 1920x1080, 24.000fps
[2014-07-27, 22:02:03]  WARN -- hb.rb:       audio-tracks:
[2014-07-27, 22:02:03]  WARN -- hb.rb:         track 1. Unknown (AC3) (5.1 ch) (und)

Post Reply