With upcoming changes to data protection and privacy laws in Europe coming into effect soon, we thought this would be a good time to remind everyone that we do have a privacy policy.
This applies to all users and visitors world-wide.

We have made a few changes to the language to make it clearer in relation to this new regulation but fundamentally, the terms and your rights are unchanged.

If you have any questions about this, please feel free to ask in the General Forum

Intel Celeron G1610 @ 2.60GHz, 2 Cores

Post your testing results with HandBrake.
Post Reply
X264
Posts: 38
Joined: Thu Jan 16, 2014 2:11 am

Intel Celeron G1610 @ 2.60GHz, 2 Cores

Post by X264 » Tue Feb 18, 2014 5:19 am

Benchmark #01:
------------------------------------------------------------------------------------------------------------------------------------------------------
Source video: Fashion

Machine Type: Intel Celeron G1610 | 4GB DDR3 @ 1333MHz | Xubuntu 13.10 64-bit
CPU Speed: 2600MHz
Number of CPUs: 1 (2 cores)
Rip Format: H.264
Container: MKV
Encoder: x264
Video Size & Settings:
_____Preset Used: Custom
_____Auto Crop: Disabled
_____Size: 960x540
_____Anamorphic: Loose
_____Filters: ALL OFF
_____Framerate: Same as source, 23.97fps, Constant Framerate
_____x264 Preset: Placebo
_____x264 Tune: SSIM
_____x264 Profile: AUTO
_____x264 Level: AUTO
_____Fast Decode: OFF
_____More Settings: keyint=240:min-keyint=24:deblock=0,0:bframes=8:ref=6:me=tesa:subme=9:no-fast-pskip:merange=16:rc-lookahead=48:no-dct-decimate
_____Frames to Encode: ALL
Quality / Bit Rate: Constant Quality, 16 RF
1 or 2 Pass: 1
Min/Max or Average Frames Per Second (FPS): Average FPS = 7.977773 fps
Handbrake Version: 0.9.9 (2013051800)

Encode log:

Code: Select all

Handbrake Version: 0.9.9 (2013051800)
[01:48:16] hb_scan: path=/home/X264/Downloads/Fashion_DivX720p_ASP.divx, title_index=1
libbluray/bdnav/index_parse.c:162: indx_parse(): error opening /home/X264/Downloads/Fashion_DivX720p_ASP.divx/BDMV/index.bdmv
libbluray/bdnav/index_parse.c:162: indx_parse(): error opening /home/X264/Downloads/Fashion_DivX720p_ASP.divx/BDMV/BACKUP/index.bdmv
libbluray/bluray.c:1725: nav_get_title_list(/home/X264/Downloads/Fashion_DivX720p_ASP.divx) failed (0x7f4a58048880)
[01:48:16] bd: not a bd - trying as a stream/file instead
libdvdnav: Using dvdnav version 4.1.3
libdvdread: Encrypted DVD support unavailable.
libdvdnav:DVDOpenFileUDF:UDFFindFile /VIDEO_TS/VIDEO_TS.IFO failed
libdvdnav:DVDOpenFileUDF:UDFFindFile /VIDEO_TS/VIDEO_TS.BUP failed
libdvdread: Can't open file VIDEO_TS.IFO.
libdvdnav: vm: failed to read VIDEO_TS.IFO
[01:48:16] dvd: not a dvd - trying as a stream/file instead
Input #0, avi, from '/home/X264/Downloads/Fashion_DivX720p_ASP.divx':
  Duration: 00:01:27.17, start: 0.000000, bitrate: 8806 kb/s
    Stream #0.0: Video: mpeg4, yuv420p, 1280x720 [PAR 1:1 DAR 16:9], 23,98 fps, 23,98 tbr, 23,98 tbn, 30k tbc
    Metadata:
      title           : Video 
    Stream #0.1: Audio: mp3, 44100 Hz, 2 channels, s16p, 192 kb/s
    Metadata:
      title           : Audio 
[01:48:16] scan: decoding previews for title 1
[mp3 @ 0x7f4a58083280] Header missing
[mp3 @ 0x7f4a58083280] Header missing
[01:48:16] scan: audio 0x1: mp3, rate=44100Hz, bitrate=192000 Unknown (mp3) (2.0 ch)
[01:48:16] scan: 10 previews, 1280x720, 23,976 fps, autocrop = 0/0/0/0, aspect 16:9, PAR 1:1
[01:48:16] libhb: scan thread found 1 valid title(s)
[01:48:19] gtkgui: Modified Preset: Regular->Normal
[01:48:19] 1 job(s) to process
[01:48:19] starting job
[01:48:19] sync: expecting 2089 video frames
[01:48:19] job configuration:
[01:48:19]  * source
[01:48:19]    + /home/X264/Downloads/Fashion_DivX720p_ASP.divx
[01:48:19]    + title 1, chapter(s) 1 to 1
[01:48:19]    + container: avi
[01:48:19]    + data rate: 8806 kbps
[01:48:19]  * destination
[01:48:19]    + /home/X264/Videos/Fashion_DivX720p_ASP.mkv
[01:48:19]    + container: Matroska (.mkv)
[01:48:19]  * video track
[01:48:19]    + decoder: mpeg4
[01:48:19]    + frame rate: 23,976 fps -> constant 23,976 fps
[01:48:19]    + filters
[01:48:19]      + Framerate Shaper (1:27000000:1126125)
[01:48:19]        + frame rate: 23,976 fps -> constant 23,976 fps
[01:48:19]      + Crop and Scale (960:540:0:0:0:0)
[01:48:19]        + source: 1280 * 720, crop (0/0/0/0): 1280 * 720, scale: 960 * 540
[01:48:19]    + loose anamorphic
[01:48:19]      + storage dimensions: 960 * 540, mod 2
[01:48:19]      + pixel aspect ratio: 1 / 1
[01:48:19]      + display dimensions: 960 * 540
[01:48:19]    + encoder: H.264 (x264)
[01:48:19]      + x264 preset: placebo
[01:48:19]      + x264 tune: ssim
[01:48:19]      + options: keyint=240:min-keyint=24:deblock=0,0:bframes=8:ref=6:me=tesa:subme=9:no-fast-pskip:merange=16:rc-lookahead=48:no-dct-decimate
[01:48:19]      + quality: 16,00 (RF)
[01:48:19]  * audio track 1
[01:48:19]    + decoder: Unknown (mp3) (2.0 ch) (track 1, id 0x1)
[01:48:19]      + bitrate: 192 kbps, samplerate: 44100 Hz
[01:48:19]    + mixdown: Stereo
[01:48:19]    + encoder: AAC (faac)
[01:48:19]      + bitrate: 160 kbps, samplerate: 44100 Hz
[01:48:19] encx264: min-keyint: 24, keyint: 240
[01:48:19] encx264: encoding with stored aspect 1/1
[01:48:19] encx264: Encoding at constant RF 16,000000
x264 [warning]: --psnr used with AQ on: results will be invalid!
x264 [warning]: --tune psnr should be used if attempting to benchmark psnr!
x264 [info]: using SAR=1/1
x264 [info]: using cpu capabilities: MMX2 SSE2Fast SSSE3 SSE4.2
[01:48:19] reader: first SCR 0 id 0x1 DTS 0
x264 [info]: profile High, level 3.1
[mp3 @ 0x7f4a5a69d8c0] incomplete frame
[01:52:34] reader: done. 1 scr changes
[01:52:40] work: average encoding speed for job is 7,977773 fps
[01:52:40] sync: got 2090 frames, 2089 expected
[01:52:40] render: 2090 frames output, 0 dropped and 0 duped for CFR/PFR
[01:52:40] render: lost time: 0 (0 frames)
[01:52:40] render: gained time: 0 (0 frames) (0 not accounted for)
[01:52:41] mpeg4-decoder done: 2090 frames, 0 decoder errors, 0 drops
x264 [info]: frame I:20    Avg QP:12,83  size:100346  PSNR Mean Y:50,53 U:53,99 V:54,01 Avg:51,02 Global:50,07
x264 [info]: frame P:490   Avg QP:15,64  size: 27623  PSNR Mean Y:48,88 U:52,10 V:52,23 Avg:49,49 Global:48,12
x264 [info]: frame B:1580  Avg QP:19,99  size:  4467  PSNR Mean Y:47,30 U:50,41 V:50,90 Avg:48,03 Global:46,66
x264 [info]: consecutive B-frames:  2,8%  2,8%  7,5% 27,4% 35,9% 18,4%  0,3%  1,5%  3,4%
x264 [info]: mb I  I16..4: 19,3% 29,0% 51,7%
x264 [info]: mb P  I16..4:  6,1% 12,4%  4,4%  P16..4: 33,6% 16,6% 11,6%  1,8%  0,5%    skip:13,0%
x264 [info]: mb B  I16..4:  0,7%  1,4%  0,3%  B16..8: 20,7%  6,5%  1,5%  direct: 3,3%  skip:65,6%  L0:35,6% L1:39,5% BI:24,9%
x264 [info]: 8x8 transform intra:52,1% inter:43,6%
x264 [info]: direct mvs  spatial:99,9% temporal:0,1%
x264 [info]: coded y,uvDC,uvAC intra: 67,7% 68,6% 43,5% inter: 17,2% 17,7% 9,1%
x264 [info]: i16 v,h,dc,p: 56% 10% 11% 23%
x264 [info]: i8 v,h,dc,ddl,ddr,vr,hd,vl,hu: 37% 14% 16%  4%  5%  8%  5%  7%  5%
x264 [info]: i4 v,h,dc,ddl,ddr,vr,hd,vl,hu: 34% 14% 14%  5%  7%  8%  6%  6%  5%
x264 [info]: i8c dc,h,v,p: 42% 20% 26% 12%
x264 [info]: Weighted P-Frames: Y:3,9% UV:1,6%
x264 [info]: ref P L0: 53,4% 12,0% 22,1%  4,0%  5,2%  3,0%  0,2%
x264 [info]: ref B L0: 90,3%  6,8%  1,9%  0,7%  0,3%
x264 [info]: ref B L1: 97,4%  2,6%
x264 [info]: SSIM Mean Y:0,9905101 (20,227db)
x264 [info]: PSNR Mean Y:47,705 U:50,840 V:51,244 Avg:48,401 Global:46,985 kb/s:2074,05
[01:52:41] mp3-decoder done: 0 frames, 0 decoder errors, 0 drops
[01:52:41] mux: track 0, 2090 frames, 22598680 bytes, 2071,99 kbps, fifo 1024
[01:52:41] mux: track 1, 3758 frames, 1726056 bytes, 158,26 kbps, fifo 2048
[01:52:41] libhb: work result = 0

X264
Posts: 38
Joined: Thu Jan 16, 2014 2:11 am

Re: Intel Celeron G1610 @ 2.60GHz, 2 Cores

Post by X264 » Mon Mar 10, 2014 10:53 pm

Benchmark #02:
------------------------------------------------------------------------------------------------------------------------------------------------------
Methodology used:
In this benchmark I want to target a SSIM value of >0.9900 (some sources may look crap with that too, so it varies...). Using 2 pass encoding.

So I repeat the 1st pass till I get an average SSIM of ~0.9875 (depends a lot on source). It can take several trials till you get near to that, using fast 1st pass obviously.
After that, I have to run the second pass with slower settings and if I don't get the desired SSIM value I will have to repeat till it gets >0.990000 and <0.991000 and as close as possible to 0.990000 (if patience is available).

Q: Why do you set resolution to 768x432?
A: Because that's enough. Not to mention it makes encoding a lot faster.

Q: Why did you set threads to 2 while x264 uses 3 for dual core processor by default?
A: The less cores the less quality wasted, paranoid speaking. And my processor won't take any advantage of 3 threads if can only handle 2 at a time (not sure). :)

Source video: Fashion

Machine Type: Intel Celeron G1610 | 4GB DDR3 @ 1333MHz | Xubuntu 13.10 64-bit
CPU Speed: 2600MHz
Number of CPUs: 1 (2 cores)
Rip Format: H.264
Container: MP4
Encoder: x264
Audio: Disabled
Video Size & Settings:
_____Preset Used: Custom
_____Auto Crop: Disabled
_____Size: 768x432
_____Anamorphic: OFF
_____Filters: ALL OFF
_____Framerate: Same as source, 23.97fps, Constant Framerate
_____x264 Preset: Placebo
_____x264 Tune: SSIM
_____x264 Profile: AUTO
_____x264 Level: AUTO
_____Fast Decode: OFF
_____Turbo First Pass: ON
_____More Settings: threads=2:psnr=0:keyint=240:min-keyint=24:deblock=0,0:bframes=8:ref=8:me=umh:subme=11:no-fast-pskip:merange=12:rc-lookahead=240:no-dct-decimate:no-scenecut
_____Frames to Encode: ALL
Quality / Bit Rate: 1050kbps (it took some time to discover it...:P)
1 or 2 Pass: 2
Min/Max or Average Frames Per Second (FPS): Average FPS (1st / 2nd pass) = 68,722130 / 10,264555 fps
Handbrake Version: 0.9.9 (2013051800)

1st pass results:
x264 [info]: SSIM Mean Y:0,9845017 (18,097db)
x264 [info]: kb/s:993,25

2nd pass results:
x264 [info]: SSIM Mean Y:0,9900964 (20,042db)
x264 [info]: kb/s:1048,81

It is really not so easy to get to the desired SSIM Y of >0.990000 and <0.991000 and as close as possible to 0.990000 (if patience and time is available). If you don't have patience don't even try it...:)

Anyway, I could save a lot of bits (depends on frame rate if compared to CRF method as CRF will deteriorate even more at higher frame rates thus lowering your final SSIM, unless you specify a qpmax=~21-22-it varies) and still keeping my paranoid goal. CRF encoding no more (if time is not an issue, of course)...

Encode log:

Code: Select all

Handbrake Version: 0.9.9 (2013051800)
[19:11:47] hb_scan: path=/home/blueknight/Downloads/Fashion_DivX720p_ASP.divx, title_index=1
libbluray/bdnav/index_parse.c:162: indx_parse(): error opening /home/blueknight/Downloads/Fashion_DivX720p_ASP.divx/BDMV/index.bdmv
libbluray/bdnav/index_parse.c:162: indx_parse(): error opening /home/blueknight/Downloads/Fashion_DivX720p_ASP.divx/BDMV/BACKUP/index.bdmv
libbluray/bluray.c:1725: nav_get_title_list(/home/blueknight/Downloads/Fashion_DivX720p_ASP.divx) failed (0x7f6d1400f080)
[19:11:47] bd: not a bd - trying as a stream/file instead
libdvdnav: Using dvdnav version 4.1.3
libdvdread: Encrypted DVD support unavailable.
libdvdnav:DVDOpenFileUDF:UDFFindFile /VIDEO_TS/VIDEO_TS.IFO failed
libdvdnav:DVDOpenFileUDF:UDFFindFile /VIDEO_TS/VIDEO_TS.BUP failed
libdvdread: Can't open file VIDEO_TS.IFO.
libdvdnav: vm: failed to read VIDEO_TS.IFO
[19:11:47] dvd: not a dvd - trying as a stream/file instead
Input #0, avi, from '/home/blueknight/Downloads/Fashion_DivX720p_ASP.divx':
  Duration: 00:01:27.17, start: 0.000000, bitrate: 8806 kb/s
    Stream #0.0: Video: mpeg4, yuv420p, 1280x720 [PAR 1:1 DAR 16:9], 23,98 fps, 23,98 tbr, 23,98 tbn, 30k tbc
    Metadata:
      title           : Video 
    Stream #0.1: Audio: mp3, 44100 Hz, 2 channels, s16p, 192 kb/s
    Metadata:
      title           : Audio 
[19:11:47] scan: decoding previews for title 1
[mp3 @ 0x7f6d140162c0] Header missing
[mp3 @ 0x7f6d140162c0] Header missing
[19:11:47] scan: audio 0x1: mp3, rate=44100Hz, bitrate=192000 Unknown (mp3) (2.0 ch)
[19:11:47] scan: 10 previews, 1280x720, 23,976 fps, autocrop = 0/0/0/0, aspect 16:9, PAR 1:1
[19:11:48] libhb: scan thread found 1 valid title(s)
[19:11:50] gtkgui: Modified Preset: Regular->Normal
[19:11:50] 2 job(s) to process
[19:11:50] starting job
[19:11:50] sync: expecting 2089 video frames
[19:11:50] job configuration:
[19:11:50]  * source
[19:11:50]    + /home/blueknight/Downloads/Fashion_DivX720p_ASP.divx
[19:11:50]    + title 1, chapter(s) 1 to 1
[19:11:50]    + container: avi
[19:11:50]    + data rate: 8806 kbps
[19:11:50]  * destination
[19:11:50]    + /home/blueknight/Desktop/Fashion_DivX720p_ASP.m4v
[19:11:50]    + container: MPEG-4 (.mp4 and .m4v)
[19:11:50]  * video track
[19:11:50]    + decoder: mpeg4
[19:11:50]    + frame rate: 23,976 fps -> constant 23,976 fps
[19:11:50]    + filters
[19:11:50]      + Framerate Shaper (1:27000000:1126125)
[19:11:50]        + frame rate: 23,976 fps -> constant 23,976 fps
[19:11:50]      + Crop and Scale (768:432:0:0:0:0)
[19:11:50]        + source: 1280 * 720, crop (0/0/0/0): 1280 * 720, scale: 768 * 432
[19:11:50]    + dimensions: 768 * 432, mod 2
[19:11:50]    + encoder: H.264 (x264)
[19:11:50]      + x264 preset: placebo
[19:11:50]      + x264 tune: ssim
[19:11:50]      + options: threads=2:psnr=0:keyint=240:min-keyint=24:deblock=0,0:bframes=8:ref=8:me=umh:subme=11:no-fast-pskip:merange=12:rc-lookahead=240:no-dct-decimate:no-scenecut
[19:11:50]      + bitrate: 1050 kbps, pass: 1
[19:11:50]      + fast first pass
[19:11:50]      + options: ref=1:8x8dct=0:me=dia:trellis=0
[19:11:50]                 analyse=i4x4 (if originally enabled, else analyse=none)
[19:11:50]                 subq=2 (if originally greater than 2, else subq unchanged)
[19:11:50] encx264: min-keyint: 24, keyint: 240
x264 [info]: using cpu capabilities: MMX2 SSE2Fast SSSE3 SSE4.2
x264 [info]: profile Main, level 3.0
[19:11:50] reader: first SCR 0 id 0x0 DTS 0
[19:12:19] reader: done. 1 scr changes
[19:12:21] work: average encoding speed for job is 68,722130 fps
[19:12:21] sync: got 2090 frames, 2089 expected
[19:12:21] render: 2090 frames output, 0 dropped and 0 duped for CFR/PFR
[19:12:21] render: lost time: 0 (0 frames)
[19:12:21] render: gained time: 0 (0 frames) (0 not accounted for)
[19:12:21] mpeg4-decoder done: 2090 frames, 0 decoder errors, 0 drops
x264 [info]: frame I:9     Avg QP:17,31  size: 51561
x264 [info]: frame P:517   Avg QP:19,08  size: 12804
x264 [info]: frame B:1564  Avg QP:23,75  size:  2391
x264 [info]: consecutive B-frames:  1,6%  4,4% 11,3% 38,1% 26,1% 13,5%  0,3%  0,8%  3,9%
x264 [info]: mb I  I16..4: 25,3%  0,0% 74,7%
x264 [info]: mb P  I16..4: 16,4%  0,0%  0,0%  P16..4: 55,7%  0,0%  0,0%  0,0%  0,0%    skip:27,9%
x264 [info]: mb B  I16..4:  1,3%  0,0%  0,0%  B16..8: 14,5%  0,0%  0,0%  direct: 5,6%  skip:78,6%  L0:26,3% L1:39,7% BI:34,0%
x264 [info]: final ratefactor: 18,54
x264 [info]: direct mvs  spatial:98,6% temporal:1,4%
x264 [info]: coded y,uvDC,uvAC intra: 59,3% 57,2% 28,5% inter: 14,4% 10,9% 4,5%
x264 [info]: i16 v,h,dc,p: 52% 16% 18% 14%
x264 [info]: i4 v,h,dc,ddl,ddr,vr,hd,vl,hu: 32% 16% 10%  6%  7%  8%  7%  9%  7%
x264 [info]: i8c dc,h,v,p: 50% 14% 31%  5%
x264 [info]: Weighted P-Frames: Y:4,4% UV:1,7%
x264 [info]: SSIM Mean Y:0,9845017 (18,097db)
x264 [info]: kb/s:993,25
[19:12:21] starting job
[19:12:21] sync: expecting 2090 video frames
[19:12:21] job configuration:
[19:12:21]  * source
[19:12:21]    + /home/blueknight/Downloads/Fashion_DivX720p_ASP.divx
[19:12:21]    + title 1, chapter(s) 1 to 1
[19:12:21]    + container: avi
[19:12:21]    + data rate: 8806 kbps
[19:12:21]  * destination
[19:12:21]    + /home/blueknight/Desktop/Fashion_DivX720p_ASP.m4v
[19:12:21]    + container: MPEG-4 (.mp4 and .m4v)
[19:12:21]  * video track
[19:12:21]    + decoder: mpeg4
[19:12:21]    + frame rate: 23,976 fps -> constant 23,976 fps
[19:12:21]    + filters
[19:12:21]      + Framerate Shaper (1:27000000:1126125)
[19:12:21]        + frame rate: 23,976 fps -> constant 23,976 fps
[19:12:21]      + Crop and Scale (768:432:0:0:0:0)
[19:12:21]        + source: 1280 * 720, crop (0/0/0/0): 1280 * 720, scale: 768 * 432
[19:12:21]    + dimensions: 768 * 432, mod 2
[19:12:21]    + encoder: H.264 (x264)
[19:12:21]      + x264 preset: placebo
[19:12:21]      + x264 tune: ssim
[19:12:21]      + options: threads=2:psnr=0:keyint=240:min-keyint=24:deblock=0,0:bframes=8:ref=8:me=umh:subme=11:no-fast-pskip:merange=12:rc-lookahead=240:no-dct-decimate:no-scenecut
[19:12:21]      + bitrate: 1050 kbps, pass: 2
[19:12:21] reader: first SCR 0 id 0x0 DTS 0
[19:12:21] encx264: min-keyint: 24, keyint: 240
x264 [info]: using cpu capabilities: MMX2 SSE2Fast SSSE3 SSE4.2
x264 [info]: profile High, level 3.1
[19:15:38] reader: done. 1 scr changes
[19:15:39] work: average encoding speed for job is 10,264555 fps
[19:15:39] mux: track 0, 2090 frames, 11427802 bytes, 1049,28 kbps, fifo 2048
[19:15:39] sync: got 2090 frames, 2090 expected
[19:15:39] render: 2090 frames output, 0 dropped and 0 duped for CFR/PFR
[19:15:39] render: lost time: 0 (0 frames)
[19:15:39] render: gained time: 0 (0 frames) (0 not accounted for)
[19:15:39] mpeg4-decoder done: 2090 frames, 0 decoder errors, 0 drops
x264 [info]: frame I:9     Avg QP:14,43  size: 60789
x264 [info]: frame P:517   Avg QP:17,99  size: 14344
x264 [info]: frame B:1564  Avg QP:23,21  size:  2216
x264 [info]: consecutive B-frames:  1,6%  4,4% 11,3% 38,1% 26,1% 13,5%  0,3%  0,8%  3,9%
x264 [info]: mb I  I16..4: 16,5% 36,1% 47,4%
x264 [info]: mb P  I16..4:  3,6% 12,6%  4,6%  P16..4: 27,9% 21,0% 10,1%  2,7%  0,6%    skip:16,7%
x264 [info]: mb B  I16..4:  0,7%  1,4%  0,3%  B16..8: 17,4%  8,0%  1,5%  direct: 1,8%  skip:69,0%  L0:34,3% L1:41,0% BI:24,7%
x264 [info]: 8x8 transform intra:58,3% inter:45,9%
x264 [info]: direct mvs  spatial:90,9% temporal:9,1%
x264 [info]: coded y,uvDC,uvAC intra: 64,6% 62,7% 32,7% inter: 12,9% 10,0% 5,4%
x264 [info]: i16 v,h,dc,p: 45% 13% 12% 30%
x264 [info]: i8 v,h,dc,ddl,ddr,vr,hd,vl,hu: 38% 13% 14%  4%  6%  8%  5%  7%  5%
x264 [info]: i4 v,h,dc,ddl,ddr,vr,hd,vl,hu: 33% 12% 13%  5%  8%  9%  6%  8%  6%
x264 [info]: i8c dc,h,v,p: 25% 30% 27% 17%
x264 [info]: Weighted P-Frames: Y:4,4% UV:1,7%
x264 [info]: ref P L0: 57,3% 12,9% 15,7%  4,2%  3,6%  2,5%  2,3%  1,5%  0,2%
x264 [info]: ref B L0: 92,0%  4,4%  1,8%  0,7%  0,6%  0,3%  0,2%
x264 [info]: ref B L1: 97,1%  2,9%
x264 [info]: SSIM Mean Y:0,9900964 (20,042db)
x264 [info]: kb/s:1048,81
[19:15:39] libhb: work result = 0
Last edited by X264 on Mon Mar 17, 2014 2:57 pm, edited 1 time in total.

X264
Posts: 38
Joined: Thu Jan 16, 2014 2:11 am

Re: Intel Celeron G1610 @ 2.60GHz, 2 Cores

Post by X264 » Mon Mar 17, 2014 1:54 am

Benchmark #03:
------------------------------------------------------------------------------------------------------------------------------------------------------
As the method above (Benchmark #02) is not going to give decent quality for some types of source. Because the "qp" of some frames can achieve very high values (28 and above).
And this is valid for the method described in "Benchmark #01" as well.

Then I decided to use a different method for this "Benchmark #03":
1.I will use the same settings, but this time I will add "qpmax=21" to prevent excessive quality degradation.
__You can use whatever "qpmax" value your eyes are comfortable with (in my case 21)...

I am going to use a short "lossless" video as a source this time (yuppy!).

Now, let's go:

Source video: Sintel Trailer 720p. Your results are not going to be comparable if you used one of those files directly (mine is a "lossless" H.264 stream in avi)...

Machine Type: Intel Celeron G1610 | 4GB DDR3 @ 1333MHz | Xubuntu 13.10 64-bit
CPU Speed: 2600MHz
Number of CPUs: 1 (2 cores)
Rip Format: H.264
Container: MKV
Encoder: x264
Audio: Disabled
Video Size & Settings:
_____Preset Used: Custom
_____Auto Crop: Disabled
_____Size: 1280x720
_____Anamorphic: OFF
_____Filters: ALL OFF
_____Framerate: Same as source, 24fps, Constant Framerate
_____x264 Preset: Placebo
_____x264 Tune: SSIM
_____x264 Profile: AUTO
_____x264 Level: AUTO
_____Fast Decode: OFF
_____Turbo First Pass: ON
_____More Settings: threads=2:psnr=0:qpmax=21:keyint=240:min-keyint=24:deblock=0,0:bframes=8:ref=8:me=umh:subme=11:no-fast-pskip:merange=18:rc-lookahead=240:no-dct-decimate:no-scenecut
_____Frames to Encode: ALL
Quality / Bit Rate: 2480kbps
1 or 2 Pass: 2
Min/Max or Average Frames Per Second (FPS): Average FPS (1st / 2nd pass) = 21,725016 / 4,883131 fps
Handbrake Version: 0.9.9 (2013051800)

Done, now the video is not only much smaller than the source, it is also at decent or near decent quality... :)

Also, there is no advantage in using 2 pass with this method, you can use single pass CRF with a high value (e.g.: 35), it will be faster and will give you "saner" results...

Encode log:

Code: Select all

Handbrake Version: 0.9.9 (2013051800)
[22:32:04] hb_scan: path=/home/X264/Downloads/sintel_720p24.avi, title_index=1
libbluray/bdnav/index_parse.c:162: indx_parse(): error opening /home/X264/Downloads/sintel_720p24.avi/BDMV/index.bdmv
libbluray/bdnav/index_parse.c:162: indx_parse(): error opening /home/X264/Downloads/sintel_720p24.avi/BDMV/BACKUP/index.bdmv
libbluray/bluray.c:1725: nav_get_title_list(/home/X264/Downloads/sintel_720p24.avi) failed (0x7fa454b243c0)
[22:32:04] bd: not a bd - trying as a stream/file instead
libdvdnav: Using dvdnav version 4.1.3
libdvdread: Using libdvdcss version 1.2.13 for DVD access
libdvdnav:DVDOpenFileUDF:UDFFindFile /VIDEO_TS/VIDEO_TS.IFO failed
libdvdnav:DVDOpenFileUDF:UDFFindFile /VIDEO_TS/VIDEO_TS.BUP failed
libdvdread: Can't open file VIDEO_TS.IFO.
libdvdnav: vm: failed to read VIDEO_TS.IFO
[22:32:04] dvd: not a dvd - trying as a stream/file instead
Input #0, avi, from '/home/X264/Downloads/sintel_720p24.avi':
  Metadata:
    encoder         : Lavf55.16.101
  Duration: 00:00:52.20, start: 0.000000, bitrate: 33669 kb/s
    Stream #0.0: Video: h264 (High 4:4:4 Predictive), yuv444p, 1280x720 [PAR 1:1 DAR 16:9], 24 fps, 24 tbr, 24 tbn, 48 tbc
[22:32:04] scan: decoding previews for title 1
[22:32:04] scan: 10 previews, 1280x720, 24,000 fps, autocrop = 0/0/0/0, aspect 16:9, PAR 1:1
[22:32:04] libhb: scan thread found 1 valid title(s)
[22:32:07] gtkgui: Modified Preset: Regular->Normal
[22:32:07] 2 job(s) to process
[22:32:07] starting job
[22:32:07] sync: expecting 1252 video frames
[22:32:07] job configuration:
[22:32:07]  * source
[22:32:07]    + /home/X264/Downloads/sintel_720p24.avi
[22:32:07]    + title 1, chapter(s) 1 to 1
[22:32:07]    + container: avi
[22:32:07]    + data rate: 33669 kbps
[22:32:07]  * destination
[22:32:07]    + /home/X264/Desktop/sintel_720p24.mkv
[22:32:07]    + container: Matroska (.mkv)
[22:32:07]  * video track
[22:32:07]    + decoder: h264
[22:32:07]    + frame rate: 24,000 fps -> constant 24,000 fps
[22:32:07]    + filters
[22:32:07]      + Framerate Shaper (1:27000000:1125000)
[22:32:07]        + frame rate: 24,000 fps -> constant 24,000 fps
[22:32:07]      + Crop and Scale (1280:720:0:0:0:0)
[22:32:07]        + source: 1280 * 720, crop (0/0/0/0): 1280 * 720, scale: 1280 * 720
[22:32:07]    + dimensions: 1280 * 720, mod 2
[22:32:07]    + encoder: H.264 (x264)
[22:32:07]      + x264 preset: placebo
[22:32:07]      + x264 tune: ssim
[22:32:07]      + options: threads=2:psnr=0:qpmax=21:keyint=240:min-keyint=24:deblock=0,0:bframes=8:ref=8:me=umh:subme=11:no-fast-pskip:merange=18:rc-lookahead=240:no-dct-decimate:no-scenecut
[22:32:07]      + bitrate: 2480 kbps, pass: 1
[22:32:07]      + fast first pass
[22:32:07]      + options: ref=1:8x8dct=0:me=dia:trellis=0
[22:32:07]                 analyse=i4x4 (if originally enabled, else analyse=none)
[22:32:07]                 subq=2 (if originally greater than 2, else subq unchanged)
[22:32:07] reader: first SCR 0 id 0x0 DTS 0
[22:32:07] encx264: min-keyint: 24, keyint: 240
x264 [info]: using cpu capabilities: MMX2 SSE2Fast SSSE3 SSE4.2
x264 [info]: profile Main, level 3.1
[22:32:59] reader: done. 1 scr changes
[22:33:05] work: average encoding speed for job is 21,725016 fps
[22:33:05] sync: got 1253 frames, 1252 expected
[22:33:05] render: 1253 frames output, 0 dropped and 0 duped for CFR/PFR
[22:33:05] render: lost time: 0 (0 frames)
[22:33:05] render: gained time: 0 (0 frames) (0 not accounted for)
[22:33:05] h264-decoder done: 1253 frames, 0 decoder errors, 0 drops
x264 [info]: frame I:6     Avg QP:10,90  size: 73673
x264 [info]: frame P:344   Avg QP:14,98  size: 28323
x264 [info]: frame B:903   Avg QP:16,85  size:  7904
x264 [info]: consecutive B-frames:  7,3%  5,3% 16,3% 16,0% 17,2% 15,8%  1,7%  1,9% 18,7%
x264 [info]: mb I  I16..4: 66,9%  0,0% 33,1%
x264 [info]: mb P  I16..4: 32,9%  0,0%  0,0%  P16..4: 32,7%  0,0%  0,0%  0,0%  0,0%    skip:34,4%
x264 [info]: mb B  I16..4:  6,5%  0,0%  0,0%  B16..8: 15,3%  0,0%  0,0%  direct:11,0%  skip:67,2%  L0:32,6% L1:39,1% BI:28,3%
x264 [info]: final ratefactor: 15,82
x264 [info]: direct mvs  spatial:98,7% temporal:1,3%
x264 [info]: coded y,uvDC,uvAC intra: 35,0% 32,6% 12,1% inter: 13,1% 14,5% 3,4%
x264 [info]: i16 v,h,dc,p: 38% 34% 16% 12%
x264 [info]: i4 v,h,dc,ddl,ddr,vr,hd,vl,hu: 20% 22% 12% 10%  6%  7%  6%  9%  9%
x264 [info]: i8c dc,h,v,p: 63% 22% 11%  4%
x264 [info]: Weighted P-Frames: Y:36,3% UV:25,0%
x264 [info]: SSIM Mean Y:0,9954470 (23,417db)
x264 [info]: kb/s:2654,39
[22:33:05] starting job
[22:33:05] sync: expecting 1253 video frames
[22:33:05] job configuration:
[22:33:05]  * source
[22:33:05]    + /home/X264/Downloads/sintel_720p24.avi
[22:33:05]    + title 1, chapter(s) 1 to 1
[22:33:05]    + container: avi
[22:33:05]    + data rate: 33669 kbps
[22:33:05]  * destination
[22:33:05]    + /home/X264/Desktop/sintel_720p24.mkv
[22:33:05]    + container: Matroska (.mkv)
[22:33:05]  * video track
[22:33:05]    + decoder: h264
[22:33:05]    + frame rate: 24,000 fps -> constant 24,000 fps
[22:33:05]    + filters
[22:33:05]      + Framerate Shaper (1:27000000:1125000)
[22:33:05]        + frame rate: 24,000 fps -> constant 24,000 fps
[22:33:05]      + Crop and Scale (1280:720:0:0:0:0)
[22:33:05]        + source: 1280 * 720, crop (0/0/0/0): 1280 * 720, scale: 1280 * 720
[22:33:05]    + dimensions: 1280 * 720, mod 2
[22:33:05]    + encoder: H.264 (x264)
[22:33:05]      + x264 preset: placebo
[22:33:05]      + x264 tune: ssim
[22:33:05]      + options: threads=2:psnr=0:qpmax=21:keyint=240:min-keyint=24:deblock=0,0:bframes=8:ref=8:me=umh:subme=11:no-fast-pskip:merange=18:rc-lookahead=240:no-dct-decimate:no-scenecut
[22:33:05]      + bitrate: 2480 kbps, pass: 2
[22:33:06] reader: first SCR 0 id 0x0 DTS 0
[22:33:06] encx264: min-keyint: 24, keyint: 240
x264 [info]: using cpu capabilities: MMX2 SSE2Fast SSSE3 SSE4.2
x264 [info]: profile High, level 4.0
[22:37:16] reader: done. 1 scr changes
[22:37:18] work: average encoding speed for job is 4,883131 fps
[22:37:18] mux: track 0, 1253 frames, 16350630 bytes, 2505,44 kbps, fifo 1024
[22:37:18] sync: got 1253 frames, 1253 expected
[22:37:18] render: 1253 frames output, 0 dropped and 0 duped for CFR/PFR
[22:37:18] render: lost time: 0 (0 frames)
[22:37:18] render: gained time: 0 (0 frames) (0 not accounted for)
[22:37:18] h264-decoder done: 1253 frames, 0 decoder errors, 0 drops
x264 [info]: frame I:6     Avg QP:12,76  size: 64680
x264 [info]: frame P:344   Avg QP:14,40  size: 27021
x264 [info]: frame B:903   Avg QP:15,99  size:  7384
x264 [info]: consecutive B-frames:  7,3%  5,3% 16,3% 16,0% 17,2% 15,8%  1,7%  1,9% 18,7%
x264 [info]: mb I  I16..4: 53,0% 19,4% 27,6%
x264 [info]: mb P  I16..4: 11,7% 16,7%  8,2%  P16..4: 14,4% 10,2%  4,0%  1,9%  0,4%    skip:32,6%
x264 [info]: mb B  I16..4:  3,8%  3,4%  1,4%  B16..8: 12,3%  6,5%  1,1%  direct: 4,5%  skip:67,1%  L0:38,0% L1:43,0% BI:19,0%
x264 [info]: 8x8 transform intra:42,4% inter:38,7%
x264 [info]: direct mvs  spatial:92,0% temporal:8,0%
x264 [info]: coded y,uvDC,uvAC intra: 37,9% 32,5% 13,1% inter: 10,3% 8,0% 2,5%
x264 [info]: i16 v,h,dc,p: 33% 30% 13% 24%
x264 [info]: i8 v,h,dc,ddl,ddr,vr,hd,vl,hu: 13% 18% 31%  5%  5%  5%  7%  6%  9%
x264 [info]: i4 v,h,dc,ddl,ddr,vr,hd,vl,hu: 16% 20% 36%  4%  6%  5%  5%  4%  5%
x264 [info]: i8c dc,h,v,p: 12% 66% 12% 10%
x264 [info]: Weighted P-Frames: Y:36,3% UV:25,0%
x264 [info]: ref P L0: 71,3%  9,5% 11,5%  3,2%  1,7%  1,2%  0,8%  0,5%  0,2%  0,0%
x264 [info]: ref B L0: 87,6%  7,1%  2,8%  1,2%  0,7%  0,3%  0,2%
x264 [info]: ref B L1: 95,0%  5,0%
x264 [info]: SSIM Mean Y:0,9966990 (24,814db)
x264 [info]: kb/s:2505,48
[22:37:18] libhb: work result = 0

X264
Posts: 38
Joined: Thu Jan 16, 2014 2:11 am

Re: Intel Celeron G1610 @ 2.60GHz, 2 Cores

Post by X264 » Mon Mar 17, 2014 6:15 am

Benchmark #04:
------------------------------------------------------------------------------------------------------------------------------------------------------
From everything I learned from the previous benchmarks, I came to the conclusion that the settings for this benchmark is going to be better...

Source video: Sintel Trailer 720p.

Settings:
Machine Type: Intel Celeron G1610 | 4GB DDR3 @ 1333MHz | Xubuntu 13.10 64-bit
CPU Speed: 2600MHz
Number of CPUs: 1 (2 cores)
Rip Format: H.264
Container: MKV
Encoder: x264
Audio: Disabled
Video Size & Settings:
_____Preset Used: Custom
_____Auto Crop: Disabled
_____Size: 1280x720
_____Anamorphic: OFF
_____Filters: ALL OFF
_____Framerate: Same as source, 24fps, Constant Framerate
_____x264 Preset: Placebo
_____x264 Tune: NONE
_____x264 Profile: AUTO
_____x264 Level: AUTO
_____Fast Decode: OFF
_____More Settings: threads=2:ssim=0:psnr=0:no-psy:keyint=240:min-keyint=24:deblock=0,0:bframes=6:ref=6:me=umh:subme=11:no-fast-pskip:merange=18:rc-lookahead=240:no-dct-decimate:no-scenecut
_____Frames to Encode: ALL
Quality / Bit Rate: 14 (for degraded videos I would use 16 since we won't have much to preserve already, LOL)
1 or 2 Pass: 1
Min/Max or Average Frames Per Second (FPS): Average FPS = 4,961481 fps
Handbrake Version: 0.9.9 (2013051800)

Encode log:

Code: Select all

Handbrake Version: 0.9.9 (2013051800)
[03:04:20] hb_scan: path=/home/X264/Downloads/sintel_720p24.avi, title_index=1
libbluray/bdnav/index_parse.c:162: indx_parse(): error opening /home/X264/Downloads/sintel_720p24.avi/BDMV/index.bdmv
libbluray/bdnav/index_parse.c:162: indx_parse(): error opening /home/X264/Downloads/sintel_720p24.avi/BDMV/BACKUP/index.bdmv
libbluray/bluray.c:1725: nav_get_title_list(/home/X264/Downloads/sintel_720p24.avi) failed (0x7f0b1c00b000)
[03:04:20] bd: not a bd - trying as a stream/file instead
libdvdnav: Using dvdnav version 4.1.3
libdvdread: Using libdvdcss version 1.2.13 for DVD access
libdvdnav:DVDOpenFileUDF:UDFFindFile /VIDEO_TS/VIDEO_TS.IFO failed
libdvdnav:DVDOpenFileUDF:UDFFindFile /VIDEO_TS/VIDEO_TS.BUP failed
libdvdread: Can't open file VIDEO_TS.IFO.
libdvdnav: vm: failed to read VIDEO_TS.IFO
[03:04:20] dvd: not a dvd - trying as a stream/file instead
Input #0, avi, from '/home/X264/Downloads/sintel_720p24.avi':
  Metadata:
    encoder         : Lavf55.16.101
  Duration: 00:00:52.20, start: 0.000000, bitrate: 33669 kb/s
    Stream #0.0: Video: h264 (High 4:4:4 Predictive), yuv444p, 1280x720 [PAR 1:1 DAR 16:9], 24 fps, 24 tbr, 24 tbn, 48 tbc
[03:04:21] scan: decoding previews for title 1
[03:04:21] scan: 10 previews, 1280x720, 24,000 fps, autocrop = 0/0/0/0, aspect 16:9, PAR 1:1
[03:04:21] libhb: scan thread found 1 valid title(s)
[03:04:23] gtkgui: Modified Preset: Regular->Normal
[03:04:23] 1 job(s) to process
[03:04:23] starting job
[03:04:23] sync: expecting 1252 video frames
[03:04:23] job configuration:
[03:04:23]  * source
[03:04:23]    + /home/X264/Downloads/sintel_720p24.avi
[03:04:23]    + title 1, chapter(s) 1 to 1
[03:04:23]    + container: avi
[03:04:23]    + data rate: 33669 kbps
[03:04:23]  * destination
[03:04:23]    + /home/X264/Desktop/sintel_720p24.mkv
[03:04:23]    + container: Matroska (.mkv)
[03:04:23]  * video track
[03:04:23]    + decoder: h264
[03:04:23]    + frame rate: 24,000 fps -> constant 24,000 fps
[03:04:23]    + filters
[03:04:23]      + Framerate Shaper (1:27000000:1125000)
[03:04:23]        + frame rate: 24,000 fps -> constant 24,000 fps
[03:04:23]      + Crop and Scale (1280:720:0:0:0:0)
[03:04:23]        + source: 1280 * 720, crop (0/0/0/0): 1280 * 720, scale: 1280 * 720
[03:04:23]    + dimensions: 1280 * 720, mod 2
[03:04:23]    + encoder: H.264 (x264)
[03:04:23]      + x264 preset: placebo
[03:04:23]      + options: threads=2:ssim=0:psnr=0:no-psy:keyint=240:min-keyint=24:deblock=0,0:bframes=6:ref=6:me=umh:subme=11:no-fast-pskip:merange=18:rc-lookahead=240:no-dct-decimate:no-scenecut
[03:04:23]      + quality: 14,00 (RF)
[03:04:23] reader: first SCR 0 id 0x0 DTS 0
[03:04:23] encx264: min-keyint: 24, keyint: 240
[03:04:23] encx264: Encoding at constant RF 14,000000
x264 [info]: using cpu capabilities: MMX2 SSE2Fast SSSE3 SSE4.2
x264 [info]: profile High, level 4.0
[03:08:22] reader: done. 1 scr changes
[03:08:47] work: average encoding speed for job is 4,961481 fps
[03:08:47] mux: track 0, 1253 frames, 15877598 bytes, 2432,96 kbps, fifo 1024
[03:08:47] sync: got 1253 frames, 1252 expected
[03:08:47] render: 1253 frames output, 0 dropped and 0 duped for CFR/PFR
[03:08:47] render: lost time: 0 (0 frames)
[03:08:47] render: gained time: 0 (0 frames) (0 not accounted for)
[03:08:47] h264-decoder done: 1253 frames, 0 decoder errors, 0 drops
x264 [info]: frame I:6     Avg QP: 8,93  size: 78650
x264 [info]: frame P:343   Avg QP:12,74  size: 25208
x264 [info]: frame B:904   Avg QP:13,18  size:  7477
x264 [info]: consecutive B-frames:  6,1%  4,5% 18,2% 15,6% 18,4% 21,5% 15,6%
x264 [info]: mb I  I16..4: 59,8% 15,2% 25,0%
x264 [info]: mb P  I16..4:  8,9% 15,2% 10,8%  P16..4: 14,0% 10,4%  4,0%  1,8%  0,3%    skip:34,6%
x264 [info]: mb B  I16..4:  3,1%  3,8%  2,5%  B16..8: 12,4%  7,6%  1,1%  direct: 4,0%  skip:65,4%  L0:39,4% L1:43,7% BI:16,9%
x264 [info]: 8x8 transform intra:41,3% inter:39,4%
x264 [info]: direct mvs  spatial:99,0% temporal:1,0%
x264 [info]: coded y,uvDC,uvAC intra: 43,8% 37,7% 16,6% inter: 9,9% 8,0% 2,2%
x264 [info]: i16 v,h,dc,p: 38% 28% 12% 22%
x264 [info]: i8 v,h,dc,ddl,ddr,vr,hd,vl,hu: 14% 20% 30%  5%  5%  5%  7%  6% 10%
x264 [info]: i4 v,h,dc,ddl,ddr,vr,hd,vl,hu: 16% 21% 38%  3%  5%  4%  5%  3%  5%
x264 [info]: i8c dc,h,v,p: 12% 59% 13% 17%
x264 [info]: Weighted P-Frames: Y:37,9% UV:24,2%
x264 [info]: ref P L0: 71,6%  9,3% 11,7%  3,6%  1,8%  1,5%  0,4%  0,0%
x264 [info]: ref B L0: 87,6%  7,8%  3,3%  1,0%  0,3%
x264 [info]: ref B L1: 95,1%  4,9%
x264 [info]: kb/s:2433,00
[03:08:47] libhb: work result = 0

X264
Posts: 38
Joined: Thu Jan 16, 2014 2:11 am

Re: Intel Celeron G1610 @ 2.60GHz, 2 Cores

Post by X264 » Fri Mar 21, 2014 7:11 pm

Benchmark #05:
------------------------------------------------------------------------------------------------------------------------------------------------------
Source video: 300 - Rise of an Empire Trailer

This video was re-encoded by handbrake already. And I will re-encode it again (more quality will be lost, sadly), but at a different resolution.

And as time is not a constraint for me anymore I can use really slow settings and disable multiple threaded encoding from now on. Prepare to wait... :)
And for it to take as much time as possible I will do 2-pass, with the same settings for both passes (a.k.a. --slowfirstpass). Prepare to wait... :)

Notes:
This is a single threaded benchmark... :)
Minimum recommended memory to run this benchmark is: 1512 MB available.

Settings:
Machine Type: Intel Celeron G1610 | 4GB DDR3 @ 1333MHz | Xubuntu 13.10 64-bit
CPU Speed: 2600MHz
Number of CPUs: 1 (2 cores)
Rip Format: H.264
Container: MKV
Encoder: x264
Audio: Copy/"Passthru"
Video Size & Settings:
_____Preset Used: Custom
_____Auto Crop: Disabled
_____Size: 1024x576
_____Anamorphic: OFF
_____Filters: ALL OFF
_____Framerate: Same as source
_____x264 Preset: Placebo
_____x264 Tune: NONE
_____x264 Profile: AUTO
_____x264 Level: AUTO
_____Fast Decode: OFF
_____Turbo First Pass: OFF
_____More Settings: threads=1:ssim=0:psnr=0:no-psy:keyint=240:min-keyint=24:merange=16:rc-lookahead=240:no-dct-decimate:no-scenecut
_____Frames to Encode: ALL
Quality / Bit Rate: 3700 kbps
1 or 2 Pass: 2
Min/Max or Average Frames Per Second (FPS): Average FPS (1st / 2nd pass) = 1,155732 fps / 1,174254 fps
Handbrake Version: 0.9.9 (2013051800)

Video duration: 153 seconds @ 24 fps
1st pass average fps: 1.15 (~21x slower than realtime, ~3193 seconds taken)
2nd pass average fps: 1.17 (~20x slower than realtime, ~3138 seconds taken)
Total time taken: ~1 hour, 45 minutes.

Encode log:

Code: Select all

Handbrake Version: 0.9.9 (2013051800)
[14:11:01] hb_scan: path=/home/X264/Downloads/300_rise_of_an_empire-trailer/300 - Rise of an Empire - Trailer 2.mp4, title_index=1
libbluray/bdnav/index_parse.c:162: indx_parse(): error opening /home/X264/Downloads/300_rise_of_an_empire-trailer/300 - Rise of an Empire - Trailer 2.mp4/BDMV/index.bdmv
libbluray/bdnav/index_parse.c:162: indx_parse(): error opening /home/X264/Downloads/300_rise_of_an_empire-trailer/300 - Rise of an Empire - Trailer 2.mp4/BDMV/BACKUP/index.bdmv
libbluray/bluray.c:1725: nav_get_title_list(/home/X264/Downloads/300_rise_of_an_empire-trailer/300 - Rise of an Empire - Trailer 2.mp4) failed (0x7ff18400b1b0)
[14:11:01] bd: not a bd - trying as a stream/file instead
libdvdnav: Using dvdnav version 4.1.3
libdvdread: Using libdvdcss version 1.2.13 for DVD access
libdvdnav:DVDOpenFileUDF:UDFFindFile /VIDEO_TS/VIDEO_TS.IFO failed
libdvdnav:DVDOpenFileUDF:UDFFindFile /VIDEO_TS/VIDEO_TS.BUP failed
libdvdread: Can't open file VIDEO_TS.IFO.
libdvdnav: vm: failed to read VIDEO_TS.IFO
[14:11:01] dvd: not a dvd - trying as a stream/file instead
Input #0, mov,mp4,m4a,3gp,3g2,mj2, from '/home/X264/Downloads/300_rise_of_an_empire-trailer/300 - Rise of an Empire - Trailer 2.mp4':
  Metadata:
    major_brand     : mp42
    minor_version   : 0
    compatible_brands: mp42isomavc1
    creation_time   : 2014-01-11 05:39:32
    genre           : Trailer
    artist          : Warner Bros.
    title           : 300: Rise of an Empire - Trailer 2
    encoder         : HandBrake 0.9.9 2013051800
    date            : 2014
  Duration: 00:02:33.23, start: 0.000000, bitrate: 7377 kb/s
    Stream #0.0(und): Video: h264 (High), yuv420p, 1920x1080, 7219 kb/s, 23,98 fps, 23,98 tbr, 90k tbn, 47,95 tbc
    Metadata:
      creation_time   : 2014-01-11 05:39:32
    Stream #0.1(eng): Audio: aac, 48000 Hz, stereo, fltp, 157 kb/s
    Metadata:
      creation_time   : 2014-01-11 05:39:32
    Stream #0.2: Video: mjpeg, yuvj420p, 101x150 [PAR 72:72 DAR 101:150], 90k tbn
[14:11:01] scan: decoding previews for title 1
[14:11:01] scan: audio 0x1: aac, rate=48000Hz, bitrate=157989 English (aac) (2.0 ch)
[14:11:02] scan: 10 previews, 1920x1080, 23,983 fps, autocrop = 142/142/0/0, aspect 16:9, PAR 1:1
[14:11:02] libhb: scan thread found 1 valid title(s)
[14:11:04] gtkgui: Modified Preset: Regular->Normal
[14:11:04] 2 job(s) to process
[14:11:04] starting job
[14:11:04] sync: expecting 3675 video frames
[14:11:04] job configuration:
[14:11:04]  * source
[14:11:04]    + /home/X264/Downloads/300_rise_of_an_empire-trailer/300 - Rise of an Empire - Trailer 2.mp4
[14:11:04]    + title 1, chapter(s) 1 to 1
[14:11:04]    + container: mov,mp4,m4a,3gp,3g2,mj2
[14:11:04]    + data rate: 7377 kbps
[14:11:04]  * destination
[14:11:04]    + /home/X264/Desktop/300 - Rise of an Empire - Trailer 2.mkv
[14:11:04]    + container: Matroska (.mkv)
[14:11:04]  * video track
[14:11:04]    + decoder: h264
[14:11:04]      + bitrate 7219 kbps
[14:11:04]    + frame rate: same as source (around 23,983 fps)
[14:11:04]    + filters
[14:11:04]      + Framerate Shaper (0:27000000:1125818)
[14:11:04]        + frame rate: same as source (around 23,983 fps)
[14:11:04]      + Crop and Scale (1024:576:0:0:0:0)
[14:11:04]        + source: 1920 * 1080, crop (0/0/0/0): 1920 * 1080, scale: 1024 * 576
[14:11:04]    + dimensions: 1024 * 576, mod 2
[14:11:04]    + encoder: H.264 (x264)
[14:11:04]      + x264 preset: placebo
[14:11:04]      + options: threads=1:ssim=0:psnr=0:no-psy:keyint=240:min-keyint=24:deblock=0,0:merange=16:rc-lookahead=240:no-dct-decimate:no-scenecut
[14:11:04]      + bitrate: 3700 kbps, pass: 1
[14:11:04]  * audio track 1
[14:11:04]    + decoder: English (aac) (2.0 ch) (track 1, id 0x1)
[14:11:04]      + bitrate: 157 kbps, samplerate: 48000 Hz
[14:11:04]    + AAC Passthru
[14:11:04] reader: first SCR 0 id 0x1 DTS 0
[14:11:04] encx264: min-keyint: 24, keyint: 240
x264 [info]: using cpu capabilities: MMX2 SSE2Fast SSSE3 SSE4.2
x264 [info]: profile High, level 5.0
[15:03:03] reader: done. 1 scr changes
[15:07:35] work: average encoding speed for job is 1,155732 fps
[15:07:35] sync: got 3672 frames, 3675 expected
[15:07:35] render: lost time: 0 (0 frames)
[15:07:35] render: gained time: 0 (0 frames) (0 not accounted for)
[15:07:35] h264-decoder done: 3672 frames, 0 decoder errors, 0 drops
x264 [info]: frame I:16    Avg QP: 9,53  size: 76656
x264 [info]: frame P:925   Avg QP:13,65  size: 35933
x264 [info]: frame B:2731  Avg QP:14,66  size: 13078
x264 [info]: consecutive B-frames:  2,6%  3,4% 10,1% 52,2% 12,3% 10,3%  0,8%  0,9%  0,2%  0,3%  0,3%  0,0%  0,0%  3,1%  0,4%  0,0%  3,2%
x264 [info]: mb I  I16..4: 28,3% 24,9% 46,9%
x264 [info]: mb P  I16..4:  5,2% 20,7% 14,1%  P16..4: 13,6% 11,6%  6,8%  2,2%  0,3%    skip:25,5%
x264 [info]: mb B  I16..4:  1,5%  4,8%  2,9%  B16..8: 16,1% 13,0%  3,1%  direct: 7,7%  skip:50,8%  L0:35,2% L1:36,4% BI:28,4%
x264 [info]: final ratefactor: 12,88
x264 [info]: 8x8 transform intra:51,2% inter:44,1%
x264 [info]: direct mvs  spatial:99,6% temporal:0,4%
x264 [info]: coded y,uvDC,uvAC intra: 77,7% 68,9% 41,3% inter: 23,0% 16,5% 5,7%
x264 [info]: i16 v,h,dc,p: 28% 24% 15% 34%
x264 [info]: i8 v,h,dc,ddl,ddr,vr,hd,vl,hu: 18% 24% 17%  5%  6%  6%  7%  7% 10%
x264 [info]: i4 v,h,dc,ddl,ddr,vr,hd,vl,hu: 20% 27% 18%  4%  7%  6%  7%  5%  7%
x264 [info]: i8c dc,h,v,p: 26% 41% 16% 17%
x264 [info]: Weighted P-Frames: Y:17,3% UV:11,1%
x264 [info]: ref P L0: 51,6% 15,2% 18,5%  4,5%  3,0%  1,8%  1,6%  0,8%  0,7%  0,5%  0,4%  0,4%  0,3%  0,2%  0,2%  0,2%
x264 [info]: ref B L0: 88,1%  6,8%  2,0%  0,9%  0,6%  0,4%  0,3%  0,2%  0,2%  0,1%  0,1%  0,1%  0,1%  0,1%  0,0%
x264 [info]: ref B L1: 96,8%  3,2%
x264 [info]: kb/s:3665,84
[15:07:35] aac-decoder done: 0 frames, 0 decoder errors, 0 drops
[15:07:35] starting job
[15:07:35] sync: expecting 3672 video frames
[15:07:35] job configuration:
[15:07:35]  * source
[15:07:35]    + /home/X264/Downloads/300_rise_of_an_empire-trailer/300 - Rise of an Empire - Trailer 2.mp4
[15:07:35]    + title 1, chapter(s) 1 to 1
[15:07:35]    + container: mov,mp4,m4a,3gp,3g2,mj2
[15:07:35]    + data rate: 7377 kbps
[15:07:35]  * destination
[15:07:35]    + /home/X264/Desktop/300 - Rise of an Empire - Trailer 2.mkv
[15:07:35]    + container: Matroska (.mkv)
[15:07:35]  * video track
[15:07:35]    + decoder: h264
[15:07:35]      + bitrate 7219 kbps
[15:07:35]    + frame rate: same as source (around 23,983 fps)
[15:07:35]    + filters
[15:07:35]      + Framerate Shaper (0:27000000:1125818)
[15:07:35]        + frame rate: same as source (around 23,983 fps)
[15:07:35]      + Crop and Scale (1024:576:0:0:0:0)
[15:07:35]        + source: 1920 * 1080, crop (0/0/0/0): 1920 * 1080, scale: 1024 * 576
[15:07:35]    + dimensions: 1024 * 576, mod 2
[15:07:35]    + encoder: H.264 (x264)
[15:07:35]      + x264 preset: placebo
[15:07:35]      + options: threads=1:ssim=0:psnr=0:no-psy:keyint=240:min-keyint=24:deblock=0,0:merange=16:rc-lookahead=240:no-dct-decimate:no-scenecut
[15:07:35]      + bitrate: 3700 kbps, pass: 2
[15:07:35]  * audio track 1
[15:07:35]    + decoder: English (aac) (2.0 ch) (track 1, id 0x1)
[15:07:35]      + bitrate: 157 kbps, samplerate: 48000 Hz
[15:07:35]    + AAC Passthru
[15:07:35] reader: first SCR 0 id 0x1 DTS 0
[15:07:35] encx264: min-keyint: 24, keyint: 240
x264 [info]: using cpu capabilities: MMX2 SSE2Fast SSSE3 SSE4.2
x264 [info]: profile High, level 5.0
[15:59:23] reader: done. 1 scr changes
[15:59:42] work: average encoding speed for job is 1,174254 fps
[15:59:43] sync: got 3672 frames, 3672 expected
[15:59:43] render: lost time: 0 (0 frames)
[15:59:43] render: gained time: 0 (0 frames) (0 not accounted for)
[15:59:43] h264-decoder done: 3672 frames, 0 decoder errors, 0 drops
x264 [info]: frame I:16    Avg QP:10,35  size: 70694
x264 [info]: frame P:925   Avg QP:13,14  size: 37206
x264 [info]: frame B:2731  Avg QP:14,72  size: 13000
x264 [info]: consecutive B-frames:  2,6%  3,4% 10,1% 52,2% 12,3% 10,3%  0,8%  0,9%  0,2%  0,3%  0,3%  0,0%  0,0%  3,1%  0,4%  0,0%  3,2%
x264 [info]: mb I  I16..4: 27,6% 26,7% 45,7%
x264 [info]: mb P  I16..4:  5,1% 20,5% 15,9%  P16..4: 12,3% 11,0%  7,0%  2,5%  0,3%    skip:25,5%
x264 [info]: mb B  I16..4:  1,4%  5,1%  3,1%  B16..8: 15,7% 13,7%  3,4%  direct: 8,2%  skip:49,3%  L0:34,1% L1:35,3% BI:30,6%
x264 [info]: 8x8 transform intra:50,3% inter:40,6%
x264 [info]: direct mvs  spatial:94,8% temporal:5,2%
x264 [info]: coded y,uvDC,uvAC intra: 79,2% 71,6% 45,7% inter: 24,6% 17,9% 6,1%
x264 [info]: i16 v,h,dc,p: 31% 23% 13% 33%
x264 [info]: i8 v,h,dc,ddl,ddr,vr,hd,vl,hu: 18% 25% 17%  5%  6%  5%  7%  7% 10%
x264 [info]: i4 v,h,dc,ddl,ddr,vr,hd,vl,hu: 21% 25% 17%  5%  7%  6%  7%  5%  7%
x264 [info]: i8c dc,h,v,p: 27% 40% 15% 17%
x264 [info]: Weighted P-Frames: Y:17,3% UV:11,1%
x264 [info]: ref P L0: 53,6% 18,2% 13,1%  5,1%  3,2%  2,0%  1,5%  0,9%  0,6%  0,5%  0,4%  0,3%  0,2%  0,2%  0,2%  0,1%
x264 [info]: ref B L0: 88,5%  6,5%  2,1%  0,9%  0,6%  0,4%  0,3%  0,2%  0,1%  0,1%  0,1%  0,1%  0,1%  0,0%  0,0%
x264 [info]: ref B L1: 96,9%  3,1%
x264 [info]: kb/s:3711,34
[15:59:43] aac-decoder done: 0 frames, 0 decoder errors, 0 drops
[15:59:43] mux: track 0, 3672 frames, 71049691 bytes, 3709,29 kbps, fifo 1024
[15:59:43] mux: track 1, 7183 frames, 3026231 bytes, 157,99 kbps, fifo 2048
[15:59:43] libhb: work result = 0

X264
Posts: 38
Joined: Thu Jan 16, 2014 2:11 am

Re: Intel Celeron G1610 @ 2.60GHz, 2 Cores

Post by X264 » Fri Apr 04, 2014 8:59 pm

Benchmark #06:
------------------------------------------------------------------------------------------------------------------------------------------------------
Source video: Gravity Trailer

And for those who do not want to wait hours to run a benchmark of a 2min. video, I'll use "lazy friendly" settings this time...

Notes:
This is a single threaded benchmark... This way we can compare real CPU performance. :)
Minimum recommended memory to run this benchmark is: 1024 MB available.

Settings:
Machine Type: Intel Celeron G1610 | 4GB DDR3 @ 1333MHz | Xubuntu 13.10 64-bit
CPU Speed: 2600MHz
Number of CPUs: 1 (2 cores)
Rip Format: H.264
Container: MKV
Encoder: x264
Audio: FLAC(ffmpeg)
Video Size & Settings:
_____Preset Used: Custom
_____Auto Crop: Disabled
_____Size: 2048x858
_____Anamorphic: OFF
_____Filters: ALL OFF
_____Framerate: Same as source
_____x264 Preset: Medium
_____x264 Tune: NONE
_____x264 Profile: AUTO
_____x264 Level: AUTO
_____Fast Decode: OFF
_____More Settings: threads=1:ssim=0:psnr=0:no-psy:aq-mode=2
_____Frames to Encode: ALL
Quality / Bit Rate: RF 14
1 or 2 Pass: 1
Min/Max or Average Frames Per Second (FPS): Average FPS = 2,812142 fps
Handbrake Version: 0.9.9 (2013051800)

Encode log:

Code: Select all

Handbrake Version: 0.9.9 (2013051800)
[17:29:28] hb_scan: path=/media/X264/EEEC8F79EC8F3ABB/SHARED/Gravity Trailer/GRAVITY_TRAILER_5-2k.mov, title_index=1
libbluray/bdnav/index_parse.c:162: indx_parse(): error opening /media/X264/EEEC8F79EC8F3ABB/SHARED/Gravity Trailer/GRAVITY_TRAILER_5-2k.mov/BDMV/index.bdmv
libbluray/bdnav/index_parse.c:162: indx_parse(): error opening /media/X264/EEEC8F79EC8F3ABB/SHARED/Gravity Trailer/GRAVITY_TRAILER_5-2k.mov/BDMV/BACKUP/index.bdmv
libbluray/bluray.c:1725: nav_get_title_list(/media/X264/EEEC8F79EC8F3ABB/SHARED/Gravity Trailer/GRAVITY_TRAILER_5-2k.mov) failed (0x7f2098ece2f0)
[17:29:28] bd: not a bd - trying as a stream/file instead
libdvdnav: Using dvdnav version 4.1.3
libdvdread: Using libdvdcss version 1.2.13 for DVD access
libdvdnav:DVDOpenFileUDF:UDFFindFile /VIDEO_TS/VIDEO_TS.IFO failed
libdvdnav:DVDOpenFileUDF:UDFFindFile /VIDEO_TS/VIDEO_TS.BUP failed
libdvdread: Can't open file VIDEO_TS.IFO.
libdvdnav: vm: failed to read VIDEO_TS.IFO
[17:29:28] dvd: not a dvd - trying as a stream/file instead
Input #0, mov,mp4,m4a,3gp,3g2,mj2, from '/media/X264/EEEC8F79EC8F3ABB/SHARED/Gravity Trailer/GRAVITY_TRAILER_5-2k.mov':
  Metadata:
    creation_time   : 2013-08-30 01:16:53
  Duration: 00:02:27.06, start: 0.000000, bitrate: 150964 kb/s
    Stream #0.0(eng): Video: prores, yuv422p10le, 2048x858, 148354 kb/s, PAR 1:1 DAR 1024:429, 23,98 fps, 23,98 tbr, 23976 tbn
    Metadata:
      creation_time   : 2013-08-30 01:16:53
    Stream #0.1(eng): Data: tmcd / 0x64636D74, 0 kb/s
    Metadata:
      creation_time   : 2013-08-30 01:16:53
    Stream #0.2(eng): Audio: pcm_s24le, 48000 Hz, 2 channels, s32, 2304 kb/s
    Metadata:
      creation_time   : 2013-08-30 01:16:53
[17:29:28] scan: decoding previews for title 1
[17:29:28] scan: audio 0x2: pcm_s24le, rate=48000Hz, bitrate=2304000 English (pcm_s24le) (2.0 ch)
[17:29:29] scan: 10 previews, 2048x858, 23,976 fps, autocrop = 0/0/0/0, aspect 2,39:1, PAR 1:1
[17:29:29] libhb: scan thread found 1 valid title(s)
[17:29:31] gtkgui: Modified Preset: Regular->Normal
[17:29:31] 1 job(s) to process
[17:29:31] starting job
[17:29:31] work: compression level not specified, track 1 setting compression level 5,00
[17:29:31] sync: expecting 3526 video frames
[17:29:31] job configuration:
[17:29:31]  * source
[17:29:31]    + /media/X264/EEEC8F79EC8F3ABB/SHARED/Gravity Trailer/GRAVITY_TRAILER_5-2k.mov
[17:29:31]    + title 1, chapter(s) 1 to 1
[17:29:31]    + container: mov,mp4,m4a,3gp,3g2,mj2
[17:29:31]    + data rate: 150964 kbps
[17:29:31]  * destination
[17:29:31]    + /home/X264/Desktop/GRAVITY_TRAILER_5-2k.mkv
[17:29:31]    + container: Matroska (.mkv)
[17:29:31]  * video track
[17:29:31]    + decoder: prores
[17:29:31]      + bitrate 148354 kbps
[17:29:31]    + frame rate: 23,976 fps -> constant 23,976 fps
[17:29:31]    + filters
[17:29:31]      + Framerate Shaper (1:27000000:1126125)
[17:29:31]        + frame rate: 23,976 fps -> constant 23,976 fps
[17:29:31]      + Crop and Scale (2048:858:0:0:0:0)
[17:29:31]        + source: 2048 * 858, crop (0/0/0/0): 2048 * 858, scale: 2048 * 858
[17:29:31]    + loose anamorphic
[17:29:31]      + storage dimensions: 2048 * 858, mod 2
[17:29:31]      + pixel aspect ratio: 1 / 1
[17:29:31]      + display dimensions: 2048 * 858
[17:29:31]    + encoder: H.264 (x264)
[17:29:31]      + x264 preset: medium
[17:29:31]      + options: threads=1:ssim=0:psnr=0:no-psy:aq-mode=2
[17:29:31]      + quality: 14,00 (RF)
[17:29:31]  * audio track 1
[17:29:31]    + decoder: English (pcm_s24le) (2.0 ch) (track 1, id 0x2)
[17:29:31]      + bitrate: 2304 kbps, samplerate: 48000 Hz
[17:29:31]    + mixdown: Stereo
[17:29:31]    + dither: triangular
[17:29:31]    + encoder: FLAC (ffmpeg)
[17:29:31]      + samplerate: 48000 Hz
[17:29:31]      + compression level: 5,00
[17:29:31] reader: first SCR 0 id 0x0 DTS 0
[17:29:31] encx264: min-keyint: 24, keyint: 240
[17:29:31] encx264: encoding with stored aspect 1/1
[17:29:31] encx264: Encoding at constant RF 14,000000
x264 [info]: using SAR=1/1
x264 [info]: using cpu capabilities: MMX2 SSE2Fast SSSE3 SSE4.2
x264 [info]: profile High, level 4.0
[17:50:16] reader: done. 1 scr changes
[17:50:20] work: average encoding speed for job is 2,812142 fps
[17:50:20] sync: got 3526 frames, 3526 expected
[17:50:20] render: 3526 frames output, 0 dropped and 0 duped for CFR/PFR
[17:50:20] render: lost time: 0 (0 frames)
[17:50:20] render: gained time: 0 (0 frames) (0 not accounted for)
[17:50:20] prores-decoder done: 3526 frames, 0 decoder errors, 0 drops
x264 [info]: frame I:98    Avg QP:12,73  size:406755
x264 [info]: frame P:2736  Avg QP:15,75  size:259563
x264 [info]: frame B:692   Avg QP:14,31  size: 37859
x264 [info]: consecutive B-frames: 71,5%  6,2%  2,2% 20,1%
x264 [info]: mb I  I16..4: 29,7% 57,7% 12,7%
x264 [info]: mb P  I16..4: 19,0% 35,2%  7,8%  P16..4: 11,9%  7,2%  3,3%  0,0%  0,0%    skip:15,5%
x264 [info]: mb B  I16..4:  1,6%  2,7%  0,8%  B16..8:  6,6%  3,4%  0,9%  direct: 3,3%  skip:80,7%  L0:27,3% L1:28,0% BI:44,7%
x264 [info]: 8x8 transform intra:56,7% inter:50,6%
x264 [info]: coded y,uvDC,uvAC intra: 88,4% 89,0% 85,9% inter: 24,8% 22,6% 12,5%
x264 [info]: i16 v,h,dc,p: 23%  7% 43% 27%
x264 [info]: i8 v,h,dc,ddl,ddr,vr,hd,vl,hu: 11% 12% 29%  7%  7%  7%  8%  8% 11%
x264 [info]: i4 v,h,dc,ddl,ddr,vr,hd,vl,hu: 12% 14% 20%  8%  9%  8% 10%  8% 10%
x264 [info]: i8c dc,h,v,p: 75%  8%  7% 10%
x264 [info]: Weighted P-Frames: Y:14,4% UV:9,0%
x264 [info]: ref P L0: 59,0% 12,5% 19,3%  8,5%  0,7%
x264 [info]: ref B L0: 86,0% 13,2%  0,8%
x264 [info]: ref B L1: 96,8%  3,2%
x264 [info]: kb/s:42225,22
[17:50:20] pcm_s24le-decoder done: 0 frames, 0 decoder errors, 0 drops
[17:50:20] mux: track 0, 3526 frames, 776221600 bytes, 42237,07 kbps, fifo 512
[17:50:20] mux: track 1, 1531 frames, 11782799 bytes, 641,15 kbps, fifo 256
[17:50:20] libhb: work result = 0

Post Reply