2011 MacBook Pro 2.3GHz

Post your testing results with HandBrake.
Post Reply
Axman6
Posts: 3
Joined: Sun Mar 06, 2011 8:28 am

2011 MacBook Pro 2.3GHz

Post by Axman6 »

I ran some benchmarks overnight to see how this thing fares. I should note that I did have a Windows 7 VM running at the same time, but it was using minimal CPU, and I had plenty of RAM to spare. I can try running these again if you think this is a big issue. I was somewhat disappointed by these numbers, and by the CPU utilisation, which barely got over 600%. This is my first time benchmarking, so let me know if I've done anything obviously stupid :).

Machine Type: MacBook Pro Early 2011, 15", 8GB RAM, 750GB 5400rpm HDD
CPU Speed: 2.3GHz
Number of CPUs: 1 (4 cores, 8 threads)


Source: Big Buck Bunny 1080p MPEG-4 in AVI container

Preset: Normal
Framerate: 32.362774

Code: Select all

HandBrake Activity Log for /Movies/Big_Buck_Bunny_1080p_surround_frostclick.com_frostwire.com/Big_Buck_Bunny_1080p_surround_FrostWire.com.m4v: 2011-03-08 03:38:04 +1100
Handbrake Version: 0.9.5 x86_64 (2011010300)

[03:38:04] macgui: getNextPendingQueueIndex next pending encode index is:3
[03:38:04] macgui: incrementQueueItemDone new pending items found: 3
[03:38:04] macgui: scanning specifically for title: 1
[03:38:04] hb_scan: path=/Movies/Big_Buck_Bunny_1080p_surround_frostclick.com_frostwire.com/Big_Buck_Bunny_1080p_surround_FrostWire.com.avi, title_index=1
libbluray/bdnav/index_parse.c:157: indx_parse(): error opening /Movies/Big_Buck_Bunny_1080p_surround_frostclick.com_frostwire.com/Big_Buck_Bunny_1080p_surround_FrostWire.com.avi/BDMV/index.bdmv
libbluray/bluray.c:960: nav_get_title_list(/Movies/Big_Buck_Bunny_1080p_surround_frostclick.com_frostwire.com/Big_Buck_Bunny_1080p_surround_FrostWire.com.avi) failed (0x10d23be00)
[03:38:04] bd: not a bd - trying as a stream/file instead
libdvdnav: Using dvdnav version 4.1.3
libdvdread: Using libdvdcss version 1.2.10 for DVD access
libdvdnav:DVDOpenFileUDF:UDFFindFile /VIDEO_TS/VIDEO_TS.IFO failed
libdvdnav:DVDOpenFileUDF:UDFFindFile /VIDEO_TS/VIDEO_TS.BUP failed
libdvdread: Can't open file VIDEO_TS.IFO.
libdvdnav: vm: failed to read VIDEO_TS.IFO
[03:38:04] dvd: not a dvd - trying as a stream/file instead
Input #0, avi, from '/Movies/Big_Buck_Bunny_1080p_surround_frostclick.com_frostwire.com/Big_Buck_Bunny_1080p_surround_FrostWire.com.avi':
  Metadata:
    encoder         : AVI-Mux GUI 1.17.7, Aug  8 2006  20:59:17
    JUNK            : 
  Duration: 00:09:56.45, start: 0.000000, bitrate: 12455 kb/s
    Stream #0.0: Video: mpeg4, yuv420p, 1920x1080 [PAR 1:1 DAR 16:9], 24 tbr, 24 tbn, 24 tbc
    Stream #0.1: Audio: ac3, 48000 Hz, 5.1, s16, 448 kb/s
[03:38:04] scan: decoding previews for title 1
[03:38:04] scan: audio 0x1: AC-3, rate=48000Hz, bitrate=448000 Unknown (AC3) (5.1 ch)
[03:38:04] scan: 10 previews, 1920x1080, 24.000 fps, autocrop = 0/0/0/0, aspect 16:9, PAR 1:1
[03:38:04] scan: title (0) job->width:1920, job->height:1072
[03:38:04] libhb: scan thread found 1 valid title(s)
[03:38:04] macgui: ScanDone state received from fQueueEncodeLibhb
[03:38:04] macgui: Preset: Normal (Default)
[03:38:04] macgui: processNewQueueEncode number of passes expected is: 1
[03:38:04] macgui: Start / Stop set to chapters
[03:38:04] macgui: prepareJob exiting
[03:38:04] 1 job(s) to process
[03:38:04] starting job
[03:38:04] sync: expecting 14339 video frames
[03:38:04] job configuration:
[03:38:04]  * source
[03:38:04]    + /Movies/Big_Buck_Bunny_1080p_surround_frostclick.com_frostwire.com/Big_Buck_Bunny_1080p_surround_FrostWire.com.avi
[03:38:04]    + title 1, chapter(s) 1 to 1
[03:38:04]    + container: avi
[03:38:04]    + data rate: 12455 kbps
[03:38:04]  * destination
[03:38:04]    + /Movies/Big_Buck_Bunny_1080p_surround_frostclick.com_frostwire.com/Big_Buck_Bunny_1080p_surround_FrostWire.com.m4v
[03:38:04]    + container: MPEG-4 (.mp4 and .m4v)
[03:38:04]  * video track
[03:38:04]    + decoder: mpeg4
[03:38:04]    + frame rate: same as source (around 24.000 fps)
[03:38:04]    + strict anamorphic
[03:38:04]      + storage dimensions: 1920 * 1080 -> 1920 * 1080, crop 0/0/0/0, mod 16
[03:38:04]      + pixel aspect ratio: 1 / 1
[03:38:04]      + display dimensions: 1920 * 1080
[03:38:04]    + encoder: x264
[03:38:04]      + options: ref=2:bframes=2:subq=6:mixed-refs=0:weightb=0:8x8dct=0:trellis=0
[03:38:04]      + quality: 20.00 (RF)
[03:38:04]  * audio track 0
[03:38:04]    + decoder: Unknown (AC3) (5.1 ch) (track 1, id 1)
[03:38:04]      + bitrate: 448 kbps, samplerate: 48000 Hz
[03:38:04]    + mixdown: Dolby Pro Logic II
[03:38:04]    + encoder: ca_aac
[03:38:04]      + bitrate: 160 kbps, samplerate: 48000 Hz
[03:38:04] encx264: min-keyint: auto (24), keyint: 240
[03:38:04] encx264: encoding with stored aspect 1/1
[03:38:04] encx264: Encoding at constant RF 20.000000
x264 [info]: using SAR=1/1
x264 [info]: using cpu capabilities: MMX2 SSE2Fast SSSE3 FastShuffle SSE4.2
[03:38:04] reader: first SCR 11520 id 1 DTS 11520
x264 [info]: profile Main, level 4.0
No accelerated IMDCT transform found
[03:45:25] reader: done. 1 scr changes
[03:45:28] work: average encoding speed for job is 32.362774 fps
[03:45:28] sync: got 14315 frames, 14339 expected
[03:45:28] mpeg4-decoder done: 14315 frames, 0 decoder errors, 0 drops
[03:45:28] render: lost time: 0 (0 frames)
[03:45:28] render: gained time: 0 (0 frames) (0 not accounted for)
x264 [info]: frame I:153   Avg QP:13.18  size:261414  PSNR Mean Y:50.59 U:54.54 V:55.36 Avg:51.54 Global:49.74
x264 [info]: frame P:11384 Avg QP:17.57  size: 29333  PSNR Mean Y:46.71 U:50.31 V:51.06 Avg:47.59 Global:46.62
x264 [info]: frame B:2778  Avg QP:23.33  size:  9096  PSNR Mean Y:45.38 U:51.51 V:52.34 Avg:46.36 Global:43.99
x264 [info]: consecutive B-frames: 69.5%  4.3% 26.2%
x264 [info]: mb I  I16..4: 37.1%  0.0% 62.9%
x264 [info]: mb P  I16..4:  3.2%  0.0%  2.2%  P16..4: 34.4%  7.3%  4.7%  0.0%  0.0%    skip:48.2%
x264 [info]: mb B  I16..4:  1.7%  0.0%  1.0%  B16..8: 19.6%  3.9%  0.3%  direct: 5.9%  skip:67.5%  L0:40.4% L1:47.9% BI:11.8%
x264 [info]: coded y,uvDC,uvAC intra: 45.6% 57.7% 29.2% inter: 12.5% 15.3% 2.8%
x264 [info]: i16 v,h,dc,p: 44% 23% 15% 18%
x264 [info]: i4 v,h,dc,ddl,ddr,vr,hd,vl,hu: 28% 17% 19%  5%  7%  8%  6%  6%  5%
x264 [info]: i8c dc,h,v,p: 50% 22% 20%  8%
x264 [info]: Weighted P-Frames: Y:1.3% UV:0.6%
x264 [info]: ref P L0: 76.4% 11.5% 12.1%  0.1%
x264 [info]: ref B L0: 69.8% 30.2%
x264 [info]: ref B L1: 90.2%  9.8%
x264 [info]: SSIM Mean Y:0.9904891 (20.218db)
x264 [info]: PSNR Mean Y:46.492 U:50.585 V:51.351 Avg:47.390 Global:45.993 kb/s:5355.41
[03:45:28] mux: track 0, 14315 frames, 399192366 bytes, 5354.93 kbps, fifo 8
[03:45:28] mux: track 1, 27955 frames, 12395612 bytes, 166.28 kbps, fifo 512
[03:45:28] libhb: work result = 0

Preset: High Profile
Framerate: 16.725519

Code: Select all

HandBrake Activity Log for /Movies/Big_Buck_Bunny_1080p_surround_frostclick.com_frostwire.com/Big_Buck_Bunny_1080p_surround_FrostWire.com.m4v: 2011-03-08 03:45:28 +1100
Handbrake Version: 0.9.5 x86_64 (2011010300)

[03:45:28] macgui: getNextPendingQueueIndex next pending encode index is:4
[03:45:28] macgui: incrementQueueItemDone new pending items found: 4
[03:45:28] macgui: scanning specifically for title: 1
[03:45:28] hb_scan: path=/Movies/Big_Buck_Bunny_1080p_surround_frostclick.com_frostwire.com/Big_Buck_Bunny_1080p_surround_FrostWire.com.avi, title_index=1
libbluray/bdnav/index_parse.c:157: indx_parse(): error opening /Movies/Big_Buck_Bunny_1080p_surround_frostclick.com_frostwire.com/Big_Buck_Bunny_1080p_surround_FrostWire.com.avi/BDMV/index.bdmv
libbluray/bluray.c:960: nav_get_title_list(/Movies/Big_Buck_Bunny_1080p_surround_frostclick.com_frostwire.com/Big_Buck_Bunny_1080p_surround_FrostWire.com.avi) failed (0x10d335e00)
[03:45:28] bd: not a bd - trying as a stream/file instead
libdvdnav: Using dvdnav version 4.1.3
libdvdread: Using libdvdcss version 1.2.10 for DVD access
libdvdnav:DVDOpenFileUDF:UDFFindFile /VIDEO_TS/VIDEO_TS.IFO failed
libdvdnav:DVDOpenFileUDF:UDFFindFile /VIDEO_TS/VIDEO_TS.BUP failed
libdvdread: Can't open file VIDEO_TS.IFO.
libdvdnav: vm: failed to read VIDEO_TS.IFO
[03:45:28] dvd: not a dvd - trying as a stream/file instead
Input #0, avi, from '/Movies/Big_Buck_Bunny_1080p_surround_frostclick.com_frostwire.com/Big_Buck_Bunny_1080p_surround_FrostWire.com.avi':
  Metadata:
    encoder         : AVI-Mux GUI 1.17.7, Aug  8 2006  20:59:17
    JUNK            : 
  Duration: 00:09:56.45, start: 0.000000, bitrate: 12455 kb/s
    Stream #0.0: Video: mpeg4, yuv420p, 1920x1080 [PAR 1:1 DAR 16:9], 24 tbr, 24 tbn, 24 tbc
    Stream #0.1: Audio: ac3, 48000 Hz, 5.1, s16, 448 kb/s
[03:45:28] scan: decoding previews for title 1
[03:45:28] scan: audio 0x1: AC-3, rate=48000Hz, bitrate=448000 Unknown (AC3) (5.1 ch)
[03:45:28] scan: 10 previews, 1920x1080, 24.000 fps, autocrop = 0/0/0/0, aspect 16:9, PAR 1:1
[03:45:28] scan: title (0) job->width:1920, job->height:1072
[03:45:29] libhb: scan thread found 1 valid title(s)
[03:45:29] macgui: ScanDone state received from fQueueEncodeLibhb
[03:45:29] macgui: Preset: High Profile
[03:45:29] macgui: processNewQueueEncode number of passes expected is: 1
[03:45:29] macgui: Start / Stop set to chapters
[03:45:29] macgui: prepareJob exiting
[03:45:29] 1 job(s) to process
[03:45:29] starting job
[03:45:29] sync: expecting 14339 video frames
[03:45:29] job configuration:
[03:45:29]  * source
[03:45:29]    + /Movies/Big_Buck_Bunny_1080p_surround_frostclick.com_frostwire.com/Big_Buck_Bunny_1080p_surround_FrostWire.com.avi
[03:45:29]    + title 1, chapter(s) 1 to 1
[03:45:29]    + container: avi
[03:45:29]    + data rate: 12455 kbps
[03:45:29]  * destination
[03:45:29]    + /Movies/Big_Buck_Bunny_1080p_surround_frostclick.com_frostwire.com/Big_Buck_Bunny_1080p_surround_FrostWire.com.m4v
[03:45:29]    + container: MPEG-4 (.mp4 and .m4v)
[03:45:29]  * video track
[03:45:29]    + decoder: mpeg4
[03:45:29]    + frame rate: same as source (around 24.000 fps)
[03:45:29]    + loose anamorphic
[03:45:29]      + storage dimensions: 1920 * 1080 -> 1920 * 1072, crop 0/0/0/0, mod 16
[03:45:29]      + pixel aspect ratio: 134 / 135
[03:45:29]      + display dimensions: 1905 * 1072
[03:45:29]    + filters
[03:45:29]      + Detelecine (pullup) (default settings)
[03:45:29]      + Decomb (default settings)
[03:45:29]    + encoder: x264
[03:45:29]      + options: b-adapt=2:rc-lookahead=50
[03:45:29]      + quality: 20.00 (RF)
[03:45:29]  * audio track 0
[03:45:29]    + decoder: Unknown (AC3) (5.1 ch) (track 1, id 1)
[03:45:29]      + bitrate: 448 kbps, samplerate: 48000 Hz
[03:45:29]    + mixdown: Dolby Pro Logic II
[03:45:29]    + encoder: ca_aac
[03:45:29]      + bitrate: 160 kbps, samplerate: 48000 Hz
[03:45:29]  * audio track 1
[03:45:29]    + decoder: Unknown (AC3) (5.1 ch) (track 1, id 1)
[03:45:29]      + bitrate: 448 kbps, samplerate: 48000 Hz
[03:45:29]    + AC3 passthrough
[03:45:29] reader: first SCR 11520 id 1 DTS 11520
[03:45:29] yadif thread started for segment 2
[03:45:29] yadif thread started for segment 4
[03:45:29] yadif thread started for segment 0
[03:45:29] yadif thread started for segment 3
[03:45:29] yadif thread started for segment 5
[03:45:29] yadif thread started for segment 1
[03:45:29] yadif thread started for segment 6
[03:45:29] yadif thread started for segment 7
[03:45:29] decomb thread started for segment 0
[03:45:29] decomb thread started for segment 1
[03:45:29] decomb thread started for segment 2
[03:45:29] decomb thread started for segment 3
[03:45:29] decomb thread started for segment 4
[03:45:29] decomb thread started for segment 5
[03:45:29] decomb thread started for segment 6
[03:45:29] decomb thread started for segment 7
[03:45:29] encx264: min-keyint: auto (24), keyint: 240
[03:45:29] encx264: encoding with stored aspect 134/135
[03:45:29] encx264: Encoding at constant RF 20.000000
x264 [info]: using SAR=134/135
x264 [info]: using cpu capabilities: MMX2 SSE2Fast SSSE3 FastShuffle SSE4.2
x264 [info]: profile High, level 4.0
No accelerated IMDCT transform found
No accelerated IMDCT transform found
[03:59:42] reader: done. 1 scr changes
[03:59:47] work: average encoding speed for job is 16.725519 fps
[03:59:47] sync: got 14315 frames, 14339 expected
[03:59:47] mpeg4-decoder done: 14315 frames, 0 decoder errors, 0 drops
[03:59:47] render: lost time: 11250 (3 frames)
[03:59:47] render: gained time: 11250 (12 frames) (0 not accounted for)
[03:59:47] render: average dropped frame duration: 3750
x264 [info]: frame I:145   Avg QP:13.22  size:273282  PSNR Mean Y:50.58 U:53.54 V:54.18 Avg:51.36 Global:50.07
x264 [info]: frame P:6655  Avg QP:17.47  size: 37151  PSNR Mean Y:47.41 U:50.60 V:51.42 Avg:48.19 Global:46.97
x264 [info]: frame B:7511  Avg QP:23.00  size:  9838  PSNR Mean Y:45.71 U:50.02 V:50.81 Avg:46.60 Global:45.32
x264 [info]: consecutive B-frames: 23.1% 10.9% 23.5% 42.5%
x264 [info]: mb I  I16..4: 18.3% 63.2% 18.5%
x264 [info]: mb P  I16..4:  2.4%  5.2%  0.6%  P16..4: 26.7% 11.3%  7.4%  0.0%  0.0%    skip:46.4%
x264 [info]: mb B  I16..4:  0.5%  1.1%  0.1%  B16..8: 26.2%  3.0%  0.6%  direct: 2.6%  skip:65.8%  L0:42.2% L1:48.4% BI: 9.3%
x264 [info]: 8x8 transform intra:63.5% inter:69.7%
x264 [info]: coded y,uvDC,uvAC intra: 58.2% 62.7% 34.6% inter: 13.9% 14.7% 2.6%
x264 [info]: i16 v,h,dc,p: 52% 19%  7% 22%
x264 [info]: i8 v,h,dc,ddl,ddr,vr,hd,vl,hu: 21% 16% 22%  5%  7% 10%  7%  7%  6%
x264 [info]: i4 v,h,dc,ddl,ddr,vr,hd,vl,hu: 26% 16% 14%  5%  9% 10%  7%  7%  5%
x264 [info]: i8c dc,h,v,p: 51% 19% 22%  9%
x264 [info]: Weighted P-Frames: Y:2.1% UV:1.2%
x264 [info]: ref P L0: 70.4% 14.6% 11.5%  3.4%  0.0%
x264 [info]: ref B L0: 88.0% 10.3%  1.7%
x264 [info]: ref B L1: 94.6%  5.4%
x264 [info]: SSIM Mean Y:0.9902173 (20.095db)
x264 [info]: PSNR Mean Y:46.547 U:50.325 V:51.130 Avg:47.389 Global:46.048 kb/s:4840.10
[03:59:47] mux: track 0, 14311 frames, 360754910 bytes, 4839.31 kbps, fifo 8
[03:59:47] mux: track 1, 27955 frames, 12395612 bytes, 166.28 kbps, fifo 512
[03:59:47] mux: track 2, 18636 frames, 33395712 bytes, 447.98 kbps, fifo 256
[03:59:47] decomb: deinterlaced 0 | blended 146 | unfiltered 14165 | total 14311
[03:59:47] libhb: work result = 0

Preset: Universal
Framerate: 118.485474

Code: Select all

HandBrake Activity Log for /Movies/Big_Buck_Bunny_1080p_surround_frostclick.com_frostwire.com/Big_Buck_Bunny_1080p_surround_FrostWire.com.m4v: 2011-03-08 03:59:48 +1100
Handbrake Version: 0.9.5 x86_64 (2011010300)

[03:59:47] macgui: getNextPendingQueueIndex next pending encode index is:5
[03:59:47] macgui: incrementQueueItemDone new pending items found: 5
[03:59:48] macgui: scanning specifically for title: 1
[03:59:48] hb_scan: path=/Movies/Big_Buck_Bunny_1080p_surround_frostclick.com_frostwire.com/Big_Buck_Bunny_1080p_surround_FrostWire.com.avi, title_index=1
libbluray/bdnav/index_parse.c:157: indx_parse(): error opening /Movies/Big_Buck_Bunny_1080p_surround_frostclick.com_frostwire.com/Big_Buck_Bunny_1080p_surround_FrostWire.com.avi/BDMV/index.bdmv
libbluray/bluray.c:960: nav_get_title_list(/Movies/Big_Buck_Bunny_1080p_surround_frostclick.com_frostwire.com/Big_Buck_Bunny_1080p_surround_FrostWire.com.avi) failed (0x10c02e000)
[03:59:48] bd: not a bd - trying as a stream/file instead
libdvdnav: Using dvdnav version 4.1.3
libdvdread: Using libdvdcss version 1.2.10 for DVD access
libdvdnav:DVDOpenFileUDF:UDFFindFile /VIDEO_TS/VIDEO_TS.IFO failed
libdvdnav:DVDOpenFileUDF:UDFFindFile /VIDEO_TS/VIDEO_TS.BUP failed
libdvdread: Can't open file VIDEO_TS.IFO.
libdvdnav: vm: failed to read VIDEO_TS.IFO
[03:59:48] dvd: not a dvd - trying as a stream/file instead
Input #0, avi, from '/Movies/Big_Buck_Bunny_1080p_surround_frostclick.com_frostwire.com/Big_Buck_Bunny_1080p_surround_FrostWire.com.avi':
  Metadata:
    encoder         : AVI-Mux GUI 1.17.7, Aug  8 2006  20:59:17
    JUNK            : 
  Duration: 00:09:56.45, start: 0.000000, bitrate: 12455 kb/s
    Stream #0.0: Video: mpeg4, yuv420p, 1920x1080 [PAR 1:1 DAR 16:9], 24 tbr, 24 tbn, 24 tbc
    Stream #0.1: Audio: ac3, 48000 Hz, 5.1, s16, 448 kb/s
[03:59:48] scan: decoding previews for title 1
[03:59:48] scan: audio 0x1: AC-3, rate=48000Hz, bitrate=448000 Unknown (AC3) (5.1 ch)
[03:59:48] scan: 10 previews, 1920x1080, 24.000 fps, autocrop = 0/0/0/0, aspect 16:9, PAR 1:1
[03:59:48] scan: title (0) job->width:1920, job->height:1072
[03:59:48] libhb: scan thread found 1 valid title(s)
[03:59:48] macgui: ScanDone state received from fQueueEncodeLibhb
[03:59:48] macgui: Preset: Universal
[03:59:48] macgui: processNewQueueEncode number of passes expected is: 1
[03:59:48] macgui: Start / Stop set to chapters
[03:59:48] macgui: prepareJob exiting
[03:59:48] 1 job(s) to process
[03:59:48] starting job
[03:59:48] sync: expecting 14339 video frames
[03:59:48] job configuration:
[03:59:48]  * source
[03:59:48]    + /Movies/Big_Buck_Bunny_1080p_surround_frostclick.com_frostwire.com/Big_Buck_Bunny_1080p_surround_FrostWire.com.avi
[03:59:48]    + title 1, chapter(s) 1 to 1
[03:59:48]    + container: avi
[03:59:48]    + data rate: 12455 kbps
[03:59:48]  * destination
[03:59:48]    + /Movies/Big_Buck_Bunny_1080p_surround_frostclick.com_frostwire.com/Big_Buck_Bunny_1080p_surround_FrostWire.com.m4v
[03:59:48]    + container: MPEG-4 (.mp4 and .m4v)
[03:59:48]  * video track
[03:59:48]    + decoder: mpeg4
[03:59:48]    + frame rate: same as source (around 24.000 fps)
[03:59:48]    + loose anamorphic
[03:59:48]      + storage dimensions: 1920 * 1080 -> 720 * 400, crop 0/0/0/0, mod 16
[03:59:48]      + pixel aspect ratio: 80 / 81
[03:59:48]      + display dimensions: 711 * 400
[03:59:48]    + encoder: x264
[03:59:48]      + options: cabac=0:ref=2:me=umh:bframes=0:weightp=0:8x8dct=0:trellis=0:subq=6
[03:59:48]      + quality: 20.00 (RF)
[03:59:48]  * audio track 0
[03:59:48]    + decoder: Unknown (AC3) (5.1 ch) (track 1, id 1)
[03:59:48]      + bitrate: 448 kbps, samplerate: 48000 Hz
[03:59:48]    + mixdown: Dolby Pro Logic II
[03:59:48]    + encoder: ca_aac
[03:59:48]      + bitrate: 160 kbps, samplerate: 48000 Hz
[03:59:48]  * audio track 1
[03:59:48]    + decoder: Unknown (AC3) (5.1 ch) (track 1, id 1)
[03:59:48]      + bitrate: 448 kbps, samplerate: 48000 Hz
[03:59:48]    + AC3 passthrough
[03:59:48] encx264: min-keyint: auto (24), keyint: 240
[03:59:48] encx264: encoding with stored aspect 80/81
[03:59:48] encx264: Encoding at constant RF 20.000000
x264 [info]: using SAR=80/81
x264 [info]: using cpu capabilities: MMX2 SSE2Fast SSSE3 FastShuffle SSE4.2
[03:59:48] reader: first SCR 11520 id 1 DTS 11520
x264 [info]: profile Constrained Baseline, level 3.0
No accelerated IMDCT transform found
No accelerated IMDCT transform found
[04:01:48] reader: done. 1 scr changes
[04:01:49] work: average encoding speed for job is 118.485474 fps
[04:01:49] sync: got 14315 frames, 14339 expected
[04:01:49] mpeg4-decoder done: 14315 frames, 0 decoder errors, 0 drops
[04:01:49] render: lost time: 0 (0 frames)
[04:01:49] render: gained time: 0 (0 frames) (0 not accounted for)
x264 [info]: frame I:171   Avg QP:15.26  size: 57556  PSNR Mean Y:48.25 U:51.46 V:51.97 Avg:49.01 Global:46.98
x264 [info]: frame P:14144 Avg QP:20.11  size:  6580  PSNR Mean Y:43.90 U:47.41 V:47.98 Avg:44.69 Global:43.57
x264 [info]: mb I  I16..4: 25.4%  0.0% 74.6%
x264 [info]: mb P  I16..4:  1.1%  0.0%  1.8%  P16..4: 31.0% 12.6%  5.6%  0.0%  0.0%    skip:47.9%
x264 [info]: coded y,uvDC,uvAC intra: 63.2% 73.2% 54.7% inter: 19.7% 16.0% 5.1%
x264 [info]: i16 v,h,dc,p: 43% 24% 10% 23%
x264 [info]: i4 v,h,dc,ddl,ddr,vr,hd,vl,hu: 20% 18% 15%  6%  9% 10%  8%  8%  7%
x264 [info]: i8c dc,h,v,p: 50% 22% 16% 11%
x264 [info]: ref P L0: 75.7% 24.3%
x264 [info]: SSIM Mean Y:0.9878963 (19.171db)
x264 [info]: PSNR Mean Y:43.948 U:47.460 V:48.024 Avg:44.740 Global:43.599 kb/s:1380.55
[04:01:49] mux: track 0, 14315 frames, 102901533 bytes, 1380.36 kbps, fifo 8
[04:01:49] mux: track 1, 27955 frames, 12395608 bytes, 166.28 kbps, fifo 512
[04:01:49] mux: track 2, 18636 frames, 33395712 bytes, 447.98 kbps, fifo 256
[04:01:49] libhb: work result = 0

Preset: AppleTV 2
Framerate: 44.170246

Code: Select all

HandBrake Activity Log for /Movies/Big_Buck_Bunny_1080p_surround_frostclick.com_frostwire.com/Big_Buck_Bunny_1080p_surround_FrostWire.com.m4v: 2011-03-08 04:01:49 +1100
Handbrake Version: 0.9.5 x86_64 (2011010300)

[04:01:49] macgui: getNextPendingQueueIndex next pending encode index is:6
[04:01:49] macgui: incrementQueueItemDone new pending items found: 6
[04:01:49] macgui: scanning specifically for title: 1
[04:01:49] hb_scan: path=/Movies/Big_Buck_Bunny_1080p_surround_frostclick.com_frostwire.com/Big_Buck_Bunny_1080p_surround_FrostWire.com.avi, title_index=1
libbluray/bdnav/index_parse.c:157: indx_parse(): error opening /Movies/Big_Buck_Bunny_1080p_surround_frostclick.com_frostwire.com/Big_Buck_Bunny_1080p_surround_FrostWire.com.avi/BDMV/index.bdmv
libbluray/bluray.c:960: nav_get_title_list(/Movies/Big_Buck_Bunny_1080p_surround_frostclick.com_frostwire.com/Big_Buck_Bunny_1080p_surround_FrostWire.com.avi) failed (0x10c234400)
[04:01:49] bd: not a bd - trying as a stream/file instead
libdvdnav: Using dvdnav version 4.1.3
libdvdread: Using libdvdcss version 1.2.10 for DVD access
libdvdnav:DVDOpenFileUDF:UDFFindFile /VIDEO_TS/VIDEO_TS.IFO failed
libdvdnav:DVDOpenFileUDF:UDFFindFile /VIDEO_TS/VIDEO_TS.BUP failed
libdvdread: Can't open file VIDEO_TS.IFO.
libdvdnav: vm: failed to read VIDEO_TS.IFO
[04:01:49] dvd: not a dvd - trying as a stream/file instead
Input #0, avi, from '/Movies/Big_Buck_Bunny_1080p_surround_frostclick.com_frostwire.com/Big_Buck_Bunny_1080p_surround_FrostWire.com.avi':
  Metadata:
    encoder         : AVI-Mux GUI 1.17.7, Aug  8 2006  20:59:17
    JUNK            : 
  Duration: 00:09:56.45, start: 0.000000, bitrate: 12455 kb/s
    Stream #0.0: Video: mpeg4, yuv420p, 1920x1080 [PAR 1:1 DAR 16:9], 24 tbr, 24 tbn, 24 tbc
    Stream #0.1: Audio: ac3, 48000 Hz, 5.1, s16, 448 kb/s
[04:01:49] scan: decoding previews for title 1
[04:01:49] scan: audio 0x1: AC-3, rate=48000Hz, bitrate=448000 Unknown (AC3) (5.1 ch)
[04:01:50] scan: 10 previews, 1920x1080, 24.000 fps, autocrop = 0/0/0/0, aspect 16:9, PAR 1:1
[04:01:50] scan: title (0) job->width:1920, job->height:1072
[04:01:50] libhb: scan thread found 1 valid title(s)
[04:01:50] macgui: ScanDone state received from fQueueEncodeLibhb
[04:01:50] macgui: Preset: AppleTV 2
[04:01:50] macgui: processNewQueueEncode number of passes expected is: 1
[04:01:50] macgui: Start / Stop set to chapters
[04:01:50] macgui: prepareJob exiting
[04:01:50] 1 job(s) to process
[04:01:50] starting job
[04:01:50] sync: expecting 14339 video frames
[04:01:50] job configuration:
[04:01:50]  * source
[04:01:50]    + /Movies/Big_Buck_Bunny_1080p_surround_frostclick.com_frostwire.com/Big_Buck_Bunny_1080p_surround_FrostWire.com.avi
[04:01:50]    + title 1, chapter(s) 1 to 1
[04:01:50]    + container: avi
[04:01:50]    + data rate: 12455 kbps
[04:01:50]  * destination
[04:01:50]    + /Movies/Big_Buck_Bunny_1080p_surround_frostclick.com_frostwire.com/Big_Buck_Bunny_1080p_surround_FrostWire.com.m4v
[04:01:50]    + container: MPEG-4 (.mp4 and .m4v)
[04:01:50]      + 64-bit formatting
[04:01:50]  * video track
[04:01:50]    + decoder: mpeg4
[04:01:50]    + frame rate: 24.000 fps -> peak rate limited to 29.970 fps
[04:01:50]    + loose anamorphic
[04:01:50]      + storage dimensions: 1920 * 1080 -> 1280 * 720, crop 0/0/0/0, mod 16
[04:01:50]      + pixel aspect ratio: 1 / 1
[04:01:50]      + display dimensions: 1280 * 720
[04:01:50]    + encoder: x264
[04:01:50]      + quality: 20.00 (RF)
[04:01:50]  * audio track 0
[04:01:50]    + decoder: Unknown (AC3) (5.1 ch) (track 1, id 1)
[04:01:50]      + bitrate: 448 kbps, samplerate: 48000 Hz
[04:01:50]    + mixdown: Dolby Pro Logic II
[04:01:50]    + encoder: ca_aac
[04:01:50]      + bitrate: 160 kbps, samplerate: 48000 Hz
[04:01:50]  * audio track 1
[04:01:50]    + decoder: Unknown (AC3) (5.1 ch) (track 1, id 1)
[04:01:50]      + bitrate: 448 kbps, samplerate: 48000 Hz
[04:01:50]    + AC3 passthrough
[04:01:50] encx264: min-keyint: auto (29), keyint: 300
[04:01:50] encx264: encoding with stored aspect 1/1
[04:01:50] encx264: Encoding at constant RF 20.000000
x264 [info]: using SAR=1/1
[04:01:50] reader: first SCR 11520 id 1 DTS 11520
x264 [info]: using cpu capabilities: MMX2 SSE2Fast SSSE3 FastShuffle SSE4.2
x264 [info]: profile High, level 3.1
No accelerated IMDCT transform found
No accelerated IMDCT transform found
[04:07:13] reader: done. 1 scr changes
[04:07:15] work: average encoding speed for job is 44.170246 fps
[04:07:15] sync: got 14315 frames, 14339 expected
[04:07:15] mpeg4-decoder done: 14315 frames, 0 decoder errors, 0 drops
[04:07:15] render: 14313 frames output, 2 dropped and 0 duped for CFR/PFR
[04:07:15] render: lost time: 0 (0 frames)
[04:07:15] render: gained time: 0 (0 frames) (0 not accounted for)
x264 [info]: frame I:146   Avg QP:13.95  size:151912  PSNR Mean Y:49.32 U:52.16 V:52.64 Avg:50.07 Global:48.81
x264 [info]: frame P:5809  Avg QP:18.29  size: 21240  PSNR Mean Y:45.79 U:49.38 V:50.07 Avg:46.58 Global:45.55
x264 [info]: frame B:8358  Avg QP:23.84  size:  3718  PSNR Mean Y:45.30 U:48.99 V:49.72 Avg:46.11 Global:44.94
x264 [info]: consecutive B-frames: 15.1% 14.5% 12.6% 57.8%
x264 [info]: mb I  I16..4: 12.5% 57.1% 30.4%
x264 [info]: mb P  I16..4:  2.3%  5.2%  0.9%  P16..4: 27.1% 13.1%  9.0%  0.0%  0.0%    skip:42.4%
x264 [info]: mb B  I16..4:  0.2%  0.6%  0.2%  B16..8: 24.3%  2.6%  0.6%  direct: 1.5%  skip:70.0%  L0:38.4% L1:53.2% BI: 8.4%
x264 [info]: 8x8 transform intra:61.4% inter:65.6%
x264 [info]: coded y,uvDC,uvAC intra: 61.9% 68.0% 43.9% inter: 13.4% 13.6% 2.9%
x264 [info]: i16 v,h,dc,p: 50% 22%  6% 22%
x264 [info]: i8 v,h,dc,ddl,ddr,vr,hd,vl,hu: 18% 16% 17%  6%  8% 11%  8%  8%  8%
x264 [info]: i4 v,h,dc,ddl,ddr,vr,hd,vl,hu: 22% 17% 13%  6% 10% 11%  9%  7%  6%
x264 [info]: i8c dc,h,v,p: 51% 22% 17% 11%
x264 [info]: Weighted P-Frames: Y:3.6% UV:1.8%
x264 [info]: ref P L0: 65.2% 16.4% 14.0%  4.4%  0.1%
x264 [info]: ref B L0: 90.1%  8.3%  1.6%
x264 [info]: ref B L1: 94.6%  5.4%
x264 [info]: SSIM Mean Y:0.9893424 (19.723db)
x264 [info]: PSNR Mean Y:45.539 U:49.180 V:49.892 Avg:46.343 Global:45.203 kb/s:2369.61
[04:07:15] mux: track 0, 14313 frames, 176627713 bytes, 2369.40 kbps, fifo 8
[04:07:15] mux: track 1, 27955 frames, 12395612 bytes, 166.28 kbps, fifo 512
[04:07:15] mux: track 2, 18636 frames, 33395712 bytes, 447.99 kbps, fifo 256
[04:07:15] libhb: work result = 0
User avatar
Rodeo
HandBrake Team
Posts: 12679
Joined: Tue Mar 03, 2009 8:55 pm

Re: 2011 MacBook Pro 2.3GHz

Post by Rodeo »

No, these speeds seem correct for a 1080p source. It's faster than my iMac (Core i5-760, Quad 2.8 GHz, 4 threads). I get ~90 fps for Universal, ~35 fps for AppleTV 2, ~28 fps for Normal and ~14 fps for High Profile on that Frostwire BBB torrent.

600% CPU usage seems all right too (the detelecine filter, enabled in the High Profile preset - and more importantly, video decoding - aren't threaded; CPU usage may be a bit better with SD sources).
rogue23
Regular User
Posts: 137
Joined: Thu Dec 16, 2010 7:51 pm

Re: 2011 MacBook Pro 2.3GHz

Post by rogue23 »

You're disappointed by 600% CPU utilization on a 4 core machine?

Those numbers seem reasonable to me on a laptop.
TedJ
Veteran User
Posts: 5388
Joined: Wed Feb 20, 2008 11:25 pm

Re: 2011 MacBook Pro 2.3GHz

Post by TedJ »

8 virtual cores once you factor in hyper-threading. Those numbers look VERY good for a Macbook Pro. I may post some numbers for my 2007 Macbook Pro (2.4 GHz Core 2 Duo) as a comparison.

The new Macbook Pro is very much on my to buy list, although I'm also looking for the next iMac refresh with Sandy Bridge.

EDIT: For comparison, here is the same source/presets as encoded by my 3.5 year old machine, using Handbrake svn3841.

Code: Select all

Normal: 8.591 fps
High Profile: 3.555 fps
Universal: 26.090 fps
Apple TV 2: 9.765 fps
User avatar
Rodeo
HandBrake Team
Posts: 12679
Joined: Tue Mar 03, 2009 8:55 pm

Re: 2011 MacBook Pro 2.3GHz

Post by Rodeo »

TedJ wrote:The new Macbook Pro is very much on my to buy list, although I'm also looking for the next iMac refresh with Sandy Bridge.
A 3.4 GHz quad-core i7 would certainly be fast :-)
alehel
Regular User
Posts: 83
Joined: Wed Feb 14, 2007 11:08 am

Re: 2011 MacBook Pro 2.3GHz

Post by alehel »

TedJ wrote: EDIT: For comparison, here is the same source/presets as encoded by my 3.5 year old machine, using Handbrake svn3841.

Code: Select all

Normal: 8.591 fps
High Profile: 3.555 fps
Universal: 26.090 fps
Apple TV 2: 9.765 fps
That's more or less the same as my 2,5 GHz Macbook Pro from early 2008. I'm doing an encode now of the blu-ray of I am Legend with a framerate of 4.0 at High profile. Wish I had the funds for one of the new ones. Looks like a great machine. Being a student though, I'll probably wait another 2 1/2 years before I get a replacement as that's when my education will be done. Unless my current one dies on me before then of course.
Post Reply