Mac Pro 6-core Westmere (Intel W3680)

Post your testing results with HandBrake.
Post Reply
User avatar
BradleyS
Moderator
Posts: 1859
Joined: Thu Aug 09, 2007 12:16 pm

Mac Pro 6-core Westmere (Intel W3680)

Post by BradleyS »

Source: Big Buck Bunny 1080p MPEG-4 video in AVI container.

Preset: Normal
Result: 51.030678 fps

Code: Select all

HandBrake Activity Log for /Volumes/Tsukkia/Scratch/bbb-1080p-normal.mp4: 2010-09-17 19:26:25 -0400
Handbrake Version: svn3540 x86_64 (2010091701)

[19:26:25] macgui: Rip: Pending queue count is 0
[19:26:25] macgui: getNextPendingQueueIndex next pending encod index is:3
[19:26:25] macgui: scanning specifically for title: 1
[19:26:25] hb_scan: path=/Volumes/Myrkr/Torrent/Big_Buck_Bunny_1080p_surround_frostclick.com_frostwire.com/Big_Buck_Bunny_1080p_surround_FrostWire.com.avi, title_index=1
[19:26:25] thread 11e153000 started ("scan")
libbluray/bdnav/index_parse.c:157: indx_parse(): error opening /Volumes/Myrkr/Torrent/Big_Buck_Bunny_1080p_surround_frostclick.com_frostwire.com/Big_Buck_Bunny_1080p_surround_FrostWire.com.avi/BDMV/index.bdmv
libbluray/bluray.c:960: nav_get_title_list(/Volumes/Myrkr/Torrent/Big_Buck_Bunny_1080p_surround_frostclick.com_frostwire.com/Big_Buck_Bunny_1080p_surround_FrostWire.com.avi) failed (0x103029600)
[19:26:25] bd: not a bd - trying as a stream/file instead
libdvdnav: Using dvdnav version 4.1.3
libdvdread: Using libdvdcss version 1.2.10 for DVD access
libdvdnav:DVDOpenFileUDF:UDFFindFile /VIDEO_TS/VIDEO_TS.IFO failed
libdvdnav:DVDOpenFileUDF:UDFFindFile /VIDEO_TS/VIDEO_TS.BUP failed
libdvdread: Can't open file VIDEO_TS.IFO.
libdvdnav: vm: failed to read VIDEO_TS.IFO
[19:26:25] dvd: not a dvd - trying as a stream/file instead
Input #0, avi, from '/Volumes/Myrkr/Torrent/Big_Buck_Bunny_1080p_surround_frostclick.com_frostwire.com/Big_Buck_Bunny_1080p_surround_FrostWire.com.avi':
  Metadata:
    ISFT            : AVI-Mux GUI 1.17.7, Aug  8 2006  20:59:17
    JUNK            : 
  Duration: 00:09:56.45, start: 0.000000, bitrate: 12455 kb/s
    Stream #0.0: Video: mpeg4, yuv420p, 1920x1080 [PAR 1:1 DAR 16:9], 24 tbr, 24 tbn, 24 tbc
    Stream #0.1: Audio: ac3, 48000 Hz, 5.1, s16, 448 kb/s
[19:26:25] Found ffmpeg 0 chapters, container=avi
[19:26:25] scan: decoding previews for title 1
[19:26:25] scan: preview 1
[19:26:25] fifo_close: trashing 0 buffer(s)
[19:26:25] scan: audio 0x1: AC-3, rate=48000Hz, bitrate=448000 Unknown (AC3) (5.1 ch)
[19:26:25] scan: preview 2
[19:26:25] scan: preview 3
[19:26:25] scan: preview 4
[19:26:25] scan: preview 5
[19:26:25] scan: preview 6
[19:26:25] scan: preview 7
[19:26:25] scan: preview 8
[19:26:25] scan: preview 9
[19:26:25] scan: preview 10
[19:26:25] scan: 10 previews, 1920x1080, 24.000 fps, autocrop = 0/0/0/0, aspect 16:9, PAR 1:1
[19:26:25] scan: title (0) job->width:1920, job->height:1072
[19:26:25] thread 11e153000 exited ("scan")
[19:26:25] thread 11e153000 joined ("scan")
[19:26:25] libhb: scan thread found 1 valid title(s)
[19:26:26] macgui: ScanDone state received from fQueueEncodeLibhb
[19:26:26] macgui: Preset: Normal (Default)
[19:26:26] macgui: processNewQueueEncode number of passes expected is: 1
[19:26:26] macgui: Start / Stop set to chapters
[19:26:26] macgui: prepareJob exiting
[19:26:26] thread 11e153000 started ("work")
[19:26:26] 1 job(s) to process
[19:26:26] starting job
[19:26:26] sync: expecting 14339 video frames
[19:26:26] job configuration:
[19:26:26]  * source
[19:26:26]    + /Volumes/Myrkr/Torrent/Big_Buck_Bunny_1080p_surround_frostclick.com_frostwire.com/Big_Buck_Bunny_1080p_surround_FrostWire.com.avi
[19:26:26]    + title 1, chapter(s) 1 to 1
[19:26:26]    + container: avi
[19:26:26]    + data rate: 12455 kbps
[19:26:26]  * destination
[19:26:26]    + /Volumes/Tsukkia/Scratch/bbb-1080p-normal.mp4
[19:26:26]    + container: MPEG-4 (.mp4 and .m4v)
[19:26:26]  * video track
[19:26:26]    + decoder: mpeg4
[19:26:26]    + frame rate: same as source (around 24.000 fps)
[19:26:26]    + strict anamorphic
[19:26:26]      + storage dimensions: 1920 * 1080 -> 1920 * 1080, crop 0/0/0/0, mod 16
[19:26:26]      + pixel aspect ratio: 1 / 1
[19:26:26]      + display dimensions: 1920 * 1080
[19:26:26]    + encoder: x264
[19:26:26]      + options: ref=2:bframes=2:subq=6:mixed-refs=0:weightb=0:8x8dct=0:trellis=0
[19:26:26]      + quality: 20.00 (RF)
[19:26:26]  * audio track 0
[19:26:26]    + decoder: Unknown (AC3) (5.1 ch) (track 1, id 1)
[19:26:26]      + bitrate: 448 kbps, samplerate: 48000 Hz
[19:26:26]    + mixdown: Dolby Pro Logic II
[19:26:26]    + encoder: ca_aac
[19:26:26]      + bitrate: 160 kbps, samplerate: 48000 Hz
[19:26:26] thread 11f3e0000 started ("reader")
[19:26:26] thread 11f463000 started ("AudioSynchronization")
[19:26:26] thread 11f4e6000 started ("Video decoder (ffmpeg streams)")
[19:26:26] thread 11f569000 started ("Renderer")
[19:26:26] encx264: min-keyint: 24, keyint: 240
[19:26:26] encx264: encoding with stored aspect 1/1
[19:26:26] encx264: Encoding at constant RF 20.000000
[19:26:26] encx264: opening libx264 (pass 0)
x264 [info]: using SAR=1/1
x264 [info]: using cpu capabilities: MMX2 SSE2Fast SSSE3 FastShuffle SSE4.2
[19:26:26] Seeking to chapter 1: starts 0, ends 53681164, AV pos 0
[19:26:26] reader: first SCR 11520 id 1 DTS 11520
x264 [info]: profile Main, level 4.0
[19:26:26] thread 1312a1000 started ("H.264/AVC encoder (libx264)")
No accelerated IMDCT transform found
[19:26:26] thread 131324000 started ("AC3 decoder")
[19:26:26] thread 131847000 started ("AAC encoder (Apple)")
[19:26:26] thread 1318ca000 started ("Video Synchronization")
[19:26:26] muxmp4: track 0, chunk duration 15000
[19:26:26] muxmp4: track 1, chunk duration 8000
[19:26:26] thread 13194d000 started ("Muxer")
[19:31:05] reader: done. 1 scr changes
[19:31:05] thread 11f3e0000 exited ("reader")
[19:31:07] work: average encoding speed for job is 51.030678 fps
[19:31:07] thread 1318ca000 exited ("Video Synchronization")
[19:31:07] thread 1318ca000 joined ("Video Synchronization")
[19:31:07] sync: got 14315 frames, 14339 expected
[19:31:07] thread 11f463000 exited ("AudioSynchronization")
[19:31:07] thread 11f463000 joined ("AudioSynchronization")
[19:31:07] thread 131324000 exited ("AC3 decoder")
[19:31:07] thread 13194d000 exited ("Muxer")
[19:31:07] thread 131847000 exited ("AAC encoder (Apple)")
[19:31:07] thread 11f569000 exited ("Renderer")
[19:31:07] thread 11f4e6000 exited ("Video decoder (ffmpeg streams)")
[19:31:07] thread 11f4e6000 joined ("Video decoder (ffmpeg streams)")
[19:31:07] mpeg4-decoder done: 14315 frames, 0 decoder errors, 0 drops
[19:31:07] thread 11f569000 joined ("Renderer")
[19:31:07] render: lost time: 0 (0 frames)
[19:31:07] render: gained time: 0 (0 frames) (0 not accounted for)
[19:31:07] fifo_close: trashing 0 buffer(s)
[19:31:07] fifo_close: trashing 0 buffer(s)
[19:31:07] thread 1312a1000 exited ("H.264/AVC encoder (libx264)")
[19:31:07] thread 1312a1000 joined ("H.264/AVC encoder (libx264)")
x264 [info]: frame I:154   Avg QP:14.10  size:255734  PSNR Mean Y:50.88 U:54.93 V:55.77 Avg:51.83 Global:49.83
x264 [info]: frame P:11361 Avg QP:17.70  size: 29302  PSNR Mean Y:46.69 U:50.26 V:51.01 Avg:47.57 Global:46.62
x264 [info]: frame B:2800  Avg QP:23.19  size:  9157  PSNR Mean Y:45.44 U:51.49 V:52.30 Avg:46.40 Global:44.00
x264 [info]: consecutive B-frames: 69.2%  4.4% 26.4%
x264 [info]: mb I  I16..4: 38.4%  0.0% 61.6%
x264 [info]: mb P  I16..4:  3.1%  0.0%  2.2%  P16..4: 34.3%  7.4%  4.7%  0.0%  0.0%    skip:48.3%
x264 [info]: mb B  I16..4:  1.9%  0.0%  1.0%  B16..8: 19.5%  3.9%  0.3%  direct: 6.1%  skip:67.2%  L0:40.4% L1:47.8% BI:11.8%
x264 [info]: coded y,uvDC,uvAC intra: 45.6% 58.1% 29.3% inter: 12.5% 15.3% 2.8%
x264 [info]: i16 v,h,dc,p: 44% 23% 15% 19%
x264 [info]: i4 v,h,dc,ddl,ddr,vr,hd,vl,hu: 28% 17% 19%  5%  7%  8%  6%  6%  5%
x264 [info]: i8c dc,h,v,p: 50% 22% 20%  8%
x264 [info]: Weighted P-Frames: Y:1.0%
x264 [info]: ref P L0: 76.5% 11.4% 12.1%  0.1%
x264 [info]: ref B L0: 69.8% 30.2%
x264 [info]: ref B L1: 90.2%  9.8%
x264 [info]: SSIM Mean Y:0.9904727 (20.210db)
x264 [info]: PSNR Mean Y:46.488 U:50.554 V:51.313 Avg:47.383 Global:45.987 kb/s:5338.35
[19:31:07] thread 131324000 joined ("AC3 decoder")
[19:31:07] thread 131847000 joined ("AAC encoder (Apple)")
[19:31:07] thread 13194d000 joined ("Muxer")
[19:31:07] mux: file size, 410647436 bytes
[19:31:07] mux: track 0, 14315 frames, 397920850 bytes, 5337.87 kbps, fifo 8
[19:31:07] mux: video bitrate error, +397920850 bytes
[19:31:07] mux: track 1, 27955 frames, 12468334 bytes, 167.26 kbps, fifo 512
[19:31:07] mux: overhead, 6.11 bytes per frame
[19:31:07] thread 11f3e0000 joined ("reader")
[19:31:07] fifo_close: trashing 0 buffer(s)
[19:31:07] fifo_close: trashing 0 buffer(s)
[19:31:07] fifo_close: trashing 0 buffer(s)
[19:31:07] fifo_close: trashing 0 buffer(s)
[19:31:07] fifo_close: trashing 0 buffer(s)
[19:31:07] fifo_close: trashing 0 buffer(s)
[19:31:07] fifo_close: trashing 0 buffer(s)
[19:31:07] fifo_close: trashing 0 buffer(s)
[19:31:07] fifo_close: trashing 0 buffer(s)
[19:31:07] Freed 32 buffers of size 2048
[19:31:07] Freed 1 buffers of size 8192
[19:31:07] Freed 32 buffers of size 16384
[19:31:07] Freed 32 buffers of size 32768
[19:31:07] Freed 32 buffers of size 65536
[19:31:07] Freed 32 buffers of size 131072
[19:31:07] Freed 32 buffers of size 262144
[19:31:07] Freed 32 buffers of size 524288
[19:31:07] Freed 32 buffers of size 1048576
[19:31:07] Freed 32 buffers of size 4194304
[19:31:07] Allocated 200876032 bytes of buffers on this pass and Freed 200876032 bytes, 0 bytes leaked
[19:31:07] thread 11e153000 exited ("work")
[19:31:07] thread 11e153000 joined ("work")
[19:31:07] libhb: work result = 0
Preset: High Profile, mod 8 (avoid scaling), no picture filters
Result: 28.744858 fps

Code: Select all

HandBrake Activity Log for /Volumes/Tsukkia/Scratch/bbb-1080p-hp-mod8-nofilters.m4v: 2010-09-17 18:56:23 -0400
Handbrake Version: svn3540 x86_64 (2010091701)

[18:56:23] macgui: Rip: Pending queue count is 0
[18:56:23] macgui: getNextPendingQueueIndex next pending encod index is:0
[18:56:23] macgui: scanning specifically for title: 1
[18:56:23] hb_scan: path=/Volumes/Myrkr/Torrent/Big_Buck_Bunny_1080p_surround_frostclick.com_frostwire.com/bbb-1080p-hp-mod8-nofilters.avi, title_index=1
[18:56:23] thread 1199f9000 started ("scan")
libbluray/bdnav/index_parse.c:157: indx_parse(): error opening /Volumes/Myrkr/Torrent/Big_Buck_Bunny_1080p_surround_frostclick.com_frostwire.com/bbb-1080p-hp-mod8-nofilters.avi/BDMV/index.bdmv
libbluray/bluray.c:960: nav_get_title_list(/Volumes/Myrkr/Torrent/Big_Buck_Bunny_1080p_surround_frostclick.com_frostwire.com/bbb-1080p-hp-mod8-nofilters.avi) failed (0x105026200)
[18:56:23] bd: not a bd - trying as a stream/file instead
libdvdnav: Using dvdnav version 4.1.3
libdvdread: Using libdvdcss version 1.2.10 for DVD access
libdvdnav:DVDOpenFileUDF:UDFFindFile /VIDEO_TS/VIDEO_TS.IFO failed
libdvdnav:DVDOpenFileUDF:UDFFindFile /VIDEO_TS/VIDEO_TS.BUP failed
libdvdread: Can't open file VIDEO_TS.IFO.
libdvdnav: vm: failed to read VIDEO_TS.IFO
[18:56:23] dvd: not a dvd - trying as a stream/file instead
Input #0, avi, from '/Volumes/Myrkr/Torrent/Big_Buck_Bunny_1080p_surround_frostclick.com_frostwire.com/bbb-1080p-hp-mod8-nofilters.avi':
  Metadata:
    ISFT            : AVI-Mux GUI 1.17.7, Aug  8 2006  20:59:17
    JUNK            : 
  Duration: 00:09:56.45, start: 0.000000, bitrate: 12455 kb/s
    Stream #0.0: Video: mpeg4, yuv420p, 1920x1080 [PAR 1:1 DAR 16:9], 24 tbr, 24 tbn, 24 tbc
    Stream #0.1: Audio: ac3, 48000 Hz, 5.1, s16, 448 kb/s
[18:56:23] Found ffmpeg 0 chapters, container=avi
[18:56:23] scan: decoding previews for title 1
[18:56:23] scan: preview 1
[18:56:23] fifo_close: trashing 0 buffer(s)
[18:56:23] scan: audio 0x1: AC-3, rate=48000Hz, bitrate=448000 Unknown (AC3) (5.1 ch)
[18:56:23] scan: preview 2
[18:56:23] scan: preview 3
[18:56:23] scan: preview 4
[18:56:23] scan: preview 5
[18:56:23] scan: preview 6
[18:56:23] scan: preview 7
[18:56:23] scan: preview 8
[18:56:23] scan: preview 9
[18:56:23] scan: preview 10
[18:56:23] scan: 10 previews, 1920x1080, 24.000 fps, autocrop = 0/0/0/0, aspect 16:9, PAR 1:1
[18:56:23] scan: title (0) job->width:1920, job->height:1072
[18:56:23] thread 1199f9000 exited ("scan")
[18:56:23] thread 1199f9000 joined ("scan")
[18:56:23] libhb: scan thread found 1 valid title(s)
[18:56:23] macgui: ScanDone state received from fQueueEncodeLibhb
[18:56:23] macgui: Preset: High Profile
[18:56:23] macgui: processNewQueueEncode number of passes expected is: 1
[18:56:23] macgui: Start / Stop set to chapters
[18:56:23] macgui: prepareJob exiting
[18:56:23] thread 1199f9000 started ("work")
[18:56:23] 1 job(s) to process
[18:56:23] starting job
[18:56:23] sync: expecting 14339 video frames
[18:56:23] job configuration:
[18:56:23]  * source
[18:56:23]    + /Volumes/Myrkr/Torrent/Big_Buck_Bunny_1080p_surround_frostclick.com_frostwire.com/bbb-1080p-hp-mod8-nofilters.avi
[18:56:23]    + title 1, chapter(s) 1 to 1
[18:56:23]    + container: avi
[18:56:23]    + data rate: 12455 kbps
[18:56:23]  * destination
[18:56:23]    + /Volumes/Tsukkia/Scratch/bbb-1080p-hp-mod8-nofilters.m4v
[18:56:23]    + container: MPEG-4 (.mp4 and .m4v)
[18:56:23]  * video track
[18:56:23]    + decoder: mpeg4
[18:56:23]    + frame rate: same as source (around 24.000 fps)
[18:56:23]    + loose anamorphic
[18:56:23]      + storage dimensions: 1920 * 1080 -> 1920 * 1080, crop 0/0/0/0, mod 8
[18:56:23]      + pixel aspect ratio: 1 / 1
[18:56:23]      + display dimensions: 1920 * 1080
[18:56:23]    + encoder: x264
[18:56:23]      + options: b-adapt=2:rc-lookahead=50
[18:56:23]      + quality: 20.00 (RF)
[18:56:23]  * audio track 0
[18:56:23]    + decoder: Unknown (AC3) (5.1 ch) (track 1, id 1)
[18:56:23]      + bitrate: 448 kbps, samplerate: 48000 Hz
[18:56:23]    + mixdown: Dolby Pro Logic II
[18:56:23]    + encoder: ca_aac
[18:56:23]      + bitrate: 160 kbps, samplerate: 48000 Hz
[18:56:23]  * audio track 1
[18:56:23]    + decoder: Unknown (AC3) (5.1 ch) (track 1, id 1)
[18:56:23]      + bitrate: 448 kbps, samplerate: 48000 Hz
[18:56:23]    + AC3 passthrough
[18:56:23] thread 11e2b9000 started ("reader")
[18:56:23] thread 11ef1c000 started ("AudioSynchronization")
[18:56:23] thread 11f010000 started ("AudioSynchronization")
[18:56:23] thread 11f093000 started ("Video decoder (ffmpeg streams)")
[18:56:23] thread 11f116000 started ("Renderer")
[18:56:23] encx264: min-keyint: 24, keyint: 240
[18:56:23] encx264: encoding with stored aspect 1/1
[18:56:23] encx264: Encoding at constant RF 20.000000
[18:56:23] encx264: opening libx264 (pass 0)
x264 [info]: using SAR=1/1
x264 [info]: using cpu capabilities: MMX2 SSE2Fast SSSE3 FastShuffle SSE4.2
[18:56:23] Seeking to chapter 1: starts 0, ends 53681164, AV pos 0
[18:56:23] reader: first SCR 11520 id 1 DTS 11520
x264 [info]: profile High, level 4.0
[18:56:23] thread 131a55000 started ("H.264/AVC encoder (libx264)")
No accelerated IMDCT transform found
[18:56:23] thread 131ad8000 started ("AC3 decoder")
[18:56:23] thread 1325d9000 started ("AAC encoder (Apple)")
No accelerated IMDCT transform found
[18:56:23] thread 13265c000 started ("AC3 decoder")
[18:56:23] thread 1326df000 started ("Video Synchronization")
[18:56:23] muxmp4: track 0, chunk duration 15000
[18:56:23] muxmp4: track 1, chunk duration 8000
[18:56:23] muxmp4: track 2, chunk duration 8000
[18:56:23] muxmp4: disabled extra audio track 2
[18:56:23] thread 132762000 started ("Muxer")
[18:56:23] thread 1327e5000 started ("Muxer")
[19:04:40] reader: done. 1 scr changes
[19:04:40] thread 11e2b9000 exited ("reader")
[19:04:43] work: average encoding speed for job is 28.744858 fps
[19:04:43] thread 1325d9000 exited ("AAC encoder (Apple)")
[19:04:43] thread 11f093000 exited ("Video decoder (ffmpeg streams)")
[19:04:43] thread 11f010000 exited ("AudioSynchronization")
[19:04:43] thread 1327e5000 exited ("Muxer")
[19:04:43] thread 13265c000 exited ("AC3 decoder")
[19:04:43] thread 11ef1c000 exited ("AudioSynchronization")
[19:04:43] thread 131ad8000 exited ("AC3 decoder")
[19:04:43] thread 1326df000 exited ("Video Synchronization")
[19:04:43] thread 1326df000 joined ("Video Synchronization")
[19:04:43] sync: got 14315 frames, 14339 expected
[19:04:43] thread 11ef1c000 joined ("AudioSynchronization")
[19:04:43] thread 11f010000 joined ("AudioSynchronization")
[19:04:43] thread 11f093000 joined ("Video decoder (ffmpeg streams)")
[19:04:43] mpeg4-decoder done: 14315 frames, 0 decoder errors, 0 drops
[19:04:43] thread 11f116000 exited ("Renderer")
[19:04:43] thread 11f116000 joined ("Renderer")
[19:04:43] render: lost time: 0 (0 frames)
[19:04:43] render: gained time: 0 (0 frames) (0 not accounted for)
[19:04:43] fifo_close: trashing 0 buffer(s)
[19:04:43] fifo_close: trashing 0 buffer(s)
[19:04:43] thread 131a55000 exited ("H.264/AVC encoder (libx264)")
[19:04:43] thread 131a55000 joined ("H.264/AVC encoder (libx264)")
x264 [info]: frame I:145   Avg QP:13.89  size:239797  PSNR Mean Y:51.76 U:54.33 V:55.08 Avg:52.45 Global:51.02
x264 [info]: frame P:10202 Avg QP:17.66  size: 30613  PSNR Mean Y:47.74 U:50.75 V:51.56 Avg:48.50 Global:47.38
x264 [info]: frame B:3968  Avg QP:23.26  size: 11559  PSNR Mean Y:45.56 U:50.77 V:51.54 Avg:46.47 Global:44.66
x264 [info]: consecutive B-frames: 58.5%  6.5% 18.1% 16.9%
x264 [info]: mb I  I16..4: 21.7% 72.1%  6.2%
x264 [info]: mb P  I16..4:  1.6%  4.1%  0.2%  P16..4: 28.0%  9.1%  7.3%  0.0%  0.0%    skip:49.6%
x264 [info]: mb B  I16..4:  0.8%  1.9%  0.1%  B16..8: 26.8%  3.2%  0.8%  direct: 3.0%  skip:63.4%  L0:50.1% L1:38.4% BI:11.5%
x264 [info]: 8x8 transform intra:69.6% inter:73.8%
x264 [info]: coded y,uvDC,uvAC intra: 56.6% 59.3% 28.4% inter: 16.1% 16.6% 3.0%
x264 [info]: i16 v,h,dc,p: 51% 22% 10% 17%
x264 [info]: i8 v,h,dc,ddl,ddr,vr,hd,vl,hu: 24% 16% 31%  3%  4%  7%  4%  5%  5%
x264 [info]: i4 v,h,dc,ddl,ddr,vr,hd,vl,hu: 27% 16% 14%  5%  9% 10%  8%  6%  5%
x264 [info]: i8c dc,h,v,p: 50% 22% 20%  8%
x264 [info]: Weighted P-Frames: Y:1.0%
x264 [info]: ref P L0: 74.7% 13.5%  9.1%  2.7%  0.0%
x264 [info]: ref B L0: 81.4% 16.7%  2.0%
x264 [info]: ref B L1: 94.0%  6.0%
x264 [info]: SSIM Mean Y:0.9915872 (20.751db)
x264 [info]: PSNR Mean Y:47.177 U:50.790 V:51.589 Avg:47.978 Global:46.463 kb/s:5271.65
[19:04:43] thread 132762000 exited ("Muxer")
[19:04:43] thread 131ad8000 joined ("AC3 decoder")
[19:04:43] thread 1325d9000 joined ("AAC encoder (Apple)")
[19:04:43] thread 13265c000 joined ("AC3 decoder")
[19:04:43] thread 132762000 joined ("Muxer")
[19:04:43] thread 1327e5000 joined ("Muxer")
[19:04:43] mux: file size, 439096700 bytes
[19:04:43] mux: track 0, 14315 frames, 392948604 bytes, 5271.17 kbps, fifo 8
[19:04:43] mux: video bitrate error, +392948604 bytes
[19:04:43] mux: track 1, 27955 frames, 12468334 bytes, 167.26 kbps, fifo 512
[19:04:43] mux: track 2, 18636 frames, 33395712 bytes, 447.98 kbps, fifo 256
[19:04:43] mux: overhead, 4.66 bytes per frame
[19:04:43] thread 11e2b9000 joined ("reader")
[19:04:43] fifo_close: trashing 0 buffer(s)
[19:04:43] fifo_close: trashing 0 buffer(s)
[19:04:43] fifo_close: trashing 0 buffer(s)
[19:04:43] fifo_close: trashing 0 buffer(s)
[19:04:43] fifo_close: trashing 0 buffer(s)
[19:04:43] fifo_close: trashing 0 buffer(s)
[19:04:43] fifo_close: trashing 0 buffer(s)
[19:04:43] fifo_close: trashing 0 buffer(s)
[19:04:43] fifo_close: trashing 0 buffer(s)
[19:04:43] fifo_close: trashing 0 buffer(s)
[19:04:43] fifo_close: trashing 0 buffer(s)
[19:04:43] fifo_close: trashing 0 buffer(s)
[19:04:43] fifo_close: trashing 0 buffer(s)
[19:04:43] Freed 32 buffers of size 2048
[19:04:43] Freed 1 buffers of size 8192
[19:04:43] Freed 32 buffers of size 16384
[19:04:43] Freed 32 buffers of size 32768
[19:04:43] Freed 32 buffers of size 65536
[19:04:43] Freed 32 buffers of size 131072
[19:04:43] Freed 32 buffers of size 262144
[19:04:43] Freed 32 buffers of size 524288
[19:04:43] Freed 32 buffers of size 1048576
[19:04:43] Freed 32 buffers of size 4194304
[19:04:43] Allocated 200876032 bytes of buffers on this pass and Freed 200876032 bytes, 0 bytes leaked
[19:04:43] thread 1199f9000 exited ("work")
[19:04:43] thread 1199f9000 joined ("work")
[19:04:43] libhb: work result = 0
Preset: Universal
Result: 138.897812 fps

Code: Select all

HandBrake Activity Log for /Volumes/Tsukkia/Scratch/bbb-1080p-universal.m4v: 2010-09-17 19:06:32 -0400
Handbrake Version: svn3540 x86_64 (2010091701)

[19:06:32] macgui: Rip: Pending queue count is 0
[19:06:32] macgui: getNextPendingQueueIndex next pending encod index is:1
[19:06:32] macgui: scanning specifically for title: 1
[19:06:32] hb_scan: path=/Volumes/Myrkr/Torrent/Big_Buck_Bunny_1080p_surround_frostclick.com_frostwire.com/Big_Buck_Bunny_1080p_surround_FrostWire.com.avi, title_index=1
[19:06:32] thread 116e6b000 started ("scan")
libbluray/bdnav/index_parse.c:157: indx_parse(): error opening /Volumes/Myrkr/Torrent/Big_Buck_Bunny_1080p_surround_frostclick.com_frostwire.com/Big_Buck_Bunny_1080p_surround_FrostWire.com.avi/BDMV/index.bdmv
libbluray/bluray.c:960: nav_get_title_list(/Volumes/Myrkr/Torrent/Big_Buck_Bunny_1080p_surround_frostclick.com_frostwire.com/Big_Buck_Bunny_1080p_surround_FrostWire.com.avi) failed (0x1019d2800)
[19:06:32] bd: not a bd - trying as a stream/file instead
libdvdnav: Using dvdnav version 4.1.3
libdvdread: Using libdvdcss version 1.2.10 for DVD access
libdvdnav:DVDOpenFileUDF:UDFFindFile /VIDEO_TS/VIDEO_TS.IFO failed
libdvdnav:DVDOpenFileUDF:UDFFindFile /VIDEO_TS/VIDEO_TS.BUP failed
libdvdread: Can't open file VIDEO_TS.IFO.
libdvdnav: vm: failed to read VIDEO_TS.IFO
[19:06:32] dvd: not a dvd - trying as a stream/file instead
Input #0, avi, from '/Volumes/Myrkr/Torrent/Big_Buck_Bunny_1080p_surround_frostclick.com_frostwire.com/Big_Buck_Bunny_1080p_surround_FrostWire.com.avi':
  Metadata:
    ISFT            : AVI-Mux GUI 1.17.7, Aug  8 2006  20:59:17
    JUNK            : 
  Duration: 00:09:56.45, start: 0.000000, bitrate: 12455 kb/s
    Stream #0.0: Video: mpeg4, yuv420p, 1920x1080 [PAR 1:1 DAR 16:9], 24 tbr, 24 tbn, 24 tbc
    Stream #0.1: Audio: ac3, 48000 Hz, 5.1, s16, 448 kb/s
[19:06:32] Found ffmpeg 0 chapters, container=avi
[19:06:32] scan: decoding previews for title 1
[19:06:32] scan: preview 1
[19:06:32] fifo_close: trashing 0 buffer(s)
[19:06:32] scan: audio 0x1: AC-3, rate=48000Hz, bitrate=448000 Unknown (AC3) (5.1 ch)
[19:06:32] scan: preview 2
[19:06:32] scan: preview 3
[19:06:32] scan: preview 4
[19:06:32] scan: preview 5
[19:06:32] scan: preview 6
[19:06:32] scan: preview 7
[19:06:32] scan: preview 8
[19:06:33] scan: preview 9
[19:06:33] scan: preview 10
[19:06:33] scan: 10 previews, 1920x1080, 24.000 fps, autocrop = 0/0/0/0, aspect 16:9, PAR 1:1
[19:06:33] scan: title (0) job->width:1920, job->height:1072
[19:06:33] thread 116e6b000 exited ("scan")
[19:06:33] thread 116e6b000 joined ("scan")
[19:06:33] libhb: scan thread found 1 valid title(s)
[19:06:33] macgui: ScanDone state received from fQueueEncodeLibhb
[19:06:33] macgui: Preset: Universal
[19:06:33] macgui: processNewQueueEncode number of passes expected is: 1
[19:06:33] macgui: Start / Stop set to chapters
[19:06:33] macgui: prepareJob exiting
[19:06:33] thread 116e6b000 started ("work")
[19:06:33] 1 job(s) to process
[19:06:33] starting job
[19:06:33] sync: expecting 14339 video frames
[19:06:33] job configuration:
[19:06:33]  * source
[19:06:33]    + /Volumes/Myrkr/Torrent/Big_Buck_Bunny_1080p_surround_frostclick.com_frostwire.com/Big_Buck_Bunny_1080p_surround_FrostWire.com.avi
[19:06:33]    + title 1, chapter(s) 1 to 1
[19:06:33]    + container: avi
[19:06:33]    + data rate: 12455 kbps
[19:06:33]  * destination
[19:06:33]    + /Volumes/Tsukkia/Scratch/bbb-1080p-universal.m4v
[19:06:33]    + container: MPEG-4 (.mp4 and .m4v)
[19:06:33]  * video track
[19:06:33]    + decoder: mpeg4
[19:06:33]    + frame rate: same as source (around 24.000 fps)
[19:06:33]    + loose anamorphic
[19:06:33]      + storage dimensions: 1920 * 1080 -> 720 * 400, crop 0/0/0/0, mod 16
[19:06:33]      + pixel aspect ratio: 79 / 80
[19:06:33]      + display dimensions: 711 * 400
[19:06:33]    + encoder: x264
[19:06:33]      + options: cabac=0:ref=2:me=umh:bframes=0:8x8dct=0:trellis=0:subq=6
[19:06:33]      + quality: 20.00 (RF)
[19:06:33]  * audio track 0
[19:06:33]    + decoder: Unknown (AC3) (5.1 ch) (track 1, id 1)
[19:06:33]      + bitrate: 448 kbps, samplerate: 48000 Hz
[19:06:33]    + mixdown: Dolby Pro Logic II
[19:06:33]    + encoder: ca_aac
[19:06:33]      + bitrate: 160 kbps, samplerate: 48000 Hz
[19:06:33]  * audio track 1
[19:06:33]    + decoder: Unknown (AC3) (5.1 ch) (track 1, id 1)
[19:06:33]      + bitrate: 448 kbps, samplerate: 48000 Hz
[19:06:33]    + AC3 passthrough
[19:06:33] thread 11e153000 started ("reader")
[19:06:33] thread 11e76f000 started ("AudioSynchronization")
[19:06:33] thread 11f466000 started ("AudioSynchronization")
[19:06:33] thread 11f4e9000 started ("Video decoder (ffmpeg streams)")
[19:06:33] Seeking to chapter 1: starts 0, ends 53681164, AV pos 0
[19:06:33] reader: first SCR 11520 id 1 DTS 11520
[19:06:33] thread 11f56c000 started ("Renderer")
[19:06:33] encx264: no bframes, disabling weight-p unless told otherwise
[19:06:33] encx264: min-keyint: 24, keyint: 240
[19:06:33] encx264: encoding with stored aspect 79/80
[19:06:33] encx264: Encoding at constant RF 20.000000
[19:06:33] encx264: opening libx264 (pass 0)
x264 [info]: using SAR=79/80
x264 [info]: using cpu capabilities: MMX2 SSE2Fast SSSE3 FastShuffle SSE4.2
x264 [info]: profile Baseline, level 3.0
[19:06:33] thread 1223e4000 started ("H.264/AVC encoder (libx264)")
No accelerated IMDCT transform found
[19:06:33] thread 122467000 started ("AC3 decoder")
[19:06:33] thread 1224ea000 started ("AAC encoder (Apple)")
No accelerated IMDCT transform found
[19:06:33] thread 12256d000 started ("AC3 decoder")
[19:06:33] thread 1225f0000 started ("Video Synchronization")
[19:06:33] muxmp4: track 0, chunk duration 15000
[19:06:33] muxmp4: track 1, chunk duration 8000
[19:06:33] muxmp4: track 2, chunk duration 8000
[19:06:33] muxmp4: disabled extra audio track 2
[19:06:33] thread 122673000 started ("Muxer")
[19:06:33] thread 1226f6000 started ("Muxer")
[19:08:15] reader: done. 1 scr changes
[19:08:15] thread 11e153000 exited ("reader")
[19:08:16] work: average encoding speed for job is 138.897812 fps
[19:08:16] thread 11f4e9000 exited ("Video decoder (ffmpeg streams)")
[19:08:16] thread 11f56c000 exited ("Renderer")
[19:08:16] thread 11f466000 exited ("AudioSynchronization")
[19:08:16] thread 1226f6000 exited ("Muxer")
[19:08:16] thread 12256d000 exited ("AC3 decoder")
[19:08:16] thread 11e76f000 exited ("AudioSynchronization")
[19:08:16] thread 122467000 exited ("AC3 decoder")
[19:08:16] thread 122673000 exited ("Muxer")
[19:08:16] thread 1224ea000 exited ("AAC encoder (Apple)")
[19:08:16] thread 1225f0000 exited ("Video Synchronization")
[19:08:16] thread 1225f0000 joined ("Video Synchronization")
[19:08:16] sync: got 14315 frames, 14339 expected
[19:08:16] thread 11e76f000 joined ("AudioSynchronization")
[19:08:16] thread 11f466000 joined ("AudioSynchronization")
[19:08:16] thread 11f4e9000 joined ("Video decoder (ffmpeg streams)")
[19:08:16] mpeg4-decoder done: 14315 frames, 0 decoder errors, 0 drops
[19:08:16] thread 11f56c000 joined ("Renderer")
[19:08:16] render: lost time: 0 (0 frames)
[19:08:16] render: gained time: 0 (0 frames) (0 not accounted for)
[19:08:16] fifo_close: trashing 0 buffer(s)
[19:08:16] fifo_close: trashing 0 buffer(s)
[19:08:16] thread 1223e4000 exited ("H.264/AVC encoder (libx264)")
[19:08:16] thread 1223e4000 joined ("H.264/AVC encoder (libx264)")
x264 [info]: frame I:169   Avg QP:15.69  size: 57499  PSNR Mean Y:48.18 U:51.38 V:51.89 Avg:48.93 Global:46.94
x264 [info]: frame P:14146 Avg QP:20.18  size:  6579  PSNR Mean Y:43.89 U:47.36 V:47.92 Avg:44.64 Global:43.57
x264 [info]: mb I  I16..4: 25.1%  0.0% 74.9%
x264 [info]: mb P  I16..4:  1.1%  0.0%  1.8%  P16..4: 31.0% 12.6%  5.6%  0.0%  0.0%    skip:47.8%
x264 [info]: coded y,uvDC,uvAC intra: 63.0% 73.2% 54.7% inter: 19.7% 15.9% 5.1%
x264 [info]: i16 v,h,dc,p: 42% 24%  9% 24%
x264 [info]: i4 v,h,dc,ddl,ddr,vr,hd,vl,hu: 20% 17% 15%  6%  9% 10%  8%  8%  7%
x264 [info]: i8c dc,h,v,p: 50% 22% 16% 11%
x264 [info]: ref P L0: 75.7% 24.3%
x264 [info]: SSIM Mean Y:0.9878607 (19.158db)
x264 [info]: PSNR Mean Y:43.945 U:47.410 V:47.964 Avg:44.689 Global:43.596 kb/s:1378.94
[19:08:16] thread 122467000 joined ("AC3 decoder")
[19:08:16] thread 1224ea000 joined ("AAC encoder (Apple)")
[19:08:16] thread 12256d000 joined ("AC3 decoder")
[19:08:16] thread 122673000 joined ("Muxer")
[19:08:16] thread 1226f6000 joined ("Muxer")
[19:08:16] mux: file size, 148876108 bytes
[19:08:16] mux: track 0, 14315 frames, 102781985 bytes, 1378.76 kbps, fifo 8
[19:08:16] mux: video bitrate error, +102781985 bytes
[19:08:16] mux: track 1, 27955 frames, 12468334 bytes, 167.26 kbps, fifo 512
[19:08:16] mux: track 2, 18636 frames, 33395712 bytes, 447.98 kbps, fifo 256
[19:08:16] mux: overhead, 3.78 bytes per frame
[19:08:16] thread 11e153000 joined ("reader")
[19:08:16] fifo_close: trashing 0 buffer(s)
[19:08:16] fifo_close: trashing 0 buffer(s)
[19:08:16] fifo_close: trashing 0 buffer(s)
[19:08:16] fifo_close: trashing 0 buffer(s)
[19:08:16] fifo_close: trashing 0 buffer(s)
[19:08:16] fifo_close: trashing 0 buffer(s)
[19:08:16] fifo_close: trashing 0 buffer(s)
[19:08:16] fifo_close: trashing 0 buffer(s)
[19:08:16] fifo_close: trashing 0 buffer(s)
[19:08:16] fifo_close: trashing 0 buffer(s)
[19:08:16] fifo_close: trashing 0 buffer(s)
[19:08:16] fifo_close: trashing 0 buffer(s)
[19:08:16] fifo_close: trashing 0 buffer(s)
[19:08:16] Freed 32 buffers of size 2048
[19:08:16] Freed 1 buffers of size 8192
[19:08:16] Freed 32 buffers of size 16384
[19:08:16] Freed 32 buffers of size 32768
[19:08:16] Freed 32 buffers of size 65536
[19:08:16] Freed 32 buffers of size 131072
[19:08:16] Freed 32 buffers of size 262144
[19:08:16] Freed 32 buffers of size 524288
[19:08:16] Freed 32 buffers of size 1048576
[19:08:16] Freed 32 buffers of size 4194304
[19:08:16] Allocated 200876032 bytes of buffers on this pass and Freed 200876032 bytes, 0 bytes leaked
[19:08:16] thread 116e6b000 exited ("work")
[19:08:16] thread 116e6b000 joined ("work")
[19:08:16] libhb: work result = 0
Preset: AppleTV
Result: 94.216370 fps

Code: Select all

HandBrake Activity Log for /Volumes/Tsukkia/Scratch/bbb-1080p-appletv.m4v: 2010-09-17 19:09:02 -0400
Handbrake Version: svn3540 x86_64 (2010091701)

[19:09:02] macgui: Rip: Pending queue count is 0
[19:09:02] macgui: getNextPendingQueueIndex next pending encod index is:2
[19:09:02] macgui: scanning specifically for title: 1
[19:09:02] hb_scan: path=/Volumes/Myrkr/Torrent/Big_Buck_Bunny_1080p_surround_frostclick.com_frostwire.com/Big_Buck_Bunny_1080p_surround_FrostWire.com.avi, title_index=1
[19:09:02] thread 11e213000 started ("scan")
libbluray/bdnav/index_parse.c:157: indx_parse(): error opening /Volumes/Myrkr/Torrent/Big_Buck_Bunny_1080p_surround_frostclick.com_frostwire.com/Big_Buck_Bunny_1080p_surround_FrostWire.com.avi/BDMV/index.bdmv
libbluray/bluray.c:960: nav_get_title_list(/Volumes/Myrkr/Torrent/Big_Buck_Bunny_1080p_surround_frostclick.com_frostwire.com/Big_Buck_Bunny_1080p_surround_FrostWire.com.avi) failed (0x103824c00)
[19:09:02] bd: not a bd - trying as a stream/file instead
libdvdnav: Using dvdnav version 4.1.3
libdvdread: Using libdvdcss version 1.2.10 for DVD access
libdvdnav:DVDOpenFileUDF:UDFFindFile /VIDEO_TS/VIDEO_TS.IFO failed
libdvdnav:DVDOpenFileUDF:UDFFindFile /VIDEO_TS/VIDEO_TS.BUP failed
libdvdread: Can't open file VIDEO_TS.IFO.
libdvdnav: vm: failed to read VIDEO_TS.IFO
[19:09:02] dvd: not a dvd - trying as a stream/file instead
Input #0, avi, from '/Volumes/Myrkr/Torrent/Big_Buck_Bunny_1080p_surround_frostclick.com_frostwire.com/Big_Buck_Bunny_1080p_surround_FrostWire.com.avi':
  Metadata:
    ISFT            : AVI-Mux GUI 1.17.7, Aug  8 2006  20:59:17
    JUNK            : 
  Duration: 00:09:56.45, start: 0.000000, bitrate: 12455 kb/s
    Stream #0.0: Video: mpeg4, yuv420p, 1920x1080 [PAR 1:1 DAR 16:9], 24 tbr, 24 tbn, 24 tbc
    Stream #0.1: Audio: ac3, 48000 Hz, 5.1, s16, 448 kb/s
[19:09:02] Found ffmpeg 0 chapters, container=avi
[19:09:02] scan: decoding previews for title 1
[19:09:02] scan: preview 1
[19:09:02] fifo_close: trashing 0 buffer(s)
[19:09:02] scan: audio 0x1: AC-3, rate=48000Hz, bitrate=448000 Unknown (AC3) (5.1 ch)
[19:09:02] scan: preview 2
[19:09:03] scan: preview 3
[19:09:03] scan: preview 4
[19:09:03] scan: preview 5
[19:09:03] scan: preview 6
[19:09:03] scan: preview 7
[19:09:03] scan: preview 8
[19:09:03] scan: preview 9
[19:09:03] scan: preview 10
[19:09:03] scan: 10 previews, 1920x1080, 24.000 fps, autocrop = 0/0/0/0, aspect 16:9, PAR 1:1
[19:09:03] scan: title (0) job->width:1920, job->height:1072
[19:09:03] thread 11e213000 exited ("scan")
[19:09:03] thread 11e213000 joined ("scan")
[19:09:03] libhb: scan thread found 1 valid title(s)
[19:09:03] macgui: ScanDone state received from fQueueEncodeLibhb
[19:09:03] macgui: Preset: AppleTV
[19:09:03] macgui: processNewQueueEncode number of passes expected is: 1
[19:09:03] macgui: Start / Stop set to chapters
[19:09:03] macgui: prepareJob exiting
[19:09:03] thread 11e213000 started ("work")
[19:09:03] 1 job(s) to process
[19:09:03] starting job
[19:09:03] sync: expecting 14339 video frames
[19:09:03] job configuration:
[19:09:03]  * source
[19:09:03]    + /Volumes/Myrkr/Torrent/Big_Buck_Bunny_1080p_surround_frostclick.com_frostwire.com/Big_Buck_Bunny_1080p_surround_FrostWire.com.avi
[19:09:03]    + title 1, chapter(s) 1 to 1
[19:09:03]    + container: avi
[19:09:03]    + data rate: 12455 kbps
[19:09:03]  * destination
[19:09:03]    + /Volumes/Tsukkia/Scratch/bbb-1080p-appletv.m4v
[19:09:03]    + container: MPEG-4 (.mp4 and .m4v)
[19:09:03]      + 64-bit formatting
[19:09:03]  * video track
[19:09:03]    + decoder: mpeg4
[19:09:03]    + frame rate: same as source (around 24.000 fps)
[19:09:03]    + loose anamorphic
[19:09:03]      + storage dimensions: 1920 * 1080 -> 960 * 544, crop 0/0/0/0, mod 16
[19:09:03]      + pixel aspect ratio: 967 / 960
[19:09:03]      + display dimensions: 967 * 544
[19:09:03]    + encoder: x264
[19:09:03]      + options: cabac=0:ref=2:me=umh:b-pyramid=none:b-adapt=2:weightb=0:trellis=0:weightp=0:vbv-maxrate=9500:vbv-bufsize=9500
[19:09:03]      + quality: 20.00 (RF)
[19:09:03]  * audio track 0
[19:09:03]    + decoder: Unknown (AC3) (5.1 ch) (track 1, id 1)
[19:09:03]      + bitrate: 448 kbps, samplerate: 48000 Hz
[19:09:03]    + mixdown: Dolby Pro Logic II
[19:09:03]    + encoder: ca_aac
[19:09:03]      + bitrate: 160 kbps, samplerate: 48000 Hz
[19:09:03]  * audio track 1
[19:09:03]    + decoder: Unknown (AC3) (5.1 ch) (track 1, id 1)
[19:09:03]      + bitrate: 448 kbps, samplerate: 48000 Hz
[19:09:03]    + AC3 passthrough
[19:09:03] thread 11f1a0000 started ("reader")
[19:09:03] thread 11f35a000 started ("AudioSynchronization")
[19:09:03] thread 11f3dd000 started ("AudioSynchronization")
[19:09:03] thread 11f460000 started ("Video decoder (ffmpeg streams)")
[19:09:03] Seeking to chapter 1: starts 0, ends 53681164, AV pos 0
[19:09:03] reader: first SCR 11520 id 1 DTS 11520
[19:09:03] thread 11f758000 started ("Renderer")
[19:09:03] encx264: min-keyint: 24, keyint: 240
[19:09:03] encx264: encoding with stored aspect 967/960
[19:09:03] encx264: Encoding at constant RF 20.000000
[19:09:03] encx264: opening libx264 (pass 0)
x264 [info]: using SAR=967/960
x264 [info]: using cpu capabilities: MMX2 SSE2Fast SSSE3 FastShuffle SSE4.2
x264 [info]: profile High, level 3.1
[19:09:03] thread 122afe000 started ("H.264/AVC encoder (libx264)")
No accelerated IMDCT transform found
[19:09:03] thread 122b81000 started ("AC3 decoder")
[19:09:03] thread 123004000 started ("AAC encoder (Apple)")
No accelerated IMDCT transform found
[19:09:03] thread 123087000 started ("AC3 decoder")
[19:09:03] thread 12310a000 started ("Video Synchronization")
[19:09:03] muxmp4: using 64-bit MP4 formatting.
[19:09:03] muxmp4: track 0, chunk duration 15000
[19:09:03] muxmp4: track 1, chunk duration 8000
[19:09:03] muxmp4: track 2, chunk duration 8000
[19:09:03] muxmp4: disabled extra audio track 2
[19:09:03] thread 12324d000 started ("Muxer")
[19:09:03] thread 123330000 started ("Muxer")
[19:11:34] reader: done. 1 scr changes
[19:11:34] thread 11f1a0000 exited ("reader")
[19:11:35] work: average encoding speed for job is 94.216370 fps
[19:11:35] thread 11f460000 exited ("Video decoder (ffmpeg streams)")
[19:11:35] thread 12310a000 exited ("Video Synchronization")
[19:11:35] thread 12310a000 joined ("Video Synchronization")
[19:11:35] sync: got 14315 frames, 14339 expected
[19:11:35] thread 11f3dd000 exited ("AudioSynchronization")
[19:11:35] thread 123330000 exited ("Muxer")
[19:11:35] thread 123087000 exited ("AC3 decoder")
[19:11:35] thread 11f35a000 exited ("AudioSynchronization")
[19:11:35] thread 11f35a000 joined ("AudioSynchronization")
[19:11:35] thread 11f3dd000 joined ("AudioSynchronization")
[19:11:35] thread 11f460000 joined ("Video decoder (ffmpeg streams)")
[19:11:35] mpeg4-decoder done: 14315 frames, 0 decoder errors, 0 drops
[19:11:35] thread 122b81000 exited ("AC3 decoder")
[19:11:35] thread 12324d000 exited ("Muxer")
[19:11:35] thread 123004000 exited ("AAC encoder (Apple)")
[19:11:35] thread 11f758000 exited ("Renderer")
[19:11:35] thread 11f758000 joined ("Renderer")
[19:11:35] render: lost time: 0 (0 frames)
[19:11:35] render: gained time: 0 (0 frames) (0 not accounted for)
[19:11:35] fifo_close: trashing 0 buffer(s)
[19:11:35] fifo_close: trashing 0 buffer(s)
[19:11:35] thread 122afe000 exited ("H.264/AVC encoder (libx264)")
[19:11:35] thread 122afe000 joined ("H.264/AVC encoder (libx264)")
x264 [info]: frame I:144   Avg QP:14.88  size:107432  PSNR Mean Y:48.64 U:51.82 V:52.33 Avg:49.45 Global:48.11
x264 [info]: frame P:8099  Avg QP:18.92  size: 12281  PSNR Mean Y:45.36 U:48.72 V:49.39 Avg:46.11 Global:44.97
x264 [info]: frame B:6072  Avg QP:25.33  size:  2552  PSNR Mean Y:43.86 U:47.96 V:48.62 Avg:44.72 Global:43.64
x264 [info]: consecutive B-frames: 20.7% 62.8% 11.0%  5.5%
x264 [info]: mb I  I16..4: 14.5% 37.8% 47.7%
x264 [info]: mb P  I16..4:  1.7%  2.7%  1.3%  P16..4: 28.8% 12.2%  5.5%  0.0%  0.0%    skip:47.8%
x264 [info]: mb B  I16..4:  0.4%  0.6%  0.4%  B16..8: 20.6%  3.8%  0.8%  direct: 2.0%  skip:71.5%  L0:33.3% L1:56.4% BI:10.3%
x264 [info]: 8x8 transform intra:45.3% inter:43.5%
x264 [info]: coded y,uvDC,uvAC intra: 64.9% 72.1% 49.0% inter: 12.5% 11.5% 3.1%
x264 [info]: i16 v,h,dc,p: 46% 25%  9% 19%
x264 [info]: i8 v,h,dc,ddl,ddr,vr,hd,vl,hu: 17% 16% 17%  6%  8% 12%  8%  8%  8%
x264 [info]: i4 v,h,dc,ddl,ddr,vr,hd,vl,hu: 21% 16% 13%  6%  9% 11%  8%  8%  7%
x264 [info]: i8c dc,h,v,p: 51% 21% 18% 10%
x264 [info]: ref P L0: 78.0% 22.0%
x264 [info]: SSIM Mean Y:0.9889576 (19.569db)
x264 [info]: PSNR Mean Y:44.758 U:48.429 V:49.093 Avg:45.555 Global:44.377 kb/s:1749.81
[19:11:35] thread 122b81000 joined ("AC3 decoder")
[19:11:35] thread 123004000 joined ("AAC encoder (Apple)")
[19:11:35] thread 123087000 joined ("AC3 decoder")
[19:11:35] thread 12324d000 joined ("Muxer")
[19:11:35] thread 123330000 joined ("Muxer")
[19:11:35] mux: file size, 176650707 bytes
[19:11:35] mux: track 0, 14315 frames, 130426713 bytes, 1749.60 kbps, fifo 8
[19:11:35] mux: video bitrate error, +130426713 bytes
[19:11:35] mux: track 1, 27955 frames, 12468334 bytes, 167.26 kbps, fifo 512
[19:11:35] mux: track 2, 18636 frames, 33395712 bytes, 447.98 kbps, fifo 256
[19:11:35] mux: overhead, 5.91 bytes per frame
[19:11:35] thread 11f1a0000 joined ("reader")
[19:11:35] fifo_close: trashing 0 buffer(s)
[19:11:35] fifo_close: trashing 0 buffer(s)
[19:11:35] fifo_close: trashing 0 buffer(s)
[19:11:35] fifo_close: trashing 0 buffer(s)
[19:11:35] fifo_close: trashing 0 buffer(s)
[19:11:35] fifo_close: trashing 0 buffer(s)
[19:11:35] fifo_close: trashing 0 buffer(s)
[19:11:35] fifo_close: trashing 0 buffer(s)
[19:11:35] fifo_close: trashing 0 buffer(s)
[19:11:35] fifo_close: trashing 0 buffer(s)
[19:11:35] fifo_close: trashing 0 buffer(s)
[19:11:35] fifo_close: trashing 0 buffer(s)
[19:11:35] fifo_close: trashing 0 buffer(s)
[19:11:35] Freed 32 buffers of size 2048
[19:11:35] Freed 1 buffers of size 8192
[19:11:35] Freed 32 buffers of size 16384
[19:11:35] Freed 32 buffers of size 32768
[19:11:35] Freed 32 buffers of size 65536
[19:11:35] Freed 32 buffers of size 131072
[19:11:35] Freed 32 buffers of size 262144
[19:11:35] Freed 32 buffers of size 524288
[19:11:35] Freed 32 buffers of size 1048576
[19:11:35] Freed 32 buffers of size 4194304
[19:11:35] Allocated 200876032 bytes of buffers on this pass and Freed 200876032 bytes, 0 bytes leaked
[19:11:35] thread 11e213000 exited ("work")
[19:11:35] thread 11e213000 joined ("work")
[19:11:35] libhb: work result = 0
Edit: Minor changes for clarity.
Last edited by BradleyS on Sun Oct 03, 2010 2:26 am, edited 1 time in total.
User avatar
BradleyS
Moderator
Posts: 1859
Joined: Thu Aug 09, 2007 12:16 pm

Re: Mac Pro 6-core Westmere (Intel W3680)

Post by BradleyS »

Screenshot of logical core saturation during the high profile encode above:

Image
User avatar
BradleyS
Moderator
Posts: 1859
Joined: Thu Aug 09, 2007 12:16 pm

Re: Mac Pro 6-core Westmere (Intel W3680)

Post by BradleyS »

Source: Big Buck Bunny 480p (848x480) MPEG-4 video in AVI container.

Preset: Normal
Result: 255.503937 fps

Code: Select all

HandBrake Activity Log for /Volumes/Tsukkia/Scratch/big_buck_bunny_480p_surround-fix.mp4: 2010-10-02 22:17:11 -0400
Handbrake Version: svn3562 x86_64 (2010100101)

[22:17:11] macgui: Rip: Pending queue count is 0
[22:17:11] macgui: getNextPendingQueueIndex next pending encod index is:0
[22:17:11] macgui: scanning specifically for title: 1
[22:17:11] hb_scan: path=/Users/Bradley/Desktop/big_buck_bunny_480p_surround-fix.avi, title_index=1
[22:17:11] thread 11c5c6000 started ("scan")
libbluray/bdnav/index_parse.c:157: indx_parse(): error opening /Users/Bradley/Desktop/big_buck_bunny_480p_surround-fix.avi/BDMV/index.bdmv
libbluray/bluray.c:960: nav_get_title_list(/Users/Bradley/Desktop/big_buck_bunny_480p_surround-fix.avi) failed (0x102099400)
[22:17:11] bd: not a bd - trying as a stream/file instead
libdvdnav: Using dvdnav version 4.1.3
libdvdread: Using libdvdcss version 1.2.10 for DVD access
libdvdnav:DVDOpenFileUDF:UDFFindFile /VIDEO_TS/VIDEO_TS.IFO failed
libdvdnav:DVDOpenFileUDF:UDFFindFile /VIDEO_TS/VIDEO_TS.BUP failed
libdvdread: Can't open file VIDEO_TS.IFO.
libdvdnav: vm: failed to read VIDEO_TS.IFO
[22:17:11] dvd: not a dvd - trying as a stream/file instead
Input #0, avi, from '/Users/Bradley/Desktop/big_buck_bunny_480p_surround-fix.avi':
  Duration: 00:09:56.45, start: 0.000000, bitrate: 2957 kb/s
    Stream #0.0: Video: mpeg4, yuv420p, 854x480 [PAR 1:1 DAR 427:240], 24 tbr, 24 tbn, 24 tbc
    Stream #0.1: Audio: ac3, 48000 Hz, 5.1, s16, 448 kb/s
[22:17:11] Found ffmpeg 0 chapters, container=avi
[22:17:11] scan: decoding previews for title 1
[22:17:11] scan: preview 1
[22:17:11] fifo_close: trashing 0 buffer(s)
[22:17:11] scan: audio 0x1: AC-3, rate=48000Hz, bitrate=448000 Unknown (AC3) (5.1 ch)
[22:17:11] scan: preview 2
[22:17:11] scan: preview 3
[22:17:11] scan: preview 4
[22:17:11] scan: preview 5
[22:17:11] scan: preview 6
[22:17:11] scan: preview 7
[22:17:11] scan: preview 8
[22:17:11] scan: preview 9
[22:17:11] scan: preview 10
[22:17:11] scan: 10 previews, 854x480, 24.000 fps, autocrop = 0/0/0/0, aspect 16:9, PAR 1:1
[22:17:11] scan: title (0) job->width:848, job->height:480
[22:17:11] thread 11c5c6000 exited ("scan")
[22:17:11] thread 11c5c6000 joined ("scan")
[22:17:11] libhb: scan thread found 1 valid title(s)
[22:17:12] macgui: ScanDone state received from fQueueEncodeLibhb
[22:17:12] macgui: Preset: Normal (Default)
[22:17:12] macgui: processNewQueueEncode number of passes expected is: 1
[22:17:12] macgui: Start / Stop set to chapters
[22:17:12] macgui: prepareJob exiting
[22:17:12] thread 11c5c6000 started ("work")
[22:17:12] 1 job(s) to process
[22:17:12] starting job
[22:17:12] sync: expecting 14338 video frames
[22:17:12] job configuration:
[22:17:12]  * source
[22:17:12]    + /Users/Bradley/Desktop/big_buck_bunny_480p_surround-fix.avi
[22:17:12]    + title 1, chapter(s) 1 to 1
[22:17:12]    + container: avi
[22:17:12]    + data rate: 2957 kbps
[22:17:12]  * destination
[22:17:12]    + /Volumes/Tsukkia/Scratch/big_buck_bunny_480p_surround-fix.mp4
[22:17:12]    + container: MPEG-4 (.mp4 and .m4v)
[22:17:12]  * video track
[22:17:12]    + decoder: mpeg4
[22:17:12]    + frame rate: same as source (around 24.000 fps)
[22:17:12]    + strict anamorphic
[22:17:12]      + storage dimensions: 854 * 480 -> 854 * 480, crop 0/0/0/0, mod 16
[22:17:12]      + pixel aspect ratio: 1 / 1
[22:17:12]      + display dimensions: 854 * 480
[22:17:12]    + encoder: x264
[22:17:12]      + options: ref=2:bframes=2:subq=6:mixed-refs=0:weightb=0:8x8dct=0:trellis=0
[22:17:12]      + quality: 20.00 (RF)
[22:17:12]  * audio track 0
[22:17:12]    + decoder: Unknown (AC3) (5.1 ch) (track 1, id 1)
[22:17:12]      + bitrate: 448 kbps, samplerate: 48000 Hz
[22:17:12]    + mixdown: Dolby Pro Logic II
[22:17:12]    + encoder: ca_aac
[22:17:12]      + bitrate: 160 kbps, samplerate: 48000 Hz
[22:17:12] thread 11c82e000 started ("reader")
[22:17:12] thread 11cb16000 started ("AudioSynchronization")
[22:17:12] thread 11cb99000 started ("Video decoder (ffmpeg streams)")
[22:17:12] thread 11cc1c000 started ("Renderer")
[22:17:12] encx264: min-keyint: 24, keyint: 240
[22:17:12] encx264: encoding with stored aspect 1/1
[22:17:12] encx264: Encoding at constant RF 20.000000
[22:17:12] encx264: opening libx264 (pass 0)
x264 [info]: using SAR=1/1
x264 [info]: using cpu capabilities: MMX2 SSE2Fast SSSE3 FastShuffle SSE4.2
[22:17:12] Seeking to chapter 1: starts 0, ends 53681249, AV pos 0
[22:17:12] reader: first SCR 0 id 0 DTS 0
x264 [info]: profile Main, level 3.0
[22:17:12] thread 121edb000 started ("H.264/AVC encoder (libx264)")
No accelerated IMDCT transform found
[22:17:12] thread 122881000 started ("AC3 decoder")
[22:17:12] thread 123082000 started ("AAC encoder (Apple)")
[22:17:12] thread 123205000 started ("Video Synchronization")
[22:17:12] muxmp4: track 0, chunk duration 15000
[22:17:12] muxmp4: track 1, chunk duration 8000
[22:17:12] thread 12571a000 started ("Muxer")
[22:18:08] reader: done. 1 scr changes
[22:18:08] thread 11c82e000 exited ("reader")
[22:18:08] thread 12571a000 exited ("Muxer")
[22:18:08] work: average encoding speed for job is 255.503937 fps
[22:18:08] thread 123205000 exited ("Video Synchronization")
[22:18:08] thread 123205000 joined ("Video Synchronization")
[22:18:08] sync: got 14315 frames, 14338 expected
[22:18:08] thread 11cc1c000 exited ("Renderer")
[22:18:09] thread 11cb16000 exited ("AudioSynchronization")
[22:18:09] thread 11cb16000 joined ("AudioSynchronization")
[22:18:09] thread 122881000 exited ("AC3 decoder")
[22:18:09] thread 123082000 exited ("AAC encoder (Apple)")
[22:18:09] thread 11cb99000 exited ("Video decoder (ffmpeg streams)")
[22:18:09] thread 11cb99000 joined ("Video decoder (ffmpeg streams)")
[22:18:09] mpeg4-decoder done: 14315 frames, 0 decoder errors, 0 drops
[22:18:09] thread 11cc1c000 joined ("Renderer")
[22:18:09] render: lost time: 0 (0 frames)
[22:18:09] render: gained time: 0 (0 frames) (0 not accounted for)
[22:18:09] fifo_close: trashing 0 buffer(s)
[22:18:09] fifo_close: trashing 0 buffer(s)
[22:18:09] thread 121edb000 exited ("H.264/AVC encoder (libx264)")
[22:18:09] thread 121edb000 joined ("H.264/AVC encoder (libx264)")
x264 [info]: frame I:150   Avg QP:14.61  size: 65380  PSNR Mean Y:49.50 U:52.69 V:53.40 Avg:50.32 Global:48.78
x264 [info]: frame P:11067 Avg QP:18.50  size:  6281  PSNR Mean Y:45.84 U:48.66 V:49.36 Avg:46.57 Global:45.77
x264 [info]: frame B:3098  Avg QP:23.64  size:  1780  PSNR Mean Y:45.28 U:50.00 V:50.59 Avg:46.04 Global:44.15
x264 [info]: consecutive B-frames: 65.8%  5.5% 28.7%
x264 [info]: mb I  I16..4: 28.3%  0.0% 71.7%
x264 [info]: mb P  I16..4:  1.7%  0.0%  2.0%  P16..4: 34.9%  8.2%  5.5%  0.0%  0.0%    skip:47.6%
x264 [info]: mb B  I16..4:  1.3%  0.0%  1.3%  B16..8: 16.1%  3.4%  0.5%  direct: 4.0%  skip:73.3%  L0:34.4% L1:54.1% BI:11.5%
x264 [info]: coded y,uvDC,uvAC intra: 57.2% 69.6% 45.1% inter: 13.5% 16.5% 3.8%
x264 [info]: i16 v,h,dc,p: 41% 26% 15% 18%
x264 [info]: i4 v,h,dc,ddl,ddr,vr,hd,vl,hu: 22% 21% 16%  5%  8%  8%  7%  7%  6%
x264 [info]: i8c dc,h,v,p: 48% 24% 19% 10%
x264 [info]: Weighted P-Frames: Y:1.2%
x264 [info]: ref P L0: 75.5% 11.1% 13.2%  0.2%
x264 [info]: ref B L0: 80.2% 19.8%
x264 [info]: ref B L1: 90.4%  9.6%
x264 [info]: SSIM Mean Y:0.9906673 (20.300db)
x264 [info]: PSNR Mean Y:45.757 U:48.991 V:49.670 Avg:46.494 Global:45.385 kb/s:1137.86
[22:18:09] thread 122881000 joined ("AC3 decoder")
[22:18:09] thread 123082000 joined ("AAC encoder (Apple)")
[22:18:09] thread 12571a000 joined ("Muxer")
[22:18:09] mux: file size, 97558992 bytes
[22:18:09] mux: track 0, 14315 frames, 84829856 bytes, 1137.78 kbps, fifo 16
[22:18:09] mux: video bitrate error, +84829856 bytes
[22:18:09] mux: track 1, 27958 frames, 12470977 bytes, 167.27 kbps, fifo 512
[22:18:09] mux: overhead, 6.11 bytes per frame
[22:18:09] thread 11c82e000 joined ("reader")
[22:18:09] fifo_close: trashing 0 buffer(s)
[22:18:09] fifo_close: trashing 0 buffer(s)
[22:18:09] fifo_close: trashing 0 buffer(s)
[22:18:09] fifo_close: trashing 0 buffer(s)
[22:18:09] fifo_close: trashing 0 buffer(s)
[22:18:09] fifo_close: trashing 0 buffer(s)
[22:18:09] fifo_close: trashing 0 buffer(s)
[22:18:09] fifo_close: trashing 0 buffer(s)
[22:18:09] fifo_close: trashing 0 buffer(s)
[22:18:09] Freed 32 buffers of size 2048
[22:18:09] Freed 32 buffers of size 8192
[22:18:09] Freed 32 buffers of size 16384
[22:18:09] Freed 32 buffers of size 32768
[22:18:09] Freed 32 buffers of size 65536
[22:18:09] Freed 32 buffers of size 131072
[22:18:09] Freed 32 buffers of size 262144
[22:18:09] Freed 32 buffers of size 1048576
[22:18:09] Allocated 50135040 bytes of buffers on this pass and Freed 50135040 bytes, 0 bytes leaked
[22:18:09] thread 11c5c6000 exited ("work")
[22:18:09] thread 11c5c6000 joined ("work")
[22:18:09] libhb: work result = 0
CPU utilization around 65%.
Post Reply