Intel Q9550 @ 3.6Ghz and Stock. Please contribute as well

Post your testing results with HandBrake.
Post Reply
kman79
Posts: 3
Joined: Wed May 26, 2010 7:55 am

Intel Q9550 @ 3.6Ghz and Stock. Please contribute as well

Post by kman79 » Sun May 30, 2010 10:38 am

In an effort to have a better idea and have some benchmarks for CPU and System builds as reference, I used Stmiller's file found on the link he provided in this post http://forum.handbrake.fr/viewtopic.php?f=9&t=12090. I've been searching the net for CPU Handbrake benchmarks and haven't found any that actually had results for different CPUs or overclocks using the same source file

I just chose the source file and clicked normal and pressed start, I made no changes from the "Normal" Profile. I'll be posting the stock speed results in another post.

Please, feel free to reply to this thread with your CPU and Average Encoding Speeds using the 1920X1080 AVI Mpeg4 video found in this link http://www.bigbuckbunny.org/index.php/download/

Machine Type: Intel Q9550
CPU Speed: 3.8Ghz overclocked from 2.83Ghz
Ram: 4GB Gskill
Mobo: Asus P5Q SE Plus
Number of CPU Cores: 4
Rip Format: mp4
Encoder: x264
Video Size: 1920x1080
Pass: single pass
Handbrake: 0.9.4 64bit
OS: Windows 7 64-Bit
Handbrake Profile: Normal

Average Encoding Speed for Job is 25.117565 fps

Code: Select all

[04:59:30] hb_init: checking cpu count
[04:59:30] hb_init: starting libhb thread
HandBrake 0.9.4 (2009112300) - MinGW i386 - http://handbrake.fr
4 CPUs detected
Forcing 4 CPUs
Opening C:\Users\Kahlil\Desktop\big_buck_bunny_1080p_surround.avi...
[04:59:30] hb_scan: path=C:\Users\Kahlil\Desktop\big_buck_bunny_1080p_surround.avi, title_index=1
[04:59:30] scan: trying to open with libdvdread
libdvdnav: Using dvdnav version 4.1.3
libdvdread: Encrypted DVD support unavailable.
libdvdnav:DVDOpenFileUDF:UDFFindFile /VIDEO_TS/VIDEO_TS.IFO failed
libdvdnav:DVDOpenFileUDF:UDFFindFile /VIDEO_TS/VIDEO_TS.BUP failed
libdvdread: Can't open file VIDEO_TS.IFO.
libdvdnav: vm: failed to read VIDEO_TS.IFO
[04:59:30] dvd: not a dvd - trying as a stream/file instead
Input #0, avi, from 'C:\Users\Kahlil\Desktop\big_buck_bunny_1080p_surround.avi':
  Duration: 00:09:56.48, start: 0.000000, bitrate: 12455 kb/s
    Stream #0.0: Video: mpeg4, yuv420p, 1920x1080 [PAR 1:1 DAR 16:9], 24 tbr, 24 tbn, 24 tbc
    Stream #0.1: Audio: ac3, 48000 Hz, 5.1, s16, 448 kb/s
[04:59:30] scan: decoding previews for title 1
[04:59:30] scan: audio 0x1: AC-3, rate=48000Hz, bitrate=448000 Unknown (AC3) (5.1 ch)
Scanning title 1...
[04:59:30] scan: 10 previews, 1920x1080, 24.000 fps, autocrop = 0/0/0/0, aspect 16:9, PAR 1:1
[04:59:30] scan: title (0) job->width:1936, job->height:1088
[04:59:30] libhb: scan thread found 1 valid title(s)
+ title 1:
  + vts 0, ttn 0, cells 0->0 (0 blocks)
  + angle(s) 0
  + duration: 00:09:56
  + size: 1920x1080, pixel aspect: 1/1, display aspect: 1.78, 24.000 fps
  + autocrop: 0/0/0/0
  + chapters:
    + 1: cells 0->0, 0 blocks, duration 00:09:56
  + audio tracks:
    + 1, Unknown (AC3) (5.1 ch) (iso639-2: und), 48000Hz, 448000bps
  + subtitle tracks:
[04:59:31] 1 job(s) to process
[04:59:31] starting job
[04:59:31] job configuration:
[04:59:31]  * source
[04:59:31]    + C:\Users\Kahlil\Desktop\big_buck_bunny_1080p_surround.avi
[04:59:31]    + title 1, chapter(s) 1 to 1
[04:59:31]    + container: avi
[04:59:31]    + data rate: 12455 kbps
[04:59:31]  * destination
[04:59:31]    + C:\Users\Kahlil\Desktop\DeskTop Temp\Transcoded\HB Benchmark1.mp4
[04:59:31]    + container: MPEG-4 (.mp4 and .m4v)
[04:59:31]  * video track
[04:59:31]    + decoder: mpeg4
[04:59:31]    + frame rate: same as source (around 24.000 fps)
[04:59:31]    + strict anamorphic
[04:59:31]      + modulus: 0
[04:59:31]      + storage dimensions: 1920 * 1080 -> 1920 * 1080, crop 0/0/0/0
[04:59:31]      + pixel aspect ratio: 1 / 1
[04:59:31]      + display dimensions: 1920 * 1080
[04:59:31]    + encoder: x264
[04:59:31]      + options: ref=2:bframes=2:subq=6:mixed-refs=0:weightb=0:8x8dct=0:trellis=0
[04:59:31]      + quality: 20.00 (RF)
[04:59:31]  * audio track 0
[04:59:31]    + decoder: Unknown (AC3) (5.1 ch) (track 1, id 1)
[04:59:31]      + bitrate: 448 kbps, samplerate: 48000 Hz
[04:59:31]    + mixdown: Dolby Pro Logic II
[04:59:31]    + encoder: faac
[04:59:31]      + bitrate: 160 kbps, samplerate: 48000 Hz
libdvdnav: Using dvdnav version 4.1.3
[04:59:31] encx264: keyint-min: 25, keyint-max: 250
[04:59:31] encx264: encoding with stored aspect 1/1
[04:59:31] encx264: Encoding at constant RF 20.000000
x264 [info]: using SAR=1/1
x264 [info]: using cpu capabilities: MMX2 SSE2Fast SSSE3 FastShuffle SSE4.1 Cache64
libdvdread: Encrypted DVD support unavailable.
libdvdnav:DVDOpenFileUDF:UDFFindFile /VIDEO_TS/VIDEO_TS.IFO failed
libdvdnav:DVDOpenFileUDF:UDFFindFile /VIDEO_TS/VIDEO_TS.BUP failed
libdvdread: Can't open file VIDEO_TS.IFO.
libdvdnav: vm: failed to read VIDEO_TS.IFO
[04:59:31] dvd: not a dvd - trying as a stream/file instead
[04:59:31] reader: first SCR 0 id 1 DTS 0
x264 [info]: profile Main, level 4.0
No accelerated IMDCT transform found
[04:59:31] sync: expecting 14339 video frames
[05:08:52] reader: done. 1 scr changes
[05:09:00] sync: got 14314 frames, 14339 expected
[05:09:00] work: average encoding speed for job is 25.117565 fps
[05:09:03] mux: track 0, 14314 frames, 400188783 bytes, 5367.17 kbps, fifo 64
[05:09:03] mux: track 1, 27961 frames, 11929742 bytes, 160.00 kbps, fifo 1024
[05:09:03] mpeg4-decoder done: 14315 frames, 0 decoder errors, 0 drops
[05:09:03] render: lost time: 0 (0 frames)
[05:09:03] render: gained time: 0 (0 frames) (0 not accounted for)
x264 [info]: frame I:137   Avg QP:13.91  size:273074  PSNR Mean Y:50.23 U:54.45 V:55.32 Avg:51.19 Global:49.82
x264 [info]: frame P:11611 Avg QP:17.68  size: 28926  PSNR Mean Y:46.72 U:50.29 V:51.04 Avg:47.59 Global:46.64
x264 [info]: frame B:2566  Avg QP:23.04  size: 10491  PSNR Mean Y:45.11 U:51.74 V:52.48 Avg:46.11 Global:43.69
x264 [info]: consecutive B-frames: 71.7%  4.5% 23.8%
x264 [info]: mb I  I16..4: 34.9%  0.0% 65.1%
x264 [info]: mb P  I16..4:  2.9%  0.0%  2.1%  P16..4: 34.2%  7.6%  4.5%  0.0%  0.0%    skip:48.7%
x264 [info]: mb B  I16..4:  2.3%  0.0%  1.5%  B16..8: 13.6%  1.0%  0.6%  direct: 8.3%  skip:72.6%  L0:43.5% L1:40.5% BI:16.0%
x264 [info]: coded y,uvDC,uvAC intra: 46.3% 57.9% 29.5% inter: 12.7% 15.3% 2.8%
x264 [info]: i16 v,h,dc,p: 44% 23% 15% 18%
x264 [info]: i4 v,h,dc,ddl,ddr,vr,hd,vl,hu: 28% 17% 19%  5%  6%  8%  6%  6%  5%
x264 [info]: Weighted P-Frames: Y:1.0%
x264 [info]: ref P L0: 73.5% 10.1% 16.4%
x264 [info]: SSIM Mean Y:0.9903838
x264 [info]: PSNR Mean Y:46.461 U:50.586 V:51.336 Avg:47.360 Global:45.961 kb/s:5367.99
[05:09:03] libhb: work result = 0

Rip done!
HandBrake has exited.
Last edited by kman79 on Sun May 30, 2010 11:26 am, edited 1 time in total.

kman79
Posts: 3
Joined: Wed May 26, 2010 7:55 am

Re: Intel Q9550 @ 3.6Ghz and Stock. Please contribute as we

Post by kman79 » Sun May 30, 2010 11:04 am

I set the computer settings back to default in the Bios, and these are the results for the Intel Q9550 at stock speeds

Machine Type: Intel Q9550
CPU Speed: 2.83Ghz
Ram: 4GB Gskill
Mobo: Asus P5Q SE Plus
Number of CPU Cores: 4
Rip Format: mp4
Encoder: x264
Video Size: 1920x1080
Pass: single pass
Handbrake: 0.9.4 64bit
OS: Windows 7 64-Bit
Handbrake Profile: Normal

Average Encoding Speed for Job is 19.062418 fps

Code: Select all

[05:46:28] hb_init: checking cpu count
[05:46:28] hb_init: starting libhb thread
HandBrake 0.9.4 (2009112300) - MinGW i386 - http://handbrake.fr
4 CPUs detected
Forcing 4 CPUs
Opening C:\Users\Kahlil\Desktop\big_buck_bunny_1080p_surround.avi...
[05:46:28] hb_scan: path=C:\Users\Kahlil\Desktop\big_buck_bunny_1080p_surround.avi, title_index=1
[05:46:28] scan: trying to open with libdvdread
libdvdnav: Using dvdnav version 4.1.3
libdvdread: Encrypted DVD support unavailable.
libdvdnav:DVDOpenFileUDF:UDFFindFile /VIDEO_TS/VIDEO_TS.IFO failed
libdvdnav:DVDOpenFileUDF:UDFFindFile /VIDEO_TS/VIDEO_TS.BUP failed
libdvdread: Can't open file VIDEO_TS.IFO.
libdvdnav: vm: failed to read VIDEO_TS.IFO
[05:46:28] dvd: not a dvd - trying as a stream/file instead
Input #0, avi, from 'C:\Users\Kahlil\Desktop\big_buck_bunny_1080p_surround.avi':
  Duration: 00:09:56.48, start: 0.000000, bitrate: 12455 kb/s
    Stream #0.0: Video: mpeg4, yuv420p, 1920x1080 [PAR 1:1 DAR 16:9], 24 tbr, 24 tbn, 24 tbc
    Stream #0.1: Audio: ac3, 48000 Hz, 5.1, s16, 448 kb/s
[05:46:28] scan: decoding previews for title 1
[05:46:28] scan: audio 0x1: AC-3, rate=48000Hz, bitrate=448000 Unknown (AC3) (5.1 ch)
Scanning title 1...
[05:46:29] scan: 10 previews, 1920x1080, 24.000 fps, autocrop = 0/0/0/0, aspect 16:9, PAR 1:1
[05:46:29] scan: title (0) job->width:1936, job->height:1088
Scanning title 1...
[05:46:29] libhb: scan thread found 1 valid title(s)
+ title 1:
  + vts 0, ttn 0, cells 0->0 (0 blocks)
  + angle(s) 0
  + duration: 00:09:56
  + size: 1920x1080, pixel aspect: 1/1, display aspect: 1.78, 24.000 fps
  + autocrop: 0/0/0/0
  + chapters:
    + 1: cells 0->0, 0 blocks, duration 00:09:56
  + audio tracks:
    + 1, Unknown (AC3) (5.1 ch) (iso639-2: und), 48000Hz, 448000bps
  + subtitle tracks:
[05:46:29] 1 job(s) to process
[05:46:29] starting job
[05:46:29] job configuration:
[05:46:29]  * source
[05:46:29]    + C:\Users\Kahlil\Desktop\big_buck_bunny_1080p_surround.avi
[05:46:29]    + title 1, chapter(s) 1 to 1
[05:46:29]    + container: avi
[05:46:29]    + data rate: 12455 kbps
[05:46:29]  * destination
[05:46:29]    + C:\Users\Kahlil\Desktop\DeskTop Temp\Transcoded\HB Benchmark StockCPU.mp4
[05:46:29]    + container: MPEG-4 (.mp4 and .m4v)
[05:46:29]  * video track
[05:46:29]    + decoder: mpeg4
[05:46:29]    + frame rate: same as source (around 24.000 fps)
[05:46:29]    + strict anamorphic
[05:46:29]      + modulus: 0
[05:46:29]      + storage dimensions: 1920 * 1080 -> 1920 * 1080, crop 0/0/0/0
[05:46:29]      + pixel aspect ratio: 1 / 1
[05:46:29]      + display dimensions: 1920 * 1080
[05:46:29]    + encoder: x264
[05:46:29]      + options: ref=2:bframes=2:subq=6:mixed-refs=0:weightb=0:8x8dct=0:trellis=0
[05:46:29]      + quality: 20.00 (RF)
[05:46:29]  * audio track 0
[05:46:29]    + decoder: Unknown (AC3) (5.1 ch) (track 1, id 1)
[05:46:29]      + bitrate: 448 kbps, samplerate: 48000 Hz
[05:46:29]    + mixdown: Dolby Pro Logic II
[05:46:29]    + encoder: faac
[05:46:29]      + bitrate: 160 kbps, samplerate: 48000 Hz
libdvdnav: Using dvdnav version 4.1.3
libdvdread: Encrypted DVD support unavailable.
libdvdnav:DVDOpenFileUDF:UDFFindFile /VIDEO_TS/VIDEO_TS.IFO failed
libdvdnav:DVDOpenFileUDF:UDFFindFile /VIDEO_TS/VIDEO_TS.BUP failed
libdvdread: Can't open file VIDEO_TS.IFO.
libdvdnav: vm: failed to read VIDEO_TS.IFO
[05:46:29] dvd: not a dvd - trying as a stream/file instead
[05:46:29] reader: first SCR 0 id 1 DTS 0
[05:46:29] encx264: keyint-min: 25, keyint-max: 250
[05:46:29] encx264: encoding with stored aspect 1/1
[05:46:29] encx264: Encoding at constant RF 20.000000
x264 [info]: using SAR=1/1
x264 [info]: using cpu capabilities: MMX2 SSE2Fast SSSE3 FastShuffle SSE4.1 Cache64
x264 [info]: profile Main, level 4.0
No accelerated IMDCT transform found
[05:46:29] sync: expecting 14339 video frames
[05:58:49] reader: done. 1 scr changes
[05:59:00] sync: got 14314 frames, 14339 expected
[05:59:00] work: average encoding speed for job is 19.062418 fps
[05:59:04] mux: track 0, 14314 frames, 400188783 bytes, 5367.17 kbps, fifo 64
[05:59:04] mux: track 1, 27961 frames, 11929742 bytes, 160.00 kbps, fifo 1024
[05:59:04] mpeg4-decoder done: 14315 frames, 0 decoder errors, 0 drops
[05:59:04] render: lost time: 0 (0 frames)
[05:59:04] render: gained time: 0 (0 frames) (0 not accounted for)
x264 [info]: frame I:137   Avg QP:13.91  size:273074  PSNR Mean Y:50.23 U:54.45 V:55.32 Avg:51.19 Global:49.82
x264 [info]: frame P:11611 Avg QP:17.68  size: 28926  PSNR Mean Y:46.72 U:50.29 V:51.04 Avg:47.59 Global:46.64
x264 [info]: frame B:2566  Avg QP:23.04  size: 10491  PSNR Mean Y:45.11 U:51.74 V:52.48 Avg:46.11 Global:43.69
x264 [info]: consecutive B-frames: 71.7%  4.5% 23.8%
x264 [info]: mb I  I16..4: 34.9%  0.0% 65.1%
x264 [info]: mb P  I16..4:  2.9%  0.0%  2.1%  P16..4: 34.2%  7.6%  4.5%  0.0%  0.0%    skip:48.7%
x264 [info]: mb B  I16..4:  2.3%  0.0%  1.5%  B16..8: 13.6%  1.0%  0.6%  direct: 8.3%  skip:72.6%  L0:43.5% L1:40.5% BI:16.0%
x264 [info]: coded y,uvDC,uvAC intra: 46.3% 57.9% 29.5% inter: 12.7% 15.3% 2.8%
x264 [info]: i16 v,h,dc,p: 44% 23% 15% 18%
x264 [info]: i4 v,h,dc,ddl,ddr,vr,hd,vl,hu: 28% 17% 19%  5%  6%  8%  6%  6%  5%
x264 [info]: Weighted P-Frames: Y:1.0%
x264 [info]: ref P L0: 73.5% 10.1% 16.4%
x264 [info]: SSIM Mean Y:0.9903838
x264 [info]: PSNR Mean Y:46.461 U:50.586 V:51.336 Avg:47.360 Global:45.961 kb/s:5367.99
[05:59:04] libhb: work result = 0

Rip done!
HandBrake has exited.


 ############ End of Log ############## 

Frank
Posts: 61
Joined: Fri Apr 20, 2007 9:06 am

Re: Intel Q9550 @ 3.6Ghz and Stock. Please contribute as we

Post by Frank » Sun Aug 29, 2010 1:07 am

Using the link referred to in the other thread (http://www.frostclick.com/torrents/vide ... om.torrent)...

Two encodes with the 'Normal' template. No adjustments made. Click'n'go.

System:
MacPro2,1 (Clovertown x 2 @ 3GHz) (i.e. 8 cores @ 3.0GHz)
OS X 10.6.4 w/8Gb RAM


Official Handbrake release of December 09:

average encoding speed for job is 25.057083 fps:

Code: Select all

HandBrake Activity Log for /Users/Frank/Desktop/HBReleaseBig_Buck_Bunny_1080p_surround_FrostWire.com.mp4: 2010-08-28 17:41:01 -0700
Handbrake Version: 0.9.4 x86_64 (2009112300)

[17:41:01] macgui: Rip: Pending queue count is 0
[17:41:01] macgui: scanning specifically for title: 1
[17:41:01] macgui: performNewQueueScan currentQueueEncodeIndex is: 0
[17:41:01] hb_scan: path=/Users/Frank/Desktop/Big_Buck_Bunny_1080p_surround_frostclick.com_frostwire.com/Big_Buck_Bunny_1080p_surround_FrostWire.com.avi, title_index=1
[17:41:01] scan: trying to open with libdvdread
libdvdnav: Using dvdnav version 4.1.3
libdvdread: Using libdvdcss version 1.2.10 for DVD access
libdvdnav:DVDOpenFileUDF:UDFFindFile /VIDEO_TS/VIDEO_TS.IFO failed
libdvdnav:DVDOpenFileUDF:UDFFindFile /VIDEO_TS/VIDEO_TS.BUP failed
libdvdread: Can't open file VIDEO_TS.IFO.
libdvdnav: vm: failed to read VIDEO_TS.IFO
[17:41:01] dvd: not a dvd - trying as a stream/file instead
Input #0, avi, from '/Users/Frank/Desktop/Big_Buck_Bunny_1080p_surround_frostclick.com_frostwire.com/Big_Buck_Bunny_1080p_surround_FrostWire.com.avi':
  Duration: 00:09:56.48, start: 0.000000, bitrate: 12455 kb/s
    Stream #0.0: Video: mpeg4, yuv420p, 1920x1080 [PAR 1:1 DAR 16:9], 24 tbr, 24 tbn, 24 tbc
    Stream #0.1: Audio: ac3, 48000 Hz, 5.1, s16, 448 kb/s
[17:41:01] scan: decoding previews for title 1
[17:41:01] scan: audio 0x1: AC-3, rate=48000Hz, bitrate=448000 Unknown (AC3) (5.1 ch)
[17:41:01] scan: 10 previews, 1920x1080, 24.000 fps, autocrop = 0/0/0/0, aspect 16:9, PAR 1:1
[17:41:01] scan: title (0) job->width:1936, job->height:1088
[17:41:01] libhb: scan thread found 1 valid title(s)
[17:41:01] macgui: ScanDone state received from fQueueEncodeLibhb
[17:41:01] macgui: Preset: Normal (Default)
[17:41:01] macgui: processNewQueueEncode number of passes expected is: 1
[17:41:01] macgui: prepareJob exiting
[17:41:01] 1 job(s) to process
[17:41:01] starting job
[17:41:01] job configuration:
[17:41:01]  * source
[17:41:01]    + /Users/Frank/Desktop/Big_Buck_Bunny_1080p_surround_frostclick.com_frostwire.com/Big_Buck_Bunny_1080p_surround_FrostWire.com.avi
[17:41:01]    + title 1, chapter(s) 1 to 1
[17:41:01]    + container: avi
[17:41:01]    + data rate: 12455 kbps
[17:41:01]  * destination
[17:41:01]    + /Users/Frank/Desktop/HBReleaseBig_Buck_Bunny_1080p_surround_FrostWire.com.mp4
[17:41:01]    + container: MPEG-4 (.mp4 and .m4v)
[17:41:01]  * video track
[17:41:01]    + decoder: mpeg4
[17:41:01]    + frame rate: same as source (around 24.000 fps)
[17:41:01]    + strict anamorphic
[17:41:01]      + modulus: 0
[17:41:01]      + storage dimensions: 1920 * 1080 -> 1920 * 1080, crop 0/0/0/0
[17:41:01]      + pixel aspect ratio: 1 / 1
[17:41:01]      + display dimensions: 1920 * 1080
[17:41:01]    + encoder: x264
[17:41:01]      + options: ref=2:bframes=2:subq=6:mixed-refs=0:weightb=0:8x8dct=0:trellis=0
[17:41:01]      + quality: 20.00 (RF)
[17:41:01]  * audio track 0
[17:41:01]    + decoder: Unknown (AC3) (5.1 ch) (track 1, id 1)
[17:41:01]      + bitrate: 448 kbps, samplerate: 48000 Hz
[17:41:01]    + mixdown: Dolby Pro Logic II
[17:41:01]    + encoder: ca_aac
[17:41:01]      + bitrate: 160 kbps, samplerate: 48000 Hz
libdvdnav: Using dvdnav version 4.1.3
[17:41:01] encx264: keyint-min: 25, keyint-max: 250
[17:41:01] encx264: encoding with stored aspect 1/1
libdvdread: Using libdvdcss version 1.2.10 for DVD access
[17:41:01] encx264: Encoding at constant RF 20.000000
x264 [info]: using SAR=1/1
libdvdnav:DVDOpenFileUDF:UDFFindFile /VIDEO_TS/VIDEO_TS.IFO failed
libdvdnav:DVDOpenFileUDF:UDFFindFile /VIDEO_TS/VIDEO_TS.BUP failed
libdvdread: Can't open file VIDEO_TS.IFO.
libdvdnav: vm: failed to read VIDEO_TS.IFO
[17:41:01] dvd: not a dvd - trying as a stream/file instead
x264 [info]: using cpu capabilities: MMX2 SSE2Fast SSSE3 Cache64
[17:41:02] reader: first SCR 0 id 1 DTS 0
x264 [info]: profile Main, level 4.0
No accelerated IMDCT transform found
[17:41:02] sync: expecting 14339 video frames
[17:50:21] reader: done. 1 scr changes
[17:50:33] sync: got 14314 frames, 14339 expected
[17:50:33] work: average encoding speed for job is 25.057083 fps
[17:50:39] mux: track 0, 14314 frames, 401009845 bytes, 5378.18 kbps, fifo 128
[17:50:39] mux: track 1, 27960 frames, 12471808 bytes, 167.27 kbps, fifo 2048
[17:50:39] mpeg4-decoder done: 14315 frames, 0 decoder errors, 0 drops
[17:50:39] render: lost time: 0 (0 frames)
[17:50:39] render: gained time: 0 (0 frames) (0 not accounted for)
x264 [info]: frame I:137   Avg QP:13.91  size:273074  PSNR Mean Y:50.23 U:54.45 V:55.32 Avg:51.19 Global:49.82
x264 [info]: frame P:11611 Avg QP:17.67  size: 28993  PSNR Mean Y:46.72 U:50.28 V:51.04 Avg:47.59 Global:46.64
x264 [info]: frame B:2566  Avg QP:23.05  size: 10511  PSNR Mean Y:45.11 U:51.72 V:52.51 Avg:46.11 Global:43.69
x264 [info]: consecutive B-frames: 71.7%  4.5% 23.8%
x264 [info]: mb I  I16..4: 34.9%  0.0% 65.1%
x264 [info]: mb P  I16..4:  3.0%  0.0%  2.2%  P16..4: 34.1%  7.5%  4.5%  0.0%  0.0%    skip:48.7%
x264 [info]: mb B  I16..4:  2.3%  0.0%  1.5%  B16..8: 13.6%  1.0%  0.6%  direct: 8.3%  skip:72.6%  L0:43.5% L1:40.5% BI:16.0%
x264 [info]: coded y,uvDC,uvAC intra: 46.5% 58.4% 29.6% inter: 12.7% 15.3% 2.8%
x264 [info]: i16 v,h,dc,p: 43% 23% 15% 19%
x264 [info]: i4 v,h,dc,ddl,ddr,vr,hd,vl,hu: 27% 17% 19%  5%  6%  8%  6%  6%  5%
x264 [info]: Weighted P-Frames: Y:1.0%
x264 [info]: ref P L0: 73.5% 10.1% 16.3%
x264 [info]: SSIM Mean Y:0.9903880
x264 [info]: PSNR Mean Y:46.464 U:50.580 V:51.344 Avg:47.362 Global:45.963 kb/s:5379.01
[17:50:39] libhb: work result = 0
Using the latest svn snapshot as of today {Handbrake Version: svn3496 x86_64 (2010082801)}

average encoding speed for job is 31.292450 fps

Code: Select all

HandBrake Activity Log for /Users/Frank/Desktop/Big_Buck_Bunny_1080p_surround_FrostWire.com.m4v: 2010-08-28 17:12:25 -0700
Handbrake Version: svn3496 x86_64 (2010082801)

[17:12:25] macgui: Rip: Pending queue count is 0
[17:12:25] macgui: getNextPendingQueueIndex next pending encod index is:0
[17:12:25] macgui: scanning specifically for title: 1
[17:12:25] hb_scan: path=/Users/Frank/Desktop/Big_Buck_Bunny_1080p_surround_frostclick.com_frostwire.com/Big_Buck_Bunny_1080p_surround_FrostWire.com.avi, title_index=1
[17:12:25] scan: trying to open with libdvdread
libdvdnav: Using dvdnav version 4.1.3
libdvdread: Using libdvdcss version 1.2.10 for DVD access
libdvdnav:DVDOpenFileUDF:UDFFindFile /VIDEO_TS/VIDEO_TS.IFO failed
libdvdnav:DVDOpenFileUDF:UDFFindFile /VIDEO_TS/VIDEO_TS.BUP failed
libdvdread: Can't open file VIDEO_TS.IFO.
libdvdnav: vm: failed to read VIDEO_TS.IFO
[17:12:25] dvd: not a dvd - trying as a stream/file instead
Input #0, avi, from '/Users/Frank/Desktop/Big_Buck_Bunny_1080p_surround_frostclick.com_frostwire.com/Big_Buck_Bunny_1080p_surround_FrostWire.com.avi':
  Metadata:
    ISFT            : AVI-Mux GUI 1.17.7, Aug  8 2006  20:59:17
    JUNK            : 
  Duration: 00:09:56.45, start: 0.000000, bitrate: 12455 kb/s
    Stream #0.0: Video: mpeg4, yuv420p, 1920x1080 [PAR 1:1 DAR 16:9], 24 tbr, 24 tbn, 24 tbc
    Stream #0.1: Audio: ac3, 48000 Hz, 5.1, s16, 448 kb/s
[17:12:25] scan: decoding previews for title 1
[17:12:25] scan: audio 0x1: AC-3, rate=48000Hz, bitrate=448000 Unknown (AC3) (5.1 ch)
[17:12:26] scan: 10 previews, 1920x1080, 24.000 fps, autocrop = 0/0/0/0, aspect 16:9, PAR 1:1
[17:12:26] scan: title (0) job->width:1920, job->height:1072
[17:12:26] libhb: scan thread found 1 valid title(s)
[17:12:26] macgui: ScanDone state received from fQueueEncodeLibhb
[17:12:26] macgui: Preset: Normal (Default)
[17:12:26] macgui: processNewQueueEncode number of passes expected is: 1
[17:12:26] macgui: Start / Stop set to chapters
[17:12:26] macgui: prepareJob exiting
[17:12:26] 1 job(s) to process
[17:12:26] starting job
[17:12:26] sync: expecting 14339 video frames
[17:12:26] job configuration:
[17:12:26]  * source
[17:12:26]    + /Users/Frank/Desktop/Big_Buck_Bunny_1080p_surround_frostclick.com_frostwire.com/Big_Buck_Bunny_1080p_surround_FrostWire.com.avi
[17:12:26]    + title 1, chapter(s) 1 to 1
[17:12:26]    + container: avi
[17:12:26]    + data rate: 12455 kbps
[17:12:26]  * destination
[17:12:26]    + /Users/Frank/Desktop/Big_Buck_Bunny_1080p_surround_FrostWire.com.m4v
[17:12:26]    + container: MPEG-4 (.mp4 and .m4v)
[17:12:26]  * video track
[17:12:26]    + decoder: mpeg4
[17:12:26]    + frame rate: same as source (around 24.000 fps)
[17:12:26]    + strict anamorphic
[17:12:26]      + storage dimensions: 1920 * 1080 -> 1920 * 1080, crop 0/0/0/0, mod 16
[17:12:26]      + pixel aspect ratio: 1 / 1
[17:12:26]      + display dimensions: 1920 * 1080
[17:12:26]    + encoder: x264
[17:12:26]      + options: ref=2:bframes=2:subq=6:mixed-refs=0:weightb=0:8x8dct=0:trellis=0
[17:12:26]      + quality: 20.00 (RF)
[17:12:26]  * audio track 0
[17:12:26]    + decoder: Unknown (AC3) (5.1 ch) (track 1, id 1)
[17:12:26]      + bitrate: 448 kbps, samplerate: 48000 Hz
[17:12:26]    + mixdown: Dolby Pro Logic II
[17:12:26]    + encoder: ca_aac
[17:12:26]      + bitrate: 160 kbps, samplerate: 48000 Hz
[17:12:26] encx264: min-keyint: 24, keyint: 240
[17:12:26] encx264: encoding with stored aspect 1/1
[17:12:26] encx264: Encoding at constant RF 20.000000
x264 [info]: using SAR=1/1
x264 [info]: using cpu capabilities: MMX2 SSE2Fast SSSE3 Cache64
[17:12:26] reader: first SCR 11520 id 1 DTS 11520
x264 [info]: profile Main, level 4.0
No accelerated IMDCT transform found
[17:13:07] macgui: Rip: Pending queue count is 0
[17:13:08] macgui: cancelling current job and stopping the queue
[17:13:08] work: average encoding speed for job is 31.292450 fps
[17:13:08] reader: done. 1 scr changes
[17:13:08] sync: got 1285 frames, 14339 expected
[17:13:08] mpeg4-decoder done: 1296 frames, 0 decoder errors, 0 drops
[17:13:08] render: lost time: 0 (0 frames)
[17:13:08] render: gained time: 0 (0 frames) (0 not accounted for)
x264 [info]: frame I:8     Avg QP:14.81  size:395160  PSNR Mean Y:53.83 U:56.25 V:57.11 Avg:54.55 Global:48.16
x264 [info]: frame P:743   Avg QP:18.21  size: 64238  PSNR Mean Y:45.51 U:48.14 V:48.85 Avg:46.26 Global:44.97
x264 [info]: frame B:459   Avg QP:23.80  size:  8115  PSNR Mean Y:43.37 U:45.86 V:47.60 Avg:44.15 Global:42.66
x264 [info]: consecutive B-frames: 40.9%  7.2% 51.9%
x264 [info]: mb I  I16..4: 27.8%  0.0% 72.2%
x264 [info]: mb P  I16..4:  4.2%  0.0%  1.4%  P16..4: 43.1% 12.2% 10.3%  0.0%  0.0%    skip:28.8%
x264 [info]: mb B  I16..4:  1.8%  0.0%  0.2%  B16..8: 29.5%  3.7%  0.3%  direct: 6.5%  skip:58.0%  L0:27.7% L1:56.3% BI:16.0%
x264 [info]: coded y,uvDC,uvAC intra: 27.2% 42.1% 23.1% inter: 20.8% 26.3% 9.7%
x264 [info]: i16 v,h,dc,p: 65% 20%  9%  6%
x264 [info]: i4 v,h,dc,ddl,ddr,vr,hd,vl,hu: 30% 13% 18%  5%  7%  7%  6%  8%  5%
x264 [info]: i8c dc,h,v,p: 58% 19% 18%  5%
x264 [info]: Weighted P-Frames: Y:4.7%
x264 [info]: ref P L0: 70.7% 12.0% 17.2%  0.1%
x264 [info]: ref B L0: 80.6% 19.4%
x264 [info]: ref B L1: 88.1% 11.9%
x264 [info]: SSIM Mean Y:0.9881210 (19.252db)
x264 [info]: PSNR Mean Y:44.749 U:47.329 V:48.431 Avg:45.514 Global:43.956 kb/s:8342.68
[17:13:09] mux: track 0, 1205 frames, 54494091 bytes, 8690.10 kbps, fifo 16
[17:13:09] mux: track 1, 2350 frames, 1042316 bytes, 166.22 kbps, fifo 256
[17:13:09] libhb: work result = 0

Post Reply