Page 1 of 1

Can't use NVEnc gtx 1660 super

Posted: Tue Jun 16, 2020 4:23 pm
by johngonzhal
Description of problem or question:
I can't convert video with NVEnc on my PC. There is no such option on the tab with the video. In other applications, it is available to me.
What do I need to do to activate it?



Steps to reproduce the problem (If Applicable):
Image



HandBrake version (e.g., 1.0.0):
1.3.3



Operating system and version (e.g., Ubuntu 16.04 LTS, macOS 10.13 High Sierra, Windows 10 Creators Update):
Windows 10 pro 1909



HandBrake Activity Log ***required*** (see How-to get an activity log)

Code: Select all

HandBrake 1.3.3 (2020061300)
OS: Microsoft Windows NT 10.0.18363.0
CPU: Intel(R) Core(TM) i5-3570K CPU @ 3.40GHz
Ram: 16207 MB, 
GPU Information:
  Intel(R) HD Graphics 4000 - 10.18.10.4252
  NVIDIA GeForce GTX 1660 SUPER - 26.21.14.4614
Screen: 1920x1080
Temp Dir: C:\Users\Eugene\AppData\Local\Temp\
Install Dir: C:\Program Files\HandBrake
Data Dir: C:\Users\Eugene\AppData\Roaming\HandBrake

-------------------------------------------

[20:13:29] Compile-time hardening features are enabled
[20:13:29] Nvenc version 10.0
[20:13:34] hb_init: starting libhb thread

 # Starting Scan ...

[20:13:34] CPU: Intel(R) Core(TM) i5-3570K CPU @ 3.40GHz
[20:13:34]  - Intel microarchitecture Ivy Bridge
[20:13:34]  - logical processor count: 4
[20:13:34] Intel Quick Sync Video support: yes
[20:13:34]  - Intel Media SDK hardware: API 1.11 (minimum: 1.3)
[20:13:34]  - H.264 encoder: yes
[20:13:34]     - preferred implementation: hardware (any) via D3D11
[20:13:34]     - capabilities (hardware):  vsinfo opt1 opt2+extbrc+ib_adapt+nmpslice
[20:13:34]  - H.265 encoder: no
[20:13:34] hb_scan: path=G:\Video\14.09.21 2 месяца\MVI_5109.MOV, title_index=0
src/libbluray/disc/disc.c:323: failed opening UDF image G:\Video\14.09.21 2 месяца\MVI_5109.MOV
src/libbluray/disc/disc.c:424: error opening file BDMV\index.bdmv
src/libbluray/disc/disc.c:424: error opening file BDMV\BACKUP\index.bdmv
src/libbluray/bluray.c:2585: nav_get_title_list(G:\Video\14.09.21 2 месяца\MVI_5109.MOV\) failed
[20:13:34] bd: not a bd - trying as a stream/file instead
libdvdnav: Using dvdnav version 6.0.1
libdvdread: Encrypted DVD support unavailable.
libdvdread:DVDOpenFileUDF:UDFFindFile /VIDEO_TS/VIDEO_TS.IFO failed
libdvdread:DVDOpenFileUDF:UDFFindFile /VIDEO_TS/VIDEO_TS.BUP failed
libdvdread: Can't open file VIDEO_TS.IFO.
libdvdnav: vm: failed to read VIDEO_TS.IFO
[20:13:34] dvd: not a dvd - trying as a stream/file instead
Input #0, mov,mp4,m4a,3gp,3g2,mj2, from 'G:\Video\14.09.21 2 месяца\MVI_5109.MOV':
  Metadata:
    major_brand     : qt
    minor_version   : 537331968
    compatible_brands: qt  CAEP
    com.apple.quicktime.make: Canon
    com.apple.quicktime.model: Canon EOS 650D
    com.apple.quicktime.rating.user: 0.000000
    creation_time   : 2014-09-21T12:11:31.000000Z
  Duration: 00:00:29.12, start: 0.000000, bitrate: 45466 kb/s
    Stream #0:0(eng): Video: h264 (Constrained Baseline) (avc1 / 0x31637661), yuvj420p(pc, bt709), 1920x1080, 43902 kb/s, 25 fps, 25 tbr, 25k tbn, 50k tbc (default)
    Metadata:
      creation_time   : 2014-09-21T12:11:31.000000Z
    Stream #0:1(eng): Audio: pcm_s16le (sowt / 0x74776F73), 48000 Hz, stereo, s16, 1536 kb/s (default)
    Metadata:
      creation_time   : 2014-09-21T12:11:31.000000Z
[20:13:34] scan: decoding previews for title 1
[20:13:34] scan: audio 0x1: pcm_s16le, rate=48000Hz, bitrate=1536000 English (pcm_s16le) (2.0 ch) (1536 kbps)
[20:13:35] scan: 10 previews, 1920x1080, 25.000 fps, autocrop = 0/0/0/0, aspect 16:9, PAR 1:1
[20:13:35] scan: supported video decoders: avcodec qsv
[20:13:35] libhb: scan thread found 1 valid title(s)

 # Processing Scan Information ...


 # Scan Finished ...

Re: Can't use NVEnc gtx 1660 super

Posted: Thu Jul 09, 2020 5:54 am
by razorback
had the same problem and it was solved here:
viewtopic.php?f=6&p=191427#p191427

Re: Can't use NVEnc gtx 1660 super

Posted: Fri Jul 10, 2020 6:32 am
by johngonzhal
razorback wrote: Thu Jul 09, 2020 5:54 am had the same problem and it was solved here:
viewtopic.php?f=6&p=191427#p191427
Thank you a lot! You saved my nerve cells! :)