Preset problem: Audio passthrou not working

Discuss encoding for devices and presets.
Forum rules
An Activity Log is required for support requests. Please read How-to get an activity log? for details on how and why this should be provided.
Post Reply
henning65
Posts: 6
Joined: Sat Oct 05, 2019 5:22 pm

Preset problem: Audio passthrou not working

Post by henning65 »

Description of problem or question:
I did create a preset based on <H.265 MKV 720p30>. This preset was meant to a) include original language (and EN / German) and to include EN / DE - subtitle.
Problem: The audio DID NOT passthrou. The HB-indicates that AC3 is coded to AAC! And I simply don’t understand why.

I would be happy, if you could help!
Thanks!


my settings with the following criteria:

> video / Quality RF 18
> audio:
>> all language
>> every language
>> auto-Passsthru: AAC / AC3 / DTS / DTS-HD / TrueHD /
>> passthrou-Fallback: AAC (CoreAudio)
>> Audioenkodereinstellung für jede ausgewählte Spur: AAC / Stereo / Auto / 160

> Subtitles
>> all
>> EN, DE
>> option: Fremdsprachensuche
>> Burn-in: none
>>> DVD-Subtitle not selected
>>> Blu-ray-Subtitle not selected


Steps to reproduce the problem (If Applicable):




HandBrake version (e.g., 1.0.0):
Handbrake 1.2.2.



Operating system and version (e.g., Ubuntu 16.04 LTS, macOS 10.13 High Sierra, Windows 10 Creators Update):
macOS 10.14.6



HandBrake Activity Log ***required*** (see How-to get an activity log)

Code: Select all

HandBrake Activity Log for Session: 2019-10-05T14:30:02Z
Handbrake Version: 1.2.2 (2019022300)
[16:30:02] macgui: Handbrake Version: 1.2.2  (2019022300)
[16:30:02] hb_init: starting libhb thread
[16:30:02] hb_init: starting libhb thread
[16:30:15] macgui: trying to open a folder or file
[16:30:15] macgui: ScanCore scanning titles with a duration of 10 seconds or more
[16:30:15] CPU: Intel(R) Core(TM) i7-4790K CPU @ 4.00GHz
[16:30:15]  - Intel microarchitecture Haswell
[16:30:15]  - logical processor count: 8
[16:30:15] hb_scan: path=/..../Sleepy Hollow -MakeMKV/Sleepy Hollow (1999) -RAW.mkv, title_index=0
udfread ERROR: ECMA 167 Volume Recognition failed
disc.c:323: failed opening UDF image /.../Sleepy Hollow -MakeMKV/Sleepy Hollow (1999) -RAW.mkv
disc.c:424: error opening file BDMV/index.bdmv
disc.c:424: error opening file BDMV/BACKUP/index.bdmv
[16:30:15] bd: not a bd - trying as a stream/file instead
libdvdnav: Using dvdnav version 6.0.0
libdvdread: Encrypted DVD support unavailable.
libdvdread:DVDOpenFileUDF:UDFFindFile /VIDEO_TS/VIDEO_TS.IFO failed
libdvdread:DVDOpenFileUDF:UDFFindFile /VIDEO_TS/VIDEO_TS.BUP failed
libdvdread: Can't open file VIDEO_TS.IFO.
libdvdnav: vm: failed to read VIDEO_TS.IFO
[16:30:15] dvd: not a dvd - trying as a stream/file instead
Input #0, matroska,webm, from '/.../Sleepy Hollow -MakeMKV/Sleepy Hollow (1999) -RAW.mkv':
  Metadata:
    encoder         : libmakemkv v1.14.5 (1.3.5/1.4.7) darwin(x64-release)
    creation_time   : 2019-10-04T09:52:36.000000Z
  Duration: 01:40:57.00, start: 0.000000, bitrate: 9208 kb/s
    Chapter #0:0: start 0.000000, end 414.440000
    Metadata:
      title           : Chapter 01
    Chapter #0:1: start 414.440000, end 656.240000
    Metadata:
      title           : Chapter 02
    Chapter #0:2: start 656.240000, end 1100.840000
    Metadata:
      title           : Chapter 03
    Chapter #0:3: start 1100.840000, end 1461.200000
    Metadata:
      title           : Chapter 04
    Chapter #0:4: start 1461.200000, end 1878.760000
    Metadata:
      title           : Chapter 05
    Chapter #0:5: start 1878.760000, end 2257.320000
    Metadata:
      title           : Chapter 06
    Chapter #0:6: start 2257.320000, end 2687.360000
    Metadata:
      title           : Chapter 07
    Chapter #0:7: start 2687.360000, end 3009.240000
    Metadata:
      title           : Chapter 08
    Chapter #0:8: start 3009.240000, end 3640.000000
    Metadata:
      title           : Chapter 09
    Chapter #0:9: start 3640.000000, end 4220.320000
    Metadata:
      title           : Chapter 10
    Chapter #0:10: start 4220.320000, end 4548.960000
    Metadata:
      title           : Chapter 11
    Chapter #0:11: start 4548.960000, end 4807.920000
    Metadata:
      title           : Chapter 12
    Chapter #0:12: start 4807.920000, end 5076.760000
    Metadata:
      title           : Chapter 13
    Chapter #0:13: start 5076.760000, end 5734.040000
    Metadata:
      title           : Chapter 14
    Chapter #0:14: start 5734.040000, end 6057.000000
    Metadata:
      title           : Chapter 15
    Stream #0:0(eng): Video: mpeg2video (Main), yuv420p(tv, bt470bg, top first), 720x576 [SAR 64:45 DAR 16:9], 6600 kb/s, 25 fps, 25 tbr, 1k tbn, 50 tbc
    Metadata:
      BPS-eng         : 6599866
      DURATION-eng    : 01:40:57.000000000
      NUMBER_OF_FRAMES-eng: 151425
      NUMBER_OF_BYTES-eng: 4996923856
      SOURCE_ID-eng   : 0100E0
      _STATISTICS_WRITING_APP-eng: MakeMKV v1.14.5 darwin(x64-release)
      _STATISTICS_WRITING_DATE_UTC-eng: 2019-10-04 09:52:36
      _STATISTICS_TAGS-eng: BPS DURATION NUMBER_OF_FRAMES NUMBER_OF_BYTES SOURCE_ID
    Stream #0:1(ger): Audio: ac3, 48000 Hz, 5.1(side), fltp, 448 kb/s (default)
    Metadata:
      title           : Surround 5.1
      BPS-eng         : 448000
      DURATION-eng    : 01:40:56.000000000
      NUMBER_OF_FRAMES-eng: 189250
      NUMBER_OF_BYTES-eng: 339136000
      SOURCE_ID-eng   : 0180BD
      _STATISTICS_WRITING_APP-eng: MakeMKV v1.14.5 darwin(x64-release)
      _STATISTICS_WRITING_DATE_UTC-eng: 2019-10-04 09:52:36
      _STATISTICS_TAGS-eng: BPS DURATION NUMBER_OF_FRAMES NUMBER_OF_BYTES SOURCE_ID
    Stream #0:2(ger): Audio: dts (DTS-ES), 48000 Hz, 6.1, fltp, 1536 kb/s
    Metadata:
      title           : Surround 5.1
      BPS-eng         : 1509750
      DURATION-eng    : 01:40:56.000000000
      NUMBER_OF_FRAMES-eng: 567750
      NUMBER_OF_BYTES-eng: 1142880750
      SOURCE_ID-eng   : 0189BD
      _STATISTICS_WRITING_APP-eng: MakeMKV v1.14.5 darwin(x64-release)
      _STATISTICS_WRITING_DATE_UTC-eng: 2019-10-04 09:52:36
      _STATISTICS_TAGS-eng: BPS DURATION NUMBER_OF_FRAMES NUMBER_OF_BYTES SOURCE_ID
    Stream #0:3(eng): Audio: ac3, 48000 Hz, 5.1(side), fltp, 448 kb/s
    Metadata:
      title           : Surround 5.1
      BPS-eng         : 448000
      DURATION-eng    : 01:40:56.000000000
      NUMBER_OF_FRAMES-eng: 189250
      NUMBER_OF_BYTES-eng: 339136000
      SOURCE_ID-eng   : 0182BD
      _STATISTICS_WRITING_APP-eng: MakeMKV v1.14.5 darwin(x64-release)
      _STATISTICS_WRITING_DATE_UTC-eng: 2019-10-04 09:52:36
      _STATISTICS_TAGS-eng: BPS DURATION NUMBER_OF_FRAMES NUMBER_OF_BYTES SOURCE_ID
    Stream #0:4(eng): Audio: ac3, 48000 Hz, 2 channels, fltp
    Metadata:
      title           : Stereo
      BPS-eng         : 192000
      DURATION-eng    : 01:40:17.056000000
      NUMBER_OF_FRAMES-eng: 188033
      NUMBER_OF_BYTES-eng: 144409344
      SOURCE_ID-eng   : 0183BD
      _STATISTICS_WRITING_APP-eng: MakeMKV v1.14.5 darwin(x64-release)
      _STATISTICS_WRITING_DATE_UTC-eng: 2019-10-04 09:52:36
      _STATISTICS_TAGS-eng: BPS DURATION NUMBER_OF_FRAMES NUMBER_OF_BYTES SOURCE_ID
    Stream #0:5(ger): Subtitle: dvd_subtitle, 720x576 (default)
    Metadata:
      BPS-eng         : 2525
      DURATION-eng    : 01:37:01.996977777
      NUMBER_OF_FRAMES-eng: 656
      NUMBER_OF_BYTES-eng: 1837836
      SOURCE_ID-eng   : 0120BD
      _STATISTICS_WRITING_APP-eng: MakeMKV v1.14.5 darwin(x64-release)
      _STATISTICS_WRITING_DATE_UTC-eng: 2019-10-04 09:52:36
      _STATISTICS_TAGS-eng: BPS DURATION NUMBER_OF_FRAMES NUMBER_OF_BYTES SOURCE_ID
    Stream #0:6(ger): Subtitle: dvd_subtitle, 720x576
    Metadata:
      BPS-eng         : 2282
      DURATION-eng    : 01:40:46.356977777
      NUMBER_OF_FRAMES-eng: 569
      NUMBER_OF_BYTES-eng: 1725470
      SOURCE_ID-eng   : 0121BD
      _STATISTICS_WRITING_APP-eng: MakeMKV v1.14.5 darwin(x64-release)
      _STATISTICS_WRITING_DATE_UTC-eng: 2019-10-04 09:52:36
      _STATISTICS_TAGS-eng: BPS DURATION NUMBER_OF_FRAMES NUMBER_OF_BYTES SOURCE_ID
    Stream #0:7(ger): Subtitle: dvd_subtitle, 720x576
    Metadata:
      BPS-eng         : 7534
      DURATION-eng    : 00:00:02.958222222
      NUMBER_OF_FRAMES-eng: 1
      NUMBER_OF_BYTES-eng: 2786
      SOURCE_ID-eng   : 0122BD
      _STATISTICS_WRITING_APP-eng: MakeMKV v1.14.5 darwin(x64-release)
      _STATISTICS_WRITING_DATE_UTC-eng: 2019-10-04 09:52:36
      _STATISTICS_TAGS-eng: BPS DURATION NUMBER_OF_FRAMES NUMBER_OF_BYTES SOURCE_ID
[16:30:15] scan: decoding previews for title 1
[16:30:15] scan: audio 0x1: ac3, rate=48000Hz, bitrate=448000 Deutsch (AC3) (5.1 ch)
[16:30:15] scan: audio 0x2: dca, rate=48000Hz, bitrate=1536000 Deutsch (DTS-ES) (6.1 ch)
[16:30:15] scan: audio 0x3: ac3, rate=48000Hz, bitrate=448000 English (AC3) (5.1 ch)
[16:30:15] scan: audio 0x4: ac3, rate=48000Hz, bitrate=192000 English (AC3) (2.0 ch)
[16:30:16] scan: 10 previews, 720x576, 25.000 fps, autocrop = 10/14/12/6, aspect 16:9, PAR 64:45
[16:30:16] libhb: scan thread found 1 valid title(s)
[16:30:16] macgui: ScanCore scan done
[16:47:08] macgui: trying to open a folder or file
[16:47:08] macgui: ScanCore scanning titles with a duration of 10 seconds or more
[16:47:08] CPU: Intel(R) Core(TM) i7-4790K CPU @ 4.00GHz
[16:47:08]  - Intel microarchitecture Haswell
[16:47:08]  - logical processor count: 8
[16:47:08] hb_scan: path=/.../Sleepy Hollow -MakeMKV/Sleepy Hollow (1999) -RAW.mkv, title_index=0
udfread ERROR: ECMA 167 Volume Recognition failed
disc.c:323: failed opening UDF image /.../1_DVD/Sleepy Hollow -MakeMKV/Sleepy Hollow (1999) -RAW.mkv
disc.c:424: error opening file BDMV/index.bdmv
disc.c:424: error opening file BDMV/BACKUP/index.bdmv
[16:47:08] bd: not a bd - trying as a stream/file instead
libdvdnav: Using dvdnav version 6.0.0
libdvdread: Encrypted DVD support unavailable.
libdvdread:DVDOpenFileUDF:UDFFindFile /VIDEO_TS/VIDEO_TS.IFO failed
libdvdread:DVDOpenFileUDF:UDFFindFile /VIDEO_TS/VIDEO_TS.BUP failed
libdvdread: Can't open file VIDEO_TS.IFO.
libdvdnav: vm: failed to read VIDEO_TS.IFO
[16:47:08] dvd: not a dvd - trying as a stream/file instead
Input #0, matroska,webm, from '/Volumes/Media/01-Workflow Film/1-RAW/1_DVD/Sleepy Hollow -MakeMKV/Sleepy Hollow (1999) -RAW.mkv':
  Metadata:
    encoder         : libmakemkv v1.14.5 (1.3.5/1.4.7) darwin(x64-release)
    creation_time   : 2019-10-04T09:52:36.000000Z
  Duration: 01:40:57.00, start: 0.000000, bitrate: 9208 kb/s
    Chapter #0:0: start 0.000000, end 414.440000
    Metadata:
      title           : Chapter 01
    Chapter #0:1: start 414.440000, end 656.240000
    Metadata:
      title           : Chapter 02
    Chapter #0:2: start 656.240000, end 1100.840000
    Metadata:
      title           : Chapter 03
    Chapter #0:3: start 1100.840000, end 1461.200000
    Metadata:
      title           : Chapter 04
    Chapter #0:4: start 1461.200000, end 1878.760000
    Metadata:
      title           : Chapter 05
    Chapter #0:5: start 1878.760000, end 2257.320000
    Metadata:
      title           : Chapter 06
    Chapter #0:6: start 2257.320000, end 2687.360000
    Metadata:
      title           : Chapter 07
    Chapter #0:7: start 2687.360000, end 3009.240000
    Metadata:
      title           : Chapter 08
    Chapter #0:8: start 3009.240000, end 3640.000000
    Metadata:
      title           : Chapter 09
    Chapter #0:9: start 3640.000000, end 4220.320000
    Metadata:
      title           : Chapter 10
    Chapter #0:10: start 4220.320000, end 4548.960000
    Metadata:
      title           : Chapter 11
    Chapter #0:11: start 4548.960000, end 4807.920000
    Metadata:
      title           : Chapter 12
    Chapter #0:12: start 4807.920000, end 5076.760000
    Metadata:
      title           : Chapter 13
    Chapter #0:13: start 5076.760000, end 5734.040000
    Metadata:
      title           : Chapter 14
    Chapter #0:14: start 5734.040000, end 6057.000000
    Metadata:
      title           : Chapter 15
    Stream #0:0(eng): Video: mpeg2video (Main), yuv420p(tv, bt470bg, top first), 720x576 [SAR 64:45 DAR 16:9], 6600 kb/s, 25 fps, 25 tbr, 1k tbn, 50 tbc
    Metadata:
      BPS-eng         : 6599866
      DURATION-eng    : 01:40:57.000000000
      NUMBER_OF_FRAMES-eng: 151425
      NUMBER_OF_BYTES-eng: 4996923856
      SOURCE_ID-eng   : 0100E0
      _STATISTICS_WRITING_APP-eng: MakeMKV v1.14.5 darwin(x64-release)
      _STATISTICS_WRITING_DATE_UTC-eng: 2019-10-04 09:52:36
      _STATISTICS_TAGS-eng: BPS DURATION NUMBER_OF_FRAMES NUMBER_OF_BYTES SOURCE_ID
    Stream #0:1(ger): Audio: ac3, 48000 Hz, 5.1(side), fltp, 448 kb/s (default)
    Metadata:
      title           : Surround 5.1
      BPS-eng         : 448000
      DURATION-eng    : 01:40:56.000000000
      NUMBER_OF_FRAMES-eng: 189250
      NUMBER_OF_BYTES-eng: 339136000
      SOURCE_ID-eng   : 0180BD
      _STATISTICS_WRITING_APP-eng: MakeMKV v1.14.5 darwin(x64-release)
      _STATISTICS_WRITING_DATE_UTC-eng: 2019-10-04 09:52:36
      _STATISTICS_TAGS-eng: BPS DURATION NUMBER_OF_FRAMES NUMBER_OF_BYTES SOURCE_ID
    Stream #0:2(ger): Audio: dts (DTS-ES), 48000 Hz, 6.1, fltp, 1536 kb/s
    Metadata:
      title           : Surround 5.1
      BPS-eng         : 1509750
      DURATION-eng    : 01:40:56.000000000
      NUMBER_OF_FRAMES-eng: 567750
      NUMBER_OF_BYTES-eng: 1142880750
      SOURCE_ID-eng   : 0189BD
      _STATISTICS_WRITING_APP-eng: MakeMKV v1.14.5 darwin(x64-release)
      _STATISTICS_WRITING_DATE_UTC-eng: 2019-10-04 09:52:36
      _STATISTICS_TAGS-eng: BPS DURATION NUMBER_OF_FRAMES NUMBER_OF_BYTES SOURCE_ID
    Stream #0:3(eng): Audio: ac3, 48000 Hz, 5.1(side), fltp, 448 kb/s
    Metadata:
      title           : Surround 5.1
      BPS-eng         : 448000
      DURATION-eng    : 01:40:56.000000000
      NUMBER_OF_FRAMES-eng: 189250
      NUMBER_OF_BYTES-eng: 339136000
      SOURCE_ID-eng   : 0182BD
      _STATISTICS_WRITING_APP-eng: MakeMKV v1.14.5 darwin(x64-release)
      _STATISTICS_WRITING_DATE_UTC-eng: 2019-10-04 09:52:36
      _STATISTICS_TAGS-eng: BPS DURATION NUMBER_OF_FRAMES NUMBER_OF_BYTES SOURCE_ID
    Stream #0:4(eng): Audio: ac3, 48000 Hz, 2 channels, fltp
    Metadata:
      title           : Stereo
      BPS-eng         : 192000
      DURATION-eng    : 01:40:17.056000000
      NUMBER_OF_FRAMES-eng: 188033
      NUMBER_OF_BYTES-eng: 144409344
      SOURCE_ID-eng   : 0183BD
      _STATISTICS_WRITING_APP-eng: MakeMKV v1.14.5 darwin(x64-release)
      _STATISTICS_WRITING_DATE_UTC-eng: 2019-10-04 09:52:36
      _STATISTICS_TAGS-eng: BPS DURATION NUMBER_OF_FRAMES NUMBER_OF_BYTES SOURCE_ID
    Stream #0:5(ger): Subtitle: dvd_subtitle, 720x576 (default)
    Metadata:
      BPS-eng         : 2525
      DURATION-eng    : 01:37:01.996977777
      NUMBER_OF_FRAMES-eng: 656
      NUMBER_OF_BYTES-eng: 1837836
      SOURCE_ID-eng   : 0120BD
      _STATISTICS_WRITING_APP-eng: MakeMKV v1.14.5 darwin(x64-release)
      _STATISTICS_WRITING_DATE_UTC-eng: 2019-10-04 09:52:36
      _STATISTICS_TAGS-eng: BPS DURATION NUMBER_OF_FRAMES NUMBER_OF_BYTES SOURCE_ID
    Stream #0:6(ger): Subtitle: dvd_subtitle, 720x576
    Metadata:
      BPS-eng         : 2282
      DURATION-eng    : 01:40:46.356977777
      NUMBER_OF_FRAMES-eng: 569
      NUMBER_OF_BYTES-eng: 1725470
      SOURCE_ID-eng   : 0121BD
      _STATISTICS_WRITING_APP-eng: MakeMKV v1.14.5 darwin(x64-release)
      _STATISTICS_WRITING_DATE_UTC-eng: 2019-10-04 09:52:36
      _STATISTICS_TAGS-eng: BPS DURATION NUMBER_OF_FRAMES NUMBER_OF_BYTES SOURCE_ID
    Stream #0:7(ger): Subtitle: dvd_subtitle, 720x576
    Metadata:
      BPS-eng         : 7534
      DURATION-eng    : 00:00:02.958222222
      NUMBER_OF_FRAMES-eng: 1
      NUMBER_OF_BYTES-eng: 2786
      SOURCE_ID-eng   : 0122BD
      _STATISTICS_WRITING_APP-eng: MakeMKV v1.14.5 darwin(x64-release)
      _STATISTICS_WRITING_DATE_UTC-eng: 2019-10-04 09:52:36
      _STATISTICS_TAGS-eng: BPS DURATION NUMBER_OF_FRAMES NUMBER_OF_BYTES SOURCE_ID
[16:47:08] scan: decoding previews for title 1
[16:47:08] scan: audio 0x1: ac3, rate=48000Hz, bitrate=448000 Deutsch (AC3) (5.1 ch)
[16:47:08] scan: audio 0x2: dca, rate=48000Hz, bitrate=1536000 Deutsch (DTS-ES) (6.1 ch)
[16:47:08] scan: audio 0x3: ac3, rate=48000Hz, bitrate=448000 English (AC3) (5.1 ch)
[16:47:08] scan: audio 0x4: ac3, rate=48000Hz, bitrate=192000 English (AC3) (2.0 ch)
[16:47:09] scan: 10 previews, 720x576, 25.000 fps, autocrop = 10/14/12/6, aspect 16:9, PAR 64:45
[16:47:09] libhb: scan thread found 1 valid title(s)
[16:47:09] macgui: ScanCore scan done
[16:48:05] macgui: QueueCore prevented sleep
[16:48:05] macgui: QueueCore scanning specifically for title: 1
[16:48:05] CPU: Intel(R) Core(TM) i7-4790K CPU @ 4.00GHz
[16:48:05]  - Intel microarchitecture Haswell
[16:48:05]  - logical processor count: 8
[16:48:05] hb_scan: path=/.../Sleepy Hollow -MakeMKV/Sleepy Hollow (1999) -RAW.mkv, title_index=1
udfread ERROR: ECMA 167 Volume Recognition failed
disc.c:323: failed opening UDF image /.../Sleepy Hollow -MakeMKV/Sleepy Hollow (1999) -RAW.mkv
disc.c:424: error opening file BDMV/index.bdmv
disc.c:424: error opening file BDMV/BACKUP/index.bdmv
[16:48:05] bd: not a bd - trying as a stream/file instead
libdvdnav: Using dvdnav version 6.0.0
libdvdread: Encrypted DVD support unavailable.
libdvdread:DVDOpenFileUDF:UDFFindFile /VIDEO_TS/VIDEO_TS.IFO failed
libdvdread:DVDOpenFileUDF:UDFFindFile /VIDEO_TS/VIDEO_TS.BUP failed
libdvdread: Can't open file VIDEO_TS.IFO.
libdvdnav: vm: failed to read VIDEO_TS.IFO
[16:48:05] dvd: not a dvd - trying as a stream/file instead
Input #0, matroska,webm, from '/.../Sleepy Hollow -MakeMKV/Sleepy Hollow (1999) -RAW.mkv':
  Metadata:
    encoder         : libmakemkv v1.14.5 (1.3.5/1.4.7) darwin(x64-release)
    creation_time   : 2019-10-04T09:52:36.000000Z
  Duration: 01:40:57.00, start: 0.000000, bitrate: 9208 kb/s
    Chapter #0:0: start 0.000000, end 414.440000
    Metadata:
      title           : Chapter 01
    Chapter #0:1: start 414.440000, end 656.240000
    Metadata:
      title           : Chapter 02
    Chapter #0:2: start 656.240000, end 1100.840000
    Metadata:
      title           : Chapter 03
    Chapter #0:3: start 1100.840000, end 1461.200000
    Metadata:
      title           : Chapter 04
    Chapter #0:4: start 1461.200000, end 1878.760000
    Metadata:
      title           : Chapter 05
    Chapter #0:5: start 1878.760000, end 2257.320000
    Metadata:
      title           : Chapter 06
    Chapter #0:6: start 2257.320000, end 2687.360000
    Metadata:
      title           : Chapter 07
    Chapter #0:7: start 2687.360000, end 3009.240000
    Metadata:
      title           : Chapter 08
    Chapter #0:8: start 3009.240000, end 3640.000000
    Metadata:
      title           : Chapter 09
    Chapter #0:9: start 3640.000000, end 4220.320000
    Metadata:
      title           : Chapter 10
    Chapter #0:10: start 4220.320000, end 4548.960000
    Metadata:
      title           : Chapter 11
    Chapter #0:11: start 4548.960000, end 4807.920000
    Metadata:
      title           : Chapter 12
    Chapter #0:12: start 4807.920000, end 5076.760000
    Metadata:
      title           : Chapter 13
    Chapter #0:13: start 5076.760000, end 5734.040000
    Metadata:
      title           : Chapter 14
    Chapter #0:14: start 5734.040000, end 6057.000000
    Metadata:
      title           : Chapter 15
    Stream #0:0(eng): Video: mpeg2video (Main), yuv420p(tv, bt470bg, top first), 720x576 [SAR 64:45 DAR 16:9], 6600 kb/s, 25 fps, 25 tbr, 1k tbn, 50 tbc
    Metadata:
      BPS-eng         : 6599866
      DURATION-eng    : 01:40:57.000000000
      NUMBER_OF_FRAMES-eng: 151425
      NUMBER_OF_BYTES-eng: 4996923856
      SOURCE_ID-eng   : 0100E0
      _STATISTICS_WRITING_APP-eng: MakeMKV v1.14.5 darwin(x64-release)
      _STATISTICS_WRITING_DATE_UTC-eng: 2019-10-04 09:52:36
      _STATISTICS_TAGS-eng: BPS DURATION NUMBER_OF_FRAMES NUMBER_OF_BYTES SOURCE_ID
    Stream #0:1(ger): Audio: ac3, 48000 Hz, 5.1(side), fltp, 448 kb/s (default)
    Metadata:
      title           : Surround 5.1
      BPS-eng         : 448000
      DURATION-eng    : 01:40:56.000000000
      NUMBER_OF_FRAMES-eng: 189250
      NUMBER_OF_BYTES-eng: 339136000
      SOURCE_ID-eng   : 0180BD
      _STATISTICS_WRITING_APP-eng: MakeMKV v1.14.5 darwin(x64-release)
      _STATISTICS_WRITING_DATE_UTC-eng: 2019-10-04 09:52:36
      _STATISTICS_TAGS-eng: BPS DURATION NUMBER_OF_FRAMES NUMBER_OF_BYTES SOURCE_ID
    Stream #0:2(ger): Audio: dts (DTS-ES), 48000 Hz, 6.1, fltp, 1536 kb/s
    Metadata:
      title           : Surround 5.1
      BPS-eng         : 1509750
      DURATION-eng    : 01:40:56.000000000
      NUMBER_OF_FRAMES-eng: 567750
      NUMBER_OF_BYTES-eng: 1142880750
      SOURCE_ID-eng   : 0189BD
      _STATISTICS_WRITING_APP-eng: MakeMKV v1.14.5 darwin(x64-release)
      _STATISTICS_WRITING_DATE_UTC-eng: 2019-10-04 09:52:36
      _STATISTICS_TAGS-eng: BPS DURATION NUMBER_OF_FRAMES NUMBER_OF_BYTES SOURCE_ID
    Stream #0:3(eng): Audio: ac3, 48000 Hz, 5.1(side), fltp, 448 kb/s
    Metadata:
      title           : Surround 5.1
      BPS-eng         : 448000
      DURATION-eng    : 01:40:56.000000000
      NUMBER_OF_FRAMES-eng: 189250
      NUMBER_OF_BYTES-eng: 339136000
      SOURCE_ID-eng   : 0182BD
      _STATISTICS_WRITING_APP-eng: MakeMKV v1.14.5 darwin(x64-release)
      _STATISTICS_WRITING_DATE_UTC-eng: 2019-10-04 09:52:36
      _STATISTICS_TAGS-eng: BPS DURATION NUMBER_OF_FRAMES NUMBER_OF_BYTES SOURCE_ID
    Stream #0:4(eng): Audio: ac3, 48000 Hz, 2 channels, fltp
    Metadata:
      title           : Stereo
      BPS-eng         : 192000
      DURATION-eng    : 01:40:17.056000000
      NUMBER_OF_FRAMES-eng: 188033
      NUMBER_OF_BYTES-eng: 144409344
      SOURCE_ID-eng   : 0183BD
      _STATISTICS_WRITING_APP-eng: MakeMKV v1.14.5 darwin(x64-release)
      _STATISTICS_WRITING_DATE_UTC-eng: 2019-10-04 09:52:36
      _STATISTICS_TAGS-eng: BPS DURATION NUMBER_OF_FRAMES NUMBER_OF_BYTES SOURCE_ID
    Stream #0:5(ger): Subtitle: dvd_subtitle, 720x576 (default)
    Metadata:
      BPS-eng         : 2525
      DURATION-eng    : 01:37:01.996977777
      NUMBER_OF_FRAMES-eng: 656
      NUMBER_OF_BYTES-eng: 1837836
      SOURCE_ID-eng   : 0120BD
      _STATISTICS_WRITING_APP-eng: MakeMKV v1.14.5 darwin(x64-release)
      _STATISTICS_WRITING_DATE_UTC-eng: 2019-10-04 09:52:36
      _STATISTICS_TAGS-eng: BPS DURATION NUMBER_OF_FRAMES NUMBER_OF_BYTES SOURCE_ID
    Stream #0:6(ger): Subtitle: dvd_subtitle, 720x576
    Metadata:
      BPS-eng         : 2282
      DURATION-eng    : 01:40:46.356977777
      NUMBER_OF_FRAMES-eng: 569
      NUMBER_OF_BYTES-eng: 1725470
      SOURCE_ID-eng   : 0121BD
      _STATISTICS_WRITING_APP-eng: MakeMKV v1.14.5 darwin(x64-release)
      _STATISTICS_WRITING_DATE_UTC-eng: 2019-10-04 09:52:36
      _STATISTICS_TAGS-eng: BPS DURATION NUMBER_OF_FRAMES NUMBER_OF_BYTES SOURCE_ID
    Stream #0:7(ger): Subtitle: dvd_subtitle, 720x576
    Metadata:
      BPS-eng         : 7534
      DURATION-eng    : 00:00:02.958222222
      NUMBER_OF_FRAMES-eng: 1
      NUMBER_OF_BYTES-eng: 2786
      SOURCE_ID-eng   : 0122BD
      _STATISTICS_WRITING_APP-eng: MakeMKV v1.14.5 darwin(x64-release)
      _STATISTICS_WRITING_DATE_UTC-eng: 2019-10-04 09:52:36
      _STATISTICS_TAGS-eng: BPS DURATION NUMBER_OF_FRAMES NUMBER_OF_BYTES SOURCE_ID
[16:48:05] scan: decoding previews for title 1
[16:48:05] scan: audio 0x1: ac3, rate=48000Hz, bitrate=448000 Deutsch (AC3) (5.1 ch)
[16:48:05] scan: audio 0x2: dca, rate=48000Hz, bitrate=1536000 Deutsch (DTS-ES) (6.1 ch)
[16:48:05] scan: audio 0x3: ac3, rate=48000Hz, bitrate=448000 English (AC3) (5.1 ch)
[16:48:05] scan: audio 0x4: ac3, rate=48000Hz, bitrate=192000 English (AC3) (2.0 ch)
[16:48:05] scan: 10 previews, 720x576, 25.000 fps, autocrop = 10/14/12/6, aspect 16:9, PAR 64:45
[16:48:05] libhb: scan thread found 1 valid title(s)
[16:48:05] macgui: QueueCore scan done
[16:48:05] 1 job(s) to process
[16:48:05] starting job
[16:48:05] decomb filter thread started for segment 0
[16:48:05] decomb filter thread started for segment 1
[16:48:05] decomb filter thread started for segment 2
[16:48:05] decomb filter thread started for segment 3
[16:48:05] decomb filter thread started for segment 4
[16:48:05] decomb filter thread started for segment 5
[16:48:05] decomb filter thread started for segment 6
[16:48:05] decomb filter thread started for segment 7
[16:48:05] decomb check thread started for segment 1
[16:48:05] decomb check thread started for segment 0
[16:48:05] decomb check thread started for segment 2
[16:48:05] decomb check thread started for segment 3
[16:48:05] decomb check thread started for segment 4
[16:48:05] decomb check thread started for segment 5
[16:48:05] decomb check thread started for segment 6
[16:48:05] decomb check thread started for segment 7
[16:48:05] mask filter thread started for segment 0
[16:48:05] macgui: QueueCore started encoding Sleepy Hollow (1999) -RAW 1.mkv
[16:48:05] macgui: QueueCore with preset Test_neu
[16:48:05] mask filter thread started for segment 1
[16:48:05] mask filter thread started for segment 3
[16:48:05] mask filter thread started for segment 2
[16:48:05] mask filter thread started for segment 4
[16:48:05] mask filter thread started for segment 5
[16:48:05] mask filter thread started for segment 6
[16:48:05] mask filter thread started for segment 7
[16:48:05] mask erode thread started for segment 1
[16:48:05] mask erode thread started for segment 2
[16:48:05] mask erode thread started for segment 0
[16:48:05] mask erode thread started for segment 3
[16:48:05] mask erode thread started for segment 4
[16:48:05] mask erode thread started for segment 5
[16:48:05] mask erode thread started for segment 6
[16:48:05] mask dilate thread started for segment 0
[16:48:05] mask erode thread started for segment 7
[16:48:05] mask dilate thread started for segment 1
[16:48:05] mask dilate thread started for segment 2
[16:48:05] mask dilate thread started for segment 3
[16:48:05] mask dilate thread started for segment 4
[16:48:05] mask dilate thread started for segment 5
[16:48:05] mask dilate thread started for segment 7
[16:48:05] mask dilate thread started for segment 6
[16:48:05] yadif thread started for segment 0
[16:48:05] yadif thread started for segment 1
[16:48:05] yadif thread started for segment 3
[16:48:05] yadif thread started for segment 4
[16:48:05] yadif thread started for segment 2
[16:48:05] yadif thread started for segment 5
[16:48:05] yadif thread started for segment 6
[16:48:05] yadif thread started for segment 7
[16:48:05] job configuration:
[16:48:05]  * source
[16:48:05]    + /.../Sleepy Hollow -MakeMKV/Sleepy Hollow (1999) -RAW.mkv
[16:48:05]    + title 1, chapter(s) 1 to 15
[16:48:05]    + container: matroska,webm
[16:48:05]    + data rate: 9208 kbps
[16:48:05]  * destination
[16:48:05]    + /.../Sleepy Hollow (1999) -RAW 1.mkv
[16:48:05]    + container: Matroska (libavformat)
[16:48:05]      + chapter markers
[16:48:05]  * video track
[16:48:05]    + decoder: mpeg2video
[16:48:05]      + bitrate 6600 kbps
[16:48:05]    + filters
[16:48:05]      + Comb Detect (mode=3:spatial-metric=2:motion-thresh=1:spatial-thresh=1:filter-mode=2:block-thresh=40:block-width=16:block-height=16)
[16:48:05]      + Decomb (mode=39)
[16:48:05]      + Framerate Shaper (mode=2:rate=27000000/900000)
[16:48:05]        + frame rate: 25.000 fps -> peak rate limited to 30.000 fps
[16:48:05]      + Crop and Scale (width=702:height=552:crop-top=10:crop-bottom=14:crop-left=12:crop-right=6)
[16:48:05]        + source: 720 * 576, crop (10/14/12/6): 702 * 552, scale: 702 * 552
[16:48:05]    + Output geometry
[16:48:05]      + storage dimensions: 702 x 552
[16:48:05]      + pixel aspect ratio: 64 : 45
[16:48:05]      + display dimensions: 998 x 552
[16:48:05]    + encoder: H.265 (libx265)
[16:48:05]      + preset:  slow
[16:48:05]      + options: strong-intra-smoothing=0:rect=0
[16:48:05]      + profile: main
[16:48:05]      + quality: 18.00 (RF)
[16:48:05]      + color profile: 5-1-6
[16:48:05]  * subtitle track 1, Deutsch [VOBSUB] (track 0, id 0x5, Picture) -> Passthrough
[16:48:05]  * subtitle track 2, Deutsch [VOBSUB] (track 1, id 0x6, Picture) -> Passthrough
[16:48:05]  * subtitle track 3, Deutsch [VOBSUB] (track 2, id 0x7, Picture) -> Passthrough
[16:48:05]  * audio track 1
[16:48:05]    + decoder: Deutsch (AC3) (5.1 ch) (track 1, id 0x1)
[16:48:05]      + bitrate: 448 kbps, samplerate: 48000 Hz
[16:48:05]    + mixdown: Stereo
[16:48:05]    + dither: triangular
[16:48:05]    + encoder: AAC (Apple AudioToolbox)
[16:48:05]      + bitrate: 160 kbps, samplerate: 48000 Hz
[16:48:05]  * audio track 2
[16:48:05]    + decoder: Deutsch (DTS-ES) (6.1 ch) (track 2, id 0x2)
[16:48:05]      + bitrate: 1536 kbps, samplerate: 48000 Hz
[16:48:05]    + mixdown: Stereo
[16:48:05]    + dither: triangular
[16:48:05]    + encoder: AAC (Apple AudioToolbox)
[16:48:05]      + bitrate: 160 kbps, samplerate: 48000 Hz
[16:48:05]  * audio track 3
[16:48:05]    + decoder: English (AC3) (5.1 ch) (track 3, id 0x3)
[16:48:05]      + bitrate: 448 kbps, samplerate: 48000 Hz
[16:48:05]    + mixdown: Stereo
[16:48:05]    + dither: triangular
[16:48:05]    + encoder: AAC (Apple AudioToolbox)
[16:48:05]      + bitrate: 160 kbps, samplerate: 48000 Hz
[16:48:05]  * audio track 4
[16:48:05]    + decoder: English (AC3) (2.0 ch) (track 4, id 0x4)
[16:48:05]      + bitrate: 192 kbps, samplerate: 48000 Hz
[16:48:05]    + mixdown: Stereo
[16:48:05]    + dither: triangular
[16:48:05]    + encoder: AAC (Apple AudioToolbox)
[16:48:05]      + bitrate: 160 kbps, samplerate: 48000 Hz
[16:48:05] sync: expecting 151425 video frames
x265 [info]: HEVC encoder version 2.9
x265 [info]: build info [Mac OS X][clang 10.0.0][64 bit] 8bit+10bit+12bit
x265 [info]: using cpu capabilities: MMX2 SSE2Fast LZCNT SSSE3 SSE4.2 AVX FMA3 BMI2 AVX2
x265 [info]: Main profile, Level-3 (Main tier)
x265 [info]: Thread pool created using 8 threads
x265 [info]: Slices                              : 1
x265 [info]: frame threads / pool features       : 3 / wpp(9 rows)
x265 [warning]: Source height < 720p; disabling lookahead-slices
x265 [info]: Coding QT: max CU size, min CU size : 64 / 8
x265 [info]: Residual QT: max TU size, max depth : 32 / 1 inter / 1 intra
x265 [info]: ME / range / subpel / merge         : star / 57 / 3 / 3
x265 [info]: Keyframe min / max / scenecut / bias: 25 / 250 / 40 / 5.00
x265 [info]: Lookahead / bframes / badapt        : 25 / 4 / 2
x265 [info]: b-pyramid / weightp / weightb       : 1 / 1 / 0
x265 [info]: References / ref-limit  cu / depth  : 4 / on / on
x265 [info]: AQ: mode / str / qg-size / cu-tree  : 1 / 1.0 / 32 / 1
x265 [info]: Rate Control / qCompress            : CRF-18.0 / 0.60
x265 [info]: tools: limit-modes rd=4 psy-rd=2.00 rdoq=2 psy-rdoq=1.00 rskip
x265 [info]: tools: signhide tmvp deblock sao
[16:48:05] sync: first pts video is 0
[16:48:05] sync: "Chapter 1" (1) at frame 1 time 0
[16:48:05] sync: first pts audio 0x1 is 0
[16:48:05] sync: first pts audio 0x2 is 0
[16:48:05] sync: first pts subtitle 0x7 is 0
[16:48:05] sync: first pts audio 0x3 is 2610
[16:48:05] sync: first pts subtitle 0x6 is 90000
[16:48:09] sync: first pts audio 0x4 is 765000
[16:51:12] sync: first pts subtitle 0x5 is 20282400
[16:53:02] sync: "Chapter 2" (2) at frame 10362 time 37299600
[16:55:51] sync: "Chapter 3" (3) at frame 16407 time 59061600
[17:00:42] sync: "Chapter 4" (4) at frame 27522 time 99075600
[17:04:55] sync: "Chapter 5" (5) at frame 36531 time 131508000
[17:09:46] sync: "Chapter 6" (6) at frame 46970 time 169088400
[17:13:59] sync: "Chapter 7" (7) at frame 56434 time 203158800
[17:19:11] sync: "Chapter 8" (8) at frame 67185 time 241862400
[17:23:29] sync: "Chapter 9" (9) at frame 75232 time 270831600
[17:32:23] sync: "Chapter 10" (10) at frame 91001 time 327600000
[17:39:37] sync: "Chapter 11" (11) at frame 105509 time 379828800
[17:44:28] sync: "Chapter 12" (12) at frame 113725 time 409406400
[17:47:29] sync: "Chapter 13" (13) at frame 120199 time 432712800
[17:51:01] sync: "Chapter 14" (14) at frame 126920 time 456908400
[18:03:11] sync: "Chapter 15" (15) at frame 143352 time 516063600
[18:05:21] reader: done. 1 scr changes
[18:05:22] work: average encoding speed for job is 32.624969 fps
[18:05:22] comb detect: heavy 4486 | light 5166 | uncombed 141773 | total 151425
[18:05:22] decomb: deinterlaced 4486 | blended 5166 | unfiltered 141773 | total 151425
[18:05:22] vfr: 151425 frames output, 0 dropped and 0 duped for CFR/PFR
[18:05:22] vfr: lost time: 0 (0 frames)
[18:05:22] vfr: gained time: 0 (0 frames) (0 not accounted for)
[18:05:22] ac3-decoder done: 189250 frames, 0 decoder errors
[18:05:22] dca-decoder done: 567750 frames, 0 decoder errors
[18:05:22] ac3-decoder done: 189250 frames, 0 decoder errors
[18:05:22] ac3-decoder done: 188033 frames, 0 decoder errors
[18:05:22] mpeg2video-decoder done: 151425 frames, 0 decoder errors
[18:05:22] sync: got 151425 frames, 151425 expected
[18:05:22] sync: framerate min 25.000 fps, max 25.000 fps, avg 25.000 fps
x265 [info]: frame I:   2288, Avg QP:17.47  kb/s: 5951.25 
x265 [info]: frame P:  36657, Avg QP:18.68  kb/s: 3312.75 
x265 [info]: frame B: 112480, Avg QP:23.44  kb/s: 724.82  
x265 [info]: Weighted P-Frames: Y:11.5% UV:7.2%
x265 [info]: consecutive B-frames: 11.9% 4.4% 13.5% 23.7% 46.6% 

encoded 151425 frames in 4637.22s (32.65 fps), 1430.28 kb/s, Avg QP:22.20
[18:05:23] mux: track 0, 151425 frames, 1083505142 bytes, 1431.07 kbps, fifo 2048
[18:05:23] mux: track 1, 283878 frames, 125381821 bytes, 165.60 kbps, fifo 4096
[18:05:23] mux: track 2, 283878 frames, 125673984 bytes, 165.99 kbps, fifo 4096
[18:05:23] mux: track 3, 283878 frames, 124565109 bytes, 164.52 kbps, fifo 4096
[18:05:23] mux: track 4, 282052 frames, 124009910 bytes, 163.79 kbps, fifo 4096
[18:05:23] mux: track 5, 656 frames, 1837836 bytes, 2.43 kbps, fifo 32
[18:05:23] mux: track 6, 569 frames, 1725470 bytes, 2.28 kbps, fifo 32
[18:05:23] mux: track 7, 1 frames, 2786 bytes, 0.00 kbps, fifo 8
[18:05:23] libhb: work result = 0
[18:05:23] macgui: QueueCore work done
[18:05:23] macgui: Queue Done, there are no more pending encodes
[18:05:23] macgui: QueueCore stopped preventing sleep

Activity Log via dropbox: https://www.dropbox.com/s/qcw19394m7r3l ... g.txt?dl=0

User avatar
BradleyS
Moderator
Posts: 1816
Joined: Thu Aug 09, 2007 12:16 pm

Re: Preset problem: Audio passthrou not working

Post by BradleyS »

After changing the audio selection behavior, make sure you save a new HandBrake preset with your settings.

User avatar
Rodeo
HandBrake Team
Posts: 12472
Joined: Tue Mar 03, 2009 8:55 pm

Re: Preset problem: Audio passthrou not working

Post by Rodeo »

Can you export the preset and upload it to Dropbox?

henning65
Posts: 6
Joined: Sat Oct 05, 2019 5:22 pm

Re: Preset problem: Audio passthrou not working

Post by henning65 »

Dear Rodeo
Dear BradleyS

Thanks for your help!

The preset can be find here: https://www.dropbox.com/s/3qlv4saq0lnmm ... .json?dl=0

User avatar
Rodeo
HandBrake Team
Posts: 12472
Joined: Tue Mar 03, 2009 8:55 pm

Re: Preset problem: Audio passthrou not working

Post by Rodeo »

Well it looks like the audio encoder is set to AAC. Don't forget to set the audio encoder to Auto Passthru ;) :P

Screenshot 2019-10-06 at 00.34.18.png

Mixdown, samplerate, bitrate, gain and DRC apply to the fallback encoder only.
You do not have the required permissions to view the files attached to this post.

henning65
Posts: 6
Joined: Sat Oct 05, 2019 5:22 pm

Re: Preset problem: Audio passthrou not working

Post by henning65 »

Dear Rodeo

You saved my day!
Thanks for your help.

I would like to suggest to maybe update the documentation on Handbrake. I wrote a little suggestion - maybe that helps.

Please find enclosed two links
a) suggestion as word: https://www.dropbox.com/s/80l8nzkxs3oki ... .docx?dl=0
b) suggestion as pdf: https://www.dropbox.com/s/eb1ta835ldd4b ... n.pdf?dl=0

Again - Thanks for your help!

yours

Post Reply