Converting Game of Thrones

Discuss encoding for devices and presets.
Forum rules
An Activity Log is required for support requests. Please read How-to get an activity log? for details on how and why this should be provided.
Post Reply
IceboundMetal
Posts: 1
Joined: Thu Jul 19, 2018 12:40 am

Converting Game of Thrones

Post by IceboundMetal » Sun Aug 05, 2018 1:08 am

Description of problem or question:


Converting game of thrones and to make it keep its Subtitles does not work or really anything that is ripped from a bluray.

Steps to reproduce the problem (If Applicable):

Im not sure if it's a problem

If by chance its just my settings can someone point me to a post that has the correct settings to use?

If it is a problem, my problem is every time a conversion finishes it loses all but one subtitle and its just English that doesn't seem to contain any of the other ones that should be there. I ripped the seasons from blurays and tested them before the conversion with handbrake to make sure their subtitles carried over.

My settings are this:

Summary: Format= MP4

Dimensions: 1920x1080; Cropping= Custom; Cropping is 0; Anamorphic= None; Modlus= 2;

Filters: N/A

Video: Video Codec= H.264 (x264); Frame-rate= 60fps at Constant Framerate; Quality= 22; Nothing checked
Optimize Video= First pass to convert it from mkv to MP4 is very fast after that I re-run it through handbrake on very slow.
Everything else on this tab is the default.

Audio: Track Selection= All Matching Selected Languages; For Additional Tracks= Use All tracks as templates; Audio Passthru= All Checked; Fallback Encorder=AC3; Chosen Language= Any Automatically Add tracks= DTS-HD Pass

Subtitles: Track: All Matching Selected Languages; Burn-in Behavior= None; Add Close Captions when available is checked; Chosen Language is Any


HandBrake version (e.g., 1.0.0):

1.1.0 (2018040700) - 64bit


Operating system and version (e.g., Ubuntu 16.04 LTS, macOS 10.13 High Sierra, Windows 10 Creators Update):

Windows 10 Pro Ver 1803


HandBrake Activity Log ***required*** (see How-to get an activity log)

Code: Select all

HandBrake 1.1.0 (2018040700) - 64bit
OS: Microsoft Windows NT 10.0.17134.0 - 64bit
CPU: AMD Ryzen Threadripper 1950X 16-Core Processor 
Ram: 12127 MB, 
GPU Information:
  Microsoft RemoteFX Graphics Device - WDDM - 10.0.17134.1
Screen: 1920x1080
Temp Dir: C:\Users\Admin\AppData\Local\Temp\
Install Dir: C:\Program Files\HandBrake
Data Dir: C:\Users\Admin\AppData\Roaming\HandBrake Team\HandBrake\1.1.0.0

-------------------------------------------


# Starting Encode ...

[18:01:42] hb_init: starting libhb thread
[18:01:42] 1 job(s) to process
[18:01:42] json job:
{
  "Audio": {
    "AudioList": [
      {
        "Bitrate": 192,
        "DRC": 0.0,
        "Encoder": 2048,
        "Gain": 0.0,
        "Mixdown": 6,
        "NormalizeMixLevel": false,
        "Samplerate": 48000,
        "Track": 0,
        "DitherMethod": 0
      },
      {
        "Bitrate": 192,
        "DRC": 0.0,
        "Encoder": 2048,
        "Gain": 0.0,
        "Mixdown": 6,
        "NormalizeMixLevel": false,
        "Samplerate": 48000,
        "Track": 1,
        "DitherMethod": 0
      },
      {
        "Bitrate": 192,
        "DRC": 0.0,
        "Encoder": 2048,
        "Gain": 0.0,
        "Mixdown": 6,
        "NormalizeMixLevel": false,
        "Samplerate": 48000,
        "Track": 2,
        "DitherMethod": 0
      },
      {
        "Bitrate": 192,
        "DRC": 0.0,
        "Encoder": 2048,
        "Gain": 0.0,
        "Mixdown": 6,
        "NormalizeMixLevel": false,
        "Samplerate": 48000,
        "Track": 8,
        "DitherMethod": 0
      },
      {
        "Bitrate": 192,
        "DRC": 0.0,
        "Encoder": 2048,
        "Gain": 0.0,
        "Mixdown": 6,
        "NormalizeMixLevel": false,
        "Samplerate": 48000,
        "Track": 9,
        "DitherMethod": 0
      },
      {
        "Bitrate": 192,
        "DRC": 0.0,
        "Encoder": 2048,
        "Gain": 0.0,
        "Mixdown": 6,
        "NormalizeMixLevel": false,
        "Samplerate": 48000,
        "Track": 3,
        "DitherMethod": 0
      },
      {
        "Bitrate": 192,
        "DRC": 0.0,
        "Encoder": 2048,
        "Gain": 0.0,
        "Mixdown": 6,
        "NormalizeMixLevel": false,
        "Samplerate": 48000,
        "Track": 6,
        "DitherMethod": 0
      },
      {
        "Bitrate": 192,
        "DRC": 0.0,
        "Encoder": 2048,
        "Gain": 0.0,
        "Mixdown": 6,
        "NormalizeMixLevel": false,
        "Samplerate": 48000,
        "Track": 7,
        "DitherMethod": 0
      },
      {
        "Bitrate": 192,
        "DRC": 0.0,
        "Encoder": 2048,
        "Gain": 0.0,
        "Mixdown": 6,
        "NormalizeMixLevel": false,
        "Samplerate": 48000,
        "Track": 4,
        "DitherMethod": 0
      },
      {
        "Bitrate": 192,
        "DRC": 0.0,
        "Encoder": 2048,
        "Gain": 0.0,
        "Mixdown": 6,
        "NormalizeMixLevel": false,
        "Samplerate": 48000,
        "Track": 5,
        "DitherMethod": 0
      }
    ],
    "CopyMask": [
      1073807360,
      1073743872,
      1074003968,
      1073750016,
      1090519040,
      1074790400,
      1074266112,
      1107296256
    ],
    "FallbackEncoder": 2048
  },
  "Destination": {
    "ChapterList": [
      {
        "Name": "Chapter 1"
      },
      {
        "Name": "Chapter 2"
      },
      {
        "Name": "Chapter 3"
      },
      {
        "Name": "Chapter 4"
      },
      {
        "Name": "Chapter 5"
      },
      {
        "Name": "Chapter 6"
      },
      {
        "Name": "Chapter 7"
      },
      {
        "Name": "Chapter 8"
      },
      {
        "Name": "Chapter 9"
      }
    ],
    "ChapterMarkers": true,
    "AlignAVStart": false,
    "File": "C:\\Converted\\Game Of Thrones (2011) S01e01-1.mp4",
    "Mp4Options": {
      "IpodAtom": false,
      "Mp4Optimize": true
    },
    "Mux": 131072
  },
  "Filters": {
    "FilterList": [
      {
        "ID": 4,
        "Settings": {
          "mode": "7"
        }
      },
      {
        "ID": 3,
        "Settings": {
          "block-height": "16",
          "block-thresh": "40",
          "block-width": "16",
          "filter-mode": "2",
          "mode": "3",
          "motion-thresh": "1",
          "spatial-metric": "2",
          "spatial-thresh": "1"
        }
      },
      {
        "ID": 11,
        "Settings": {
          "crop-bottom": "0",
          "crop-left": "0",
          "crop-right": "0",
          "crop-top": "0",
          "height": "1080",
          "width": "1920"
        }
      },
      {
        "ID": 6,
        "Settings": {
          "mode": "1",
          "rate": "27000000/450000"
        }
      }
    ]
  },
  "PAR": {
    "Num": 1,
    "Den": 1
  },
  "Metadata": {},
  "SequenceID": 0,
  "Source": {
    "Angle": 1,
    "Range": {
      "Type": "chapter",
      "Start": 1,
      "End": 9
    },
    "Title": 1,
    "Path": "C:\\To Be Converted\\All\\Season 01\\Game of Thrones (2011) S01E01.mkv"
  },
  "Subtitle": {
    "Search": {
      "Burn": false,
      "Default": false,
      "Enable": false,
      "Forced": false
    },
    "SubtitleList": [
      {
        "Burn": false,
        "Default": false,
        "Forced": false,
        "ID": 1,
        "Offset": 0,
        "Track": 0
      },
      {
        "Burn": false,
        "Default": false,
        "Forced": false,
        "ID": 2,
        "Offset": 0,
        "Track": 1
      },
      {
        "Burn": false,
        "Default": false,
        "Forced": false,
        "ID": 3,
        "Offset": 0,
        "Track": 2
      },
      {
        "Burn": false,
        "Default": false,
        "Forced": false,
        "ID": 4,
        "Offset": 0,
        "Track": 3
      },
      {
        "Burn": false,
        "Default": false,
        "Forced": false,
        "ID": 5,
        "Offset": 0,
        "Track": 4
      },
      {
        "Burn": false,
        "Default": false,
        "Forced": false,
        "ID": 6,
        "Offset": 0,
        "Track": 5
      },
      {
        "Burn": false,
        "Default": false,
        "Forced": false,
        "ID": 7,
        "Offset": 0,
        "Track": 6
      },
      {
        "Burn": false,
        "Default": false,
        "Forced": false,
        "ID": 8,
        "Offset": 0,
        "Track": 7
      },
      {
        "Burn": false,
        "Default": false,
        "Forced": false,
        "ID": 9,
        "Offset": 0,
        "Track": 8
      },
      {
        "Burn": false,
        "Default": false,
        "Forced": false,
        "ID": 10,
        "Offset": 0,
        "Track": 9
      },
      {
        "Burn": false,
        "Default": false,
        "Forced": false,
        "ID": 11,
        "Offset": 0,
        "Track": 10
      },
      {
        "Burn": true,
        "Default": false,
        "Forced": false,
        "ID": 12,
        "Offset": 0,
        "Track": 11
      }
    ]
  },
  "Video": {
    "Encoder": 65536,
    "Level": "4.1",
    "TwoPass": false,
    "Turbo": false,
    "ColorMatrixCode": 0,
    "Preset": "ultrafast",
    "Profile": "high",
    "Quality": 22.0,
    "Tune": "film",
    "HWDecode": false,
    "QSV": {
      "Decode": false,
      "AsyncDepth": 0
    }
  }
}
[18:01:42] CPU:
[18:01:42]  - logical processor count: 4
[18:01:42] Intel Quick Sync Video support: no
[18:01:42] hb_scan: path=C:\To Be Converted\All\Season 01\Game of Thrones (2011) S01E01.mkv, title_index=1
udfread ERROR: ECMA 167 Volume Recognition failed
src/libbluray/disc/disc.c:323: failed opening UDF image C:\To Be Converted\All\Season 01\Game of Thrones (2011) S01E01.mkv
src/libbluray/disc/disc.c:424: error opening file BDMV\index.bdmv
src/libbluray/disc/disc.c:424: error opening file BDMV\BACKUP\index.bdmv
[18:01:42] bd: not a bd - trying as a stream/file instead
libdvdnav: Using dvdnav version 5.0.3
libdvdread: Encrypted DVD support unavailable.
libdvdread:DVDOpenFileUDF:UDFFindFile /VIDEO_TS/VIDEO_TS.IFO failed
libdvdread:DVDOpenFileUDF:UDFFindFile /VIDEO_TS/VIDEO_TS.BUP failed
libdvdread: Can't open file VIDEO_TS.IFO.
libdvdnav: vm: failed to read VIDEO_TS.IFO
[18:01:42] dvd: not a dvd - trying as a stream/file instead
Input #0, matroska,webm, from 'C:\To Be Converted\All\Season 01\Game of Thrones (2011) S01E01.mkv':
  Duration: 01:01:39.16, start: 0.000000, bitrate: N/A
    Chapter #0:0: start 0.000000, end 8.008000
    Metadata:
      title           : Chapter 1
    Chapter #0:1: start 8.008000, end 438.438000
    Metadata:
      title           : Chapter 2
    Chapter #0:2: start 438.438000, end 538.538000
    Metadata:
      title           : Chapter 3
    Chapter #0:3: start 538.538000, end 1096.512000
    Metadata:
      title           : Chapter 4
    Chapter #0:4: start 1096.512000, end 1728.560000
    Metadata:
      title           : Chapter 5
    Chapter #0:5: start 1728.560000, end 2377.583000
    Metadata:
      title           : Chapter 6
    Chapter #0:6: start 2377.583000, end 3002.040000
    Metadata:
      title           : Chapter 7
    Chapter #0:7: start 3002.040000, end 3634.631000
    Metadata:
      title           : Chapter 8
    Chapter #0:8: start 3634.631000, end 3699.168000
    Metadata:
      title           : Chapter 9
    Stream #0:0: Video: h264 (High)
      yuv420p, 1920x1080 [PAR 1:1 DAR 16:9], PAR 1:1 DAR 16:9
      23.98 fps, 1k tbn (default)
    Metadata:
      BPS             : 19882461
      BPS-eng         : 19882461
      DURATION        : 01:01:39.154000000
      DURATION-eng    : 01:01:39.154000000
      NUMBER_OF_FRAMES: 88691
      NUMBER_OF_FRAMES-eng: 88691
      NUMBER_OF_BYTES : 9193535835
      NUMBER_OF_BYTES-eng: 9193535835
      _STATISTICS_WRITING_APP: mkvmerge v9.9.0 ('Pick Up') 64bit
      _STATISTICS_WRITING_APP-eng: mkvmerge v9.9.0 ('Pick Up') 64bit
      _STATISTICS_WRITING_DATE_UTC: 2017-04-28 21:29:22
      _STATISTICS_WRITING_DATE_UTC-eng: 2017-04-28 21:29:22
      _STATISTICS_TAGS: BPS DURATION NUMBER_OF_FRAMES NUMBER_OF_BYTES
      _STATISTICS_TAGS-eng: BPS DURATION NUMBER_OF_FRAMES NUMBER_OF_BYTES
    Stream #0:1(eng): Audio: ac3
      48000 Hz, 5.1, fltp, 640 kb/s (default)
    Metadata:
      BPS             : 640000
      BPS-eng         : 640000
      DURATION        : 01:01:39.168000000
      DURATION-eng    : 01:01:39.168000000
      NUMBER_OF_FRAMES: 115599
      NUMBER_OF_FRAMES-eng: 115599
      NUMBER_OF_BYTES : 295933440
      NUMBER_OF_BYTES-eng: 295933440
      _STATISTICS_WRITING_APP: mkvmerge v9.9.0 ('Pick Up') 64bit
      _STATISTICS_WRITING_APP-eng: mkvmerge v9.9.0 ('Pick Up') 64bit
      _STATISTICS_WRITING_DATE_UTC: 2017-04-28 21:29:22
      _STATISTICS_WRITING_DATE_UTC-eng: 2017-04-28 21:29:22
      _STATISTICS_TAGS: BPS DURATION NUMBER_OF_FRAMES NUMBER_OF_BYTES
      _STATISTICS_TAGS-eng: BPS DURATION NUMBER_OF_FRAMES NUMBER_OF_BYTES
    Stream #0:2(eng): Audio: truehd
      48000 Hz, 7.1, s32
    Metadata:
      BPS             : 5056628
      BPS-eng         : 5056628
      DURATION        : 01:01:39.154000000
      DURATION-eng    : 01:01:39.154000000
      NUMBER_OF_FRAMES: 4438985
      NUMBER_OF_FRAMES-eng: 4438985
      NUMBER_OF_BYTES : 2338155838
      NUMBER_OF_BYTES-eng: 2338155838
      _STATISTICS_WRITING_APP: mkvmerge v9.9.0 ('Pick Up') 64bit
      _STATISTICS_WRITING_APP-eng: mkvmerge v9.9.0 ('Pick Up') 64bit
      _STATISTICS_WRITING_DATE_UTC: 2017-04-28 21:29:22
      _STATISTICS_WRITING_DATE_UTC-eng: 2017-04-28 21:29:22
      _STATISTICS_TAGS: BPS DURATION NUMBER_OF_FRAMES NUMBER_OF_BYTES
      _STATISTICS_TAGS-eng: BPS DURATION NUMBER_OF_FRAMES NUMBER_OF_BYTES
    Stream #0:3(eng): Audio: ac3
      48000 Hz, 5.1, fltp, 640 kb/s
    Metadata:
      BPS             : 640000
      BPS-eng         : 640000
      DURATION        : 01:01:39.168000000
      DURATION-eng    : 01:01:39.168000000
      NUMBER_OF_FRAMES: 115599
      NUMBER_OF_FRAMES-eng: 115599
      NUMBER_OF_BYTES : 295933440
      NUMBER_OF_BYTES-eng: 295933440
      _STATISTICS_WRITING_APP: mkvmerge v9.9.0 ('Pick Up') 64bit
      _STATISTICS_WRITING_APP-eng: mkvmerge v9.9.0 ('Pick Up') 64bit
      _STATISTICS_WRITING_DATE_UTC: 2017-04-28 21:29:22
      _STATISTICS_WRITING_DATE_UTC-eng: 2017-04-28 21:29:22
      _STATISTICS_TAGS: BPS DURATION NUMBER_OF_FRAMES NUMBER_OF_BYTES
      _STATISTICS_TAGS-eng: BPS DURATION NUMBER_OF_FRAMES NUMBER_OF_BYTES
    Stream #0:4(fre): Audio: ac3
      48000 Hz, 5.1, fltp, 448 kb/s
    Metadata:
      BPS             : 448000
      BPS-eng         : 448000
      DURATION        : 01:01:39.168000000
      DURATION-eng    : 01:01:39.168000000
      NUMBER_OF_FRAMES: 115599
      NUMBER_OF_FRAMES-eng: 115599
      NUMBER_OF_BYTES : 207153408
      NUMBER_OF_BYTES-eng: 207153408
      _STATISTICS_WRITING_APP: mkvmerge v9.9.0 ('Pick Up') 64bit
      _STATISTICS_WRITING_APP-eng: mkvmerge v9.9.0 ('Pick Up') 64bit
      _STATISTICS_WRITING_DATE_UTC: 2017-04-28 21:29:22
      _STATISTICS_WRITING_DATE_UTC-eng: 2017-04-28 21:29:22
      _STATISTICS_TAGS: BPS DURATION NUMBER_OF_FRAMES NUMBER_OF_BYTES
      _STATISTICS_TAGS-eng: BPS DURATION NUMBER_OF_FRAMES NUMBER_OF_BYTES
    Stream #0:5(spa): Audio: ac3
      48000 Hz, stereo, fltp, 256 kb/s
    Metadata:
      BPS             : 256000
      BPS-eng         : 256000
      DURATION        : 01:01:39.168000000
      DURATION-eng    : 01:01:39.168000000
      NUMBER_OF_FRAMES: 115599
      NUMBER_OF_FRAMES-eng: 115599
      NUMBER_OF_BYTES : 118373376
      NUMBER_OF_BYTES-eng: 118373376
      _STATISTICS_WRITING_APP: mkvmerge v9.9.0 ('Pick Up') 64bit
      _STATISTICS_WRITING_APP-eng: mkvmerge v9.9.0 ('Pick Up') 64bit
      _STATISTICS_WRITING_DATE_UTC: 2017-04-28 21:29:22
      _STATISTICS_WRITING_DATE_UTC-eng: 2017-04-28 21:29:22
      _STATISTICS_TAGS: BPS DURATION NUMBER_OF_FRAMES NUMBER_OF_BYTES
      _STATISTICS_TAGS-eng: BPS DURATION NUMBER_OF_FRAMES NUMBER_OF_BYTES
    Stream #0:6(spa): Audio: ac3
      48000 Hz, 5.1, fltp, 448 kb/s
    Metadata:
      BPS             : 448000
      BPS-eng         : 448000
      DURATION        : 01:01:39.168000000
      DURATION-eng    : 01:01:39.168000000
      NUMBER_OF_FRAMES: 115599
      NUMBER_OF_FRAMES-eng: 115599
      NUMBER_OF_BYTES : 207153408
      NUMBER_OF_BYTES-eng: 207153408
      _STATISTICS_WRITING_APP: mkvmerge v9.9.0 ('Pick Up') 64bit
      _STATISTICS_WRITING_APP-eng: mkvmerge v9.9.0 ('Pick Up') 64bit
      _STATISTICS_WRITING_DATE_UTC: 2017-04-28 21:29:22
      _STATISTICS_WRITING_DATE_UTC-eng: 2017-04-28 21:29:22
      _STATISTICS_TAGS: BPS DURATION NUMBER_OF_FRAMES NUMBER_OF_BYTES
      _STATISTICS_TAGS-eng: BPS DURATION NUMBER_OF_FRAMES NUMBER_OF_BYTES
    Stream #0:7(ger): Audio: ac3
      48000 Hz, 5.1, fltp, 448 kb/s
    Metadata:
      BPS             : 448000
      BPS-eng         : 448000
      DURATION        : 01:01:39.168000000
      DURATION-eng    : 01:01:39.168000000
      NUMBER_OF_FRAMES: 115599
      NUMBER_OF_FRAMES-eng: 115599
      NUMBER_OF_BYTES : 207153408
      NUMBER_OF_BYTES-eng: 207153408
      _STATISTICS_WRITING_APP: mkvmerge v9.9.0 ('Pick Up') 64bit
      _STATISTICS_WRITING_APP-eng: mkvmerge v9.9.0 ('Pick Up') 64bit
      _STATISTICS_WRITING_DATE_UTC: 2017-04-28 21:29:22
      _STATISTICS_WRITING_DATE_UTC-eng: 2017-04-28 21:29:22
      _STATISTICS_TAGS: BPS DURATION NUMBER_OF_FRAMES NUMBER_OF_BYTES
      _STATISTICS_TAGS-eng: BPS DURATION NUMBER_OF_FRAMES NUMBER_OF_BYTES
    Stream #0:8(ita): Audio: ac3
      48000 Hz, 5.1, fltp, 448 kb/s
    Metadata:
      BPS             : 448000
      BPS-eng         : 448000
      DURATION        : 01:01:39.168000000
      DURATION-eng    : 01:01:39.168000000
      NUMBER_OF_FRAMES: 115599
      NUMBER_OF_FRAMES-eng: 115599
      NUMBER_OF_BYTES : 207153408
      NUMBER_OF_BYTES-eng: 207153408
      _STATISTICS_WRITING_APP: mkvmerge v9.9.0 ('Pick Up') 64bit
      _STATISTICS_WRITING_APP-eng: mkvmerge v9.9.0 ('Pick Up') 64bit
      _STATISTICS_WRITING_DATE_UTC: 2017-04-28 21:29:22
      _STATISTICS_WRITING_DATE_UTC-eng: 2017-04-28 21:29:22
      _STATISTICS_TAGS: BPS DURATION NUMBER_OF_FRAMES NUMBER_OF_BYTES
      _STATISTICS_TAGS-eng: BPS DURATION NUMBER_OF_FRAMES NUMBER_OF_BYTES
    Stream #0:9(eng): Audio: ac3
      48000 Hz, 5.1, fltp, 448 kb/s
    Metadata:
      BPS             : 448000
      BPS-eng         : 448000
      DURATION        : 01:01:39.168000000
      DURATION-eng    : 01:01:39.168000000
      NUMBER_OF_FRAMES: 115599
      NUMBER_OF_FRAMES-eng: 115599
      NUMBER_OF_BYTES : 207153408
      NUMBER_OF_BYTES-eng: 207153408
      _STATISTICS_WRITING_APP: mkvmerge v9.9.0 ('Pick Up') 64bit
      _STATISTICS_WRITING_APP-eng: mkvmerge v9.9.0 ('Pick Up') 64bit
      _STATISTICS_WRITING_DATE_UTC: 2017-04-28 21:29:22
      _STATISTICS_WRITING_DATE_UTC-eng: 2017-04-28 21:29:22
      _STATISTICS_TAGS: BPS DURATION NUMBER_OF_FRAMES NUMBER_OF_BYTES
      _STATISTICS_TAGS-eng: BPS DURATION NUMBER_OF_FRAMES NUMBER_OF_BYTES
    Stream #0:10(eng): Subtitle: hdmv_pgs_subtitle (default)
    Metadata:
      BPS             : 9446
      BPS-eng         : 9446
      DURATION        : 01:00:15.779000000
      DURATION-eng    : 01:00:15.779000000
      NUMBER_OF_FRAMES: 1290
      NUMBER_OF_FRAMES-eng: 1290
      NUMBER_OF_BYTES : 4269349
      NUMBER_OF_BYTES-eng: 4269349
      _STATISTICS_WRITING_APP: mkvmerge v9.9.0 ('Pick Up') 64bit
      _STATISTICS_WRITING_APP-eng: mkvmerge v9.9.0 ('Pick Up') 64bit
      _STATISTICS_WRITING_DATE_UTC: 2017-04-28 21:29:22
      _STATISTICS_WRITING_DATE_UTC-eng: 2017-04-28 21:29:22
      _STATISTICS_TAGS: BPS DURATION NUMBER_OF_FRAMES NUMBER_OF_BYTES
      _STATISTICS_TAGS-eng: BPS DURATION NUMBER_OF_FRAMES NUMBER_OF_BYTES
    Stream #0:11(fre): Subtitle: hdmv_pgs_subtitle
    Metadata:
      BPS             : 8567
      BPS-eng         : 8567
      DURATION        : 00:58:29.005000000
      DURATION-eng    : 00:58:29.005000000
      NUMBER_OF_FRAMES: 1102
      NUMBER_OF_FRAMES-eng: 1102
      NUMBER_OF_BYTES : 3757938
      NUMBER_OF_BYTES-eng: 3757938
      _STATISTICS_WRITING_APP: mkvmerge v9.9.0 ('Pick Up') 64bit
      _STATISTICS_WRITING_APP-eng: mkvmerge v9.9.0 ('Pick Up') 64bit
      _STATISTICS_WRITING_DATE_UTC: 2017-04-28 21:29:22
      _STATISTICS_WRITING_DATE_UTC-eng: 2017-04-28 21:29:22
      _STATISTICS_TAGS: BPS DURATION NUMBER_OF_FRAMES NUMBER_OF_BYTES
      _STATISTICS_TAGS-eng: BPS DURATION NUMBER_OF_FRAMES NUMBER_OF_BYTES
    Stream #0:12(spa): Subtitle: hdmv_pgs_subtitle
    Metadata:
      BPS             : 8531
      BPS-eng         : 8531
      DURATION        : 00:58:29.005000000
      DURATION-eng    : 00:58:29.005000000
      NUMBER_OF_FRAMES: 1104
      NUMBER_OF_FRAMES-eng: 1104
      NUMBER_OF_BYTES : 3742307
      NUMBER_OF_BYTES-eng: 3742307
      _STATISTICS_WRITING_APP: mkvmerge v9.9.0 ('Pick Up') 64bit
      _STATISTICS_WRITING_APP-eng: mkvmerge v9.9.0 ('Pick Up') 64bit
      _STATISTICS_WRITING_DATE_UTC: 2017-04-28 21:29:22
      _STATISTICS_WRITING_DATE_UTC-eng: 2017-04-28 21:29:22
      _STATISTICS_TAGS: BPS DURATION NUMBER_OF_FRAMES NUMBER_OF_BYTES
      _STATISTICS_TAGS-eng: BPS DURATION NUMBER_OF_FRAMES NUMBER_OF_BYTES
    Stream #0:13(spa): Subtitle: hdmv_pgs_subtitle
    Metadata:
      BPS             : 8677
      BPS-eng         : 8677
      DURATION        : 00:58:29.005000000
      DURATION-eng    : 00:58:29.005000000
      NUMBER_OF_FRAMES: 1104
      NUMBER_OF_FRAMES-eng: 1104
      NUMBER_OF_BYTES : 3805988
      NUMBER_OF_BYTES-eng: 3805988
      _STATISTICS_WRITING_APP: mkvmerge v9.9.0 ('Pick Up') 64bit
      _STATISTICS_WRITING_APP-eng: mkvmerge v9.9.0 ('Pick Up') 64bit
      _STATISTICS_WRITING_DATE_UTC: 2017-04-28 21:29:22
      _STATISTICS_WRITING_DATE_UTC-eng: 2017-04-28 21:29:22
      _STATISTICS_TAGS: BPS DURATION NUMBER_OF_FRAMES NUMBER_OF_BYTES
      _STATISTICS_TAGS-eng: BPS DURATION NUMBER_OF_FRAMES NUMBER_OF_BYTES
    Stream #0:14(ger): Subtitle: hdmv_pgs_subtitle
    Metadata:
      BPS             : 9635
      BPS-eng         : 9635
      DURATION        : 00:58:29.005000000
      DURATION-eng    : 00:58:29.005000000
      NUMBER_OF_FRAMES: 1102
      NUMBER_OF_FRAMES-eng: 1102
      NUMBER_OF_BYTES : 4226588
      NUMBER_OF_BYTES-eng: 4226588
      _STATISTICS_WRITING_APP: mkvmerge v9.9.0 ('Pick Up') 64bit
      _STATISTICS_WRITING_APP-eng: mkvmerge v9.9.0 ('Pick Up') 64bit
      _STATISTICS_WRITING_DATE_UTC: 2017-04-28 21:29:22
      _STATISTICS_WRITING_DATE_UTC-eng: 2017-04-28 21:29:22
      _STATISTICS_TAGS: BPS DURATION NUMBER_OF_FRAMES NUMBER_OF_BYTES
      _STATISTICS_TAGS-eng: BPS DURATION NUMBER_OF_FRAMES NUMBER_OF_BYTES
    Stream #0:15(ita): Subtitle: hdmv_pgs_subtitle
    Metadata:
      BPS             : 9002
      BPS-eng         : 9002
      DURATION        : 01:00:15.779000000
      DURATION-eng    : 01:00:15.779000000
      NUMBER_OF_FRAMES: 1296
      NUMBER_OF_FRAMES-eng: 1296
      NUMBER_OF_BYTES : 4068839
      NUMBER_OF_BYTES-eng: 4068839
      _STATISTICS_WRITING_APP: mkvmerge v9.9.0 ('Pick Up') 64bit
      _STATISTICS_WRITING_APP-eng: mkvmerge v9.9.0 ('Pick Up') 64bit
      _STATISTICS_WRITING_DATE_UTC: 2017-04-28 21:29:22
      _STATISTICS_WRITING_DATE_UTC-eng: 2017-04-28 21:29:22
      _STATISTICS_TAGS: BPS DURATION NUMBER_OF_FRAMES NUMBER_OF_BYTES
      _STATISTICS_TAGS-eng: BPS DURATION NUMBER_OF_FRAMES NUMBER_OF_BYTES
    Stream #0:16(por): Subtitle: hdmv_pgs_subtitle
    Metadata:
      BPS             : 8193
      BPS-eng         : 8193
      DURATION        : 00:58:29.005000000
      DURATION-eng    : 00:58:29.005000000
      NUMBER_OF_FRAMES: 1102
      NUMBER_OF_FRAMES-eng: 1102
      NUMBER_OF_BYTES : 3593971
      NUMBER_OF_BYTES-eng: 3593971
      _STATISTICS_WRITING_APP: mkvmerge v9.9.0 ('Pick Up') 64bit
      _STATISTICS_WRITING_APP-eng: mkvmerge v9.9.0 ('Pick Up') 64bit
      _STATISTICS_WRITING_DATE_UTC: 2017-04-28 21:29:22
      _STATISTICS_WRITING_DATE_UTC-eng: 2017-04-28 21:29:22
      _STATISTICS_TAGS: BPS DURATION NUMBER_OF_FRAMES NUMBER_OF_BYTES
      _STATISTICS_TAGS-eng: BPS DURATION NUMBER_OF_FRAMES NUMBER_OF_BYTES
    Stream #0:17(dut): Subtitle: hdmv_pgs_subtitle
    Metadata:
      BPS             : 7918
      BPS-eng         : 7918
      DURATION        : 00:58:29.005000000
      DURATION-eng    : 00:58:29.005000000
      NUMBER_OF_FRAMES: 1076
      NUMBER_OF_FRAMES-eng: 1076
      NUMBER_OF_BYTES : 3473210
      NUMBER_OF_BYTES-eng: 3473210
      _STATISTICS_WRITING_APP: mkvmerge v9.9.0 ('Pick Up') 64bit
      _STATISTICS_WRITING_APP-eng: mkvmerge v9.9.0 ('Pick Up') 64bit
      _STATISTICS_WRITING_DATE_UTC: 2017-04-28 21:29:22
      _STATISTICS_WRITING_DATE_UTC-eng: 2017-04-28 21:29:22
      _STATISTICS_TAGS: BPS DURATION NUMBER_OF_FRAMES NUMBER_OF_BYTES
      _STATISTICS_TAGS-eng: BPS DURATION NUMBER_OF_FRAMES NUMBER_OF_BYTES
    Stream #0:18(dan): Subtitle: hdmv_pgs_subtitle
    Metadata:
      BPS             : 8636
      BPS-eng         : 8636
      DURATION        : 00:58:29.005000000
      DURATION-eng    : 00:58:29.005000000
      NUMBER_OF_FRAMES: 1102
      NUMBER_OF_FRAMES-eng: 1102
      NUMBER_OF_BYTES : 3788371
      NUMBER_OF_BYTES-eng: 3788371
      _STATISTICS_WRITING_APP: mkvmerge v9.9.0 ('Pick Up') 64bit
      _STATISTICS_WRITING_APP-eng: mkvmerge v9.9.0 ('Pick Up') 64bit
      _STATISTICS_WRITING_DATE_UTC: 2017-04-28 21:29:22
      _STATISTICS_WRITING_DATE_UTC-eng: 2017-04-28 21:29:22
      _STATISTICS_TAGS: BPS DURATION NUMBER_OF_FRAMES NUMBER_OF_BYTES
      _STATISTICS_TAGS-eng: BPS DURATION NUMBER_OF_FRAMES NUMBER_OF_BYTES
    Stream #0:19(fin): Subtitle: hdmv_pgs_subtitle
    Metadata:
      BPS             : 7011
      BPS-eng         : 7011
      DURATION        : 00:58:29.005000000
      DURATION-eng    : 00:58:29.005000000
      NUMBER_OF_FRAMES: 1104
      NUMBER_OF_FRAMES-eng: 1104
      NUMBER_OF_BYTES : 3075332
      NUMBER_OF_BYTES-eng: 3075332
      _STATISTICS_WRITING_APP: mkvmerge v9.9.0 ('Pick Up') 64bit
      _STATISTICS_WRITING_APP-eng: mkvmerge v9.9.0 ('Pick Up') 64bit
      _STATISTICS_WRITING_DATE_UTC: 2017-04-28 21:29:22
      _STATISTICS_WRITING_DATE_UTC-eng: 2017-04-28 21:29:22
      _STATISTICS_TAGS: BPS DURATION NUMBER_OF_FRAMES NUMBER_OF_BYTES
      _STATISTICS_TAGS-eng: BPS DURATION NUMBER_OF_FRAMES NUMBER_OF_BYTES
    Stream #0:20(nor): Subtitle: hdmv_pgs_subtitle
    Metadata:
      BPS             : 8094
      BPS-eng         : 8094
      DURATION        : 00:58:29.005000000
      DURATION-eng    : 00:58:29.005000000
      NUMBER_OF_FRAMES: 1104
      NUMBER_OF_FRAMES-eng: 1104
      NUMBER_OF_BYTES : 3550507
      NUMBER_OF_BYTES-eng: 3550507
      _STATISTICS_WRITING_APP: mkvmerge v9.9.0 ('Pick Up') 64bit
      _STATISTICS_WRITING_APP-eng: mkvmerge v9.9.0 ('Pick Up') 64bit
      _STATISTICS_WRITING_DATE_UTC: 2017-04-28 21:29:22
      _STATISTICS_WRITING_DATE_UTC-eng: 2017-04-28 21:29:22
      _STATISTICS_TAGS: BPS DURATION NUMBER_OF_FRAMES NUMBER_OF_BYTES
      _STATISTICS_TAGS-eng: BPS DURATION NUMBER_OF_FRAMES NUMBER_OF_BYTES
    Stream #0:21(swe): Subtitle: hdmv_pgs_subtitle
    Metadata:
      BPS             : 8106
      BPS-eng         : 8106
      DURATION        : 00:58:29.005000000
      DURATION-eng    : 00:58:29.005000000
      NUMBER_OF_FRAMES: 1104
      NUMBER_OF_FRAMES-eng: 1104
      NUMBER_OF_BYTES : 3555798
      NUMBER_OF_BYTES-eng: 3555798
      _STATISTICS_WRITING_APP: mkvmerge v9.9.0 ('Pick Up') 64bit
      _STATISTICS_WRITING_APP-eng: mkvmerge v9.9.0 ('Pick Up') 64bit
      _STATISTICS_WRITING_DATE_UTC: 2017-04-28 21:29:22
      _STATISTICS_WRITING_DATE_UTC-eng: 2017-04-28 21:29:22
      _STATISTICS_TAGS: BPS DURATION NUMBER_OF_FRAMES NUMBER_OF_BYTES
      _STATISTICS_TAGS-eng: BPS DURATION NUMBER_OF_FRAMES NUMBER_OF_BYTES
    Stream #0:22(eng): Audio: eac3
      48000 Hz, stereo, fltp, 192 kb/s
    Metadata:
      BPS             : 192000
      BPS-eng         : 192000
      DURATION        : 01:01:39.168000000
      DURATION-eng    : 01:01:39.168000000
      NUMBER_OF_FRAMES: 115599
      NUMBER_OF_FRAMES-eng: 115599
      NUMBER_OF_BYTES : 88780032
      NUMBER_OF_BYTES-eng: 88780032
      _STATISTICS_WRITING_APP: mkvmerge v9.9.0 ('Pick Up') 64bit
      _STATISTICS_WRITING_APP-eng: mkvmerge v9.9.0 ('Pick Up') 64bit
      _STATISTICS_WRITING_DATE_UTC: 2017-04-28 21:29:22
      _STATISTICS_WRITING_DATE_UTC-eng: 2017-04-28 21:29:22
      _STATISTICS_TAGS: BPS DURATION NUMBER_OF_FRAMES NUMBER_OF_BYTES
      _STATISTICS_TAGS-eng: BPS DURATION NUMBER_OF_FRAMES NUMBER_OF_BYTES
    Stream #0:23: Video: h264 (High)
      yuv420p, 720x480 [PAR 40:33 DAR 20:11], PAR 97:80 DAR 291:160
      23.98 fps, 1k tbn
    Metadata:
      BPS             : 22042
      BPS-eng         : 22042
      DURATION        : 01:01:39.154000000
      DURATION-eng    : 01:01:39.154000000
      NUMBER_OF_FRAMES: 88691
      NUMBER_OF_FRAMES-eng: 88691
      NUMBER_OF_BYTES : 10192300
      NUMBER_OF_BYTES-eng: 10192300
      _STATISTICS_WRITING_APP: mkvmerge v9.9.0 ('Pick Up') 64bit
      _STATISTICS_WRITING_APP-eng: mkvmerge v9.9.0 ('Pick Up') 64bit
      _STATISTICS_WRITING_DATE_UTC: 2017-04-28 21:29:22
      _STATISTICS_WRITING_DATE_UTC-eng: 2017-04-28 21:29:22
      _STATISTICS_TAGS: BPS DURATION NUMBER_OF_FRAMES NUMBER_OF_BYTES
      _STATISTICS_TAGS-eng: BPS DURATION NUMBER_OF_FRAMES NUMBER_OF_BYTES
[18:01:42] scan: decoding previews for title 1
[18:01:42] scan: audio 0x1: ac3, rate=48000Hz, bitrate=640000 English (AC3) (5.1 ch)
[18:01:42] scan: audio 0x2: truehd, rate=48000Hz, bitrate=1 English (TrueHD) (7.1 ch)
[18:01:42] scan: audio 0x3: ac3, rate=48000Hz, bitrate=640000 English (AC3) (5.1 ch) (Dolby Digital EX)
[18:01:42] scan: audio 0x4: ac3, rate=48000Hz, bitrate=448000 Francais (AC3) (5.1 ch)
[18:01:42] scan: audio 0x5: ac3, rate=48000Hz, bitrate=256000 español (AC3) (2.0 ch) (Dolby Surround)
[18:01:42] scan: audio 0x6: ac3, rate=48000Hz, bitrate=448000 español (AC3) (5.1 ch)
[18:01:42] scan: audio 0x7: ac3, rate=48000Hz, bitrate=448000 Deutsch (AC3) (5.1 ch)
[18:01:42] scan: audio 0x8: ac3, rate=48000Hz, bitrate=448000 italiano (AC3) (5.1 ch)
[18:01:42] scan: audio 0x9: ac3, rate=48000Hz, bitrate=448000 English (AC3) (5.1 ch)
[18:01:42] scan: audio 0x16: eac3, rate=48000Hz, bitrate=192000 English (E-AC3) (2.0 ch)
[18:01:43] scan: 10 previews, 1920x1080, 23.976 fps, autocrop = 0/0/0/0, aspect 16:9, PAR 1:1
[18:01:43] scan: supported video decoders: avcodec qsv
[18:01:43] libhb: scan thread found 1 valid title(s)
[18:01:43] starting job
[18:01:43] Subtitle pass-thru requested and input track is not compatible with container.  Changing track 0 to burned-in subtitle.
[18:01:43] Subtitle pass-thru requested and input track is not compatible with container.  One track already burned, dropping track 1.
[18:01:43] Subtitle pass-thru requested and input track is not compatible with container.  One track already burned, dropping track 1.
[18:01:43] Subtitle pass-thru requested and input track is not compatible with container.  One track already burned, dropping track 1.
[18:01:43] Subtitle pass-thru requested and input track is not compatible with container.  One track already burned, dropping track 1.
[18:01:43] Subtitle pass-thru requested and input track is not compatible with container.  One track already burned, dropping track 1.
[18:01:43] Subtitle pass-thru requested and input track is not compatible with container.  One track already burned, dropping track 1.
[18:01:43] Subtitle pass-thru requested and input track is not compatible with container.  One track already burned, dropping track 1.
[18:01:43] Subtitle pass-thru requested and input track is not compatible with container.  One track already burned, dropping track 1.
[18:01:43] Subtitle pass-thru requested and input track is not compatible with container.  One track already burned, dropping track 1.
[18:01:43] Subtitle pass-thru requested and input track is not compatible with container.  One track already burned, dropping track 1.
[18:01:43] More than one subtitle burn-in requested, dropping track 1.
[18:01:43] decomb filter thread started for segment 0
[18:01:43] decomb filter thread started for segment 1
[18:01:43] work: track 1, dithering not supported by codec
[18:01:43] work: track 2, dithering not supported by codec
[18:01:43] work: track 3, dithering not supported by codec
[18:01:43] work: track 4, dithering not supported by codec
[18:01:43] work: sanitizing track 5 mixdown Dolby Pro Logic II to Stereo
[18:01:43] work: track 5, dithering not supported by codec
[18:01:43] work: track 6, dithering not supported by codec
[18:01:43] work: track 7, dithering not supported by codec
[18:01:43] work: track 8, dithering not supported by codec
[18:01:43] work: sanitizing track 9 mixdown Dolby Pro Logic II to Dolby Surround
[18:01:43] work: track 9, dithering not supported by codec
[18:01:43] work: track 10, dithering not supported by codec
[18:01:43] decomb filter thread started for segment 2
[18:01:43] decomb filter thread started for segment 3
[18:01:43] decomb check thread started for segment 0
[18:01:43] job configuration:
[18:01:43] decomb check thread started for segment 1
[18:01:43] decomb check thread started for segment 2
[18:01:43] mask filter thread started for segment 0
[18:01:43] mask erode thread started for segment 0
[18:01:43] mask erode thread started for segment 1
[18:01:43] mask dilate thread started for segment 1
[18:01:43] mask dilate thread started for segment 2
[18:01:43] mask dilate thread started for segment 3
[18:01:43] yadif thread started for segment 1
[18:01:43]  * source
[18:01:43]    + C:\To Be Converted\All\Season 01\Game of Thrones (2011) S01E01.mkv
[18:01:43] yadif thread started for segment 3
[18:01:43]    + title 1, chapter(s) 1 to 9
[18:01:43]    + container: matroska,webm
[18:01:43] decomb check thread started for segment 3
[18:01:43]  * destination
[18:01:43]    + C:\Converted\Game Of Thrones (2011) S01e01-1.mp4
[18:01:43]    + container: MPEG-4 (libavformat)
[18:01:43] mask filter thread started for segment 1
[18:01:43]      + optimized for HTTP streaming (fast start)
[18:01:43]      + chapter markers
[18:01:43]  * video track
[18:01:43] mask filter thread started for segment 2
[18:01:43]    + decoder: h264
[18:01:43] mask filter thread started for segment 3
[18:01:43]    + filters
[18:01:43] mask erode thread started for segment 2
[18:01:43] mask erode thread started for segment 3
[18:01:43]      + Comb Detect (mode=3:spatial-metric=2:motion-thresh=1:spatial-thresh=1:filter-mode=2:block-thresh=40:block-width=16:block-height=16)
[18:01:43] mask dilate thread started for segment 0
[18:01:43] yadif thread started for segment 0
[18:01:43]      + Decomb (mode=39)
[18:01:43]      + Framerate Shaper (mode=1:rate=27000000/450000)
[18:01:43]        + frame rate: 23.976 fps -> constant 60.000 fps
[18:01:43]      + Subtitle renderer ()
[18:01:43]      + Crop and Scale (width=1920:height=1080:crop-top=0:crop-bottom=0:crop-left=0:crop-right=0)
[18:01:43]        + source: 1920 * 1080, crop (0/0/0/0): 1920 * 1080, scale: 1920 * 1080
[18:01:43]    + Output geometry
[18:01:43]      + storage dimensions: 1920 x 1080
[18:01:43]      + pixel aspect ratio: 1 : 1
[18:01:43]      + display dimensions: 1920 x 1080
[18:01:43]    + encoder: H.264 (libx264)
[18:01:43]      + preset:  ultrafast
[18:01:43]      + tune:    film
[18:01:43]      + profile: high
[18:01:43]      + level:   4.1
[18:01:43]      + quality: 22.00 (RF)
[18:01:43] yadif thread started for segment 2
[18:01:43]  * subtitle track 1, English [PGS] (track 0, id 0xa, Picture) -> Render/Burn-in
[18:01:43]  * audio track 1
[18:01:43]    + decoder: English (AC3) (5.1 ch) (track 1, id 0x1)
[18:01:43]      + bitrate: 640 kbps, samplerate: 48000 Hz
[18:01:43]    + mixdown: Dolby Pro Logic II
[18:01:43]    + encoder: AC3 (libavcodec)
[18:01:43]      + bitrate: 192 kbps, samplerate: 48000 Hz
[18:01:43]  * audio track 2
[18:01:43]    + decoder: English (TrueHD) (7.1 ch) (track 2, id 0x2)
[18:01:43]      + samplerate: 48000 Hz
[18:01:43]    + mixdown: Dolby Pro Logic II
[18:01:43]    + encoder: AC3 (libavcodec)
[18:01:43]      + bitrate: 192 kbps, samplerate: 48000 Hz
[18:01:43]  * audio track 3
[18:01:43]    + decoder: English (AC3) (5.1 ch) (Dolby Digital EX) (track 3, id 0x3)
[18:01:43]      + bitrate: 640 kbps, samplerate: 48000 Hz
[18:01:43]    + mixdown: Dolby Pro Logic II
[18:01:43]    + encoder: AC3 (libavcodec)
[18:01:43]      + bitrate: 192 kbps, samplerate: 48000 Hz
[18:01:43]  * audio track 4
[18:01:43]    + decoder: English (AC3) (5.1 ch) (track 9, id 0x9)
[18:01:43]      + bitrate: 448 kbps, samplerate: 48000 Hz
[18:01:43]    + mixdown: Dolby Pro Logic II
[18:01:43]    + encoder: AC3 (libavcodec)
[18:01:43]      + bitrate: 192 kbps, samplerate: 48000 Hz
[18:01:43]  * audio track 5
[18:01:43]    + decoder: English (E-AC3) (2.0 ch) (track 10, id 0x16)
[18:01:43]      + bitrate: 192 kbps, samplerate: 48000 Hz
[18:01:43]    + mixdown: Stereo
[18:01:43]    + encoder: AC3 (libavcodec)
[18:01:43]      + bitrate: 192 kbps, samplerate: 48000 Hz
[18:01:43]  * audio track 6
[18:01:43]    + decoder: Francais (AC3) (5.1 ch) (track 4, id 0x4)
[18:01:43]      + bitrate: 448 kbps, samplerate: 48000 Hz
[18:01:43]    + mixdown: Dolby Pro Logic II
[18:01:43]    + encoder: AC3 (libavcodec)
[18:01:43]      + bitrate: 192 kbps, samplerate: 48000 Hz
[18:01:43]  * audio track 7
[18:01:43]    + decoder: Deutsch (AC3) (5.1 ch) (track 7, id 0x7)
[18:01:43]      + bitrate: 448 kbps, samplerate: 48000 Hz
[18:01:43]    + mixdown: Dolby Pro Logic II
[18:01:43]    + encoder: AC3 (libavcodec)
[18:01:43]      + bitrate: 192 kbps, samplerate: 48000 Hz
[18:01:43]  * audio track 8
[18:01:43]    + decoder: italiano (AC3) (5.1 ch) (track 8, id 0x8)
[18:01:43]      + bitrate: 448 kbps, samplerate: 48000 Hz
[18:01:43]    + mixdown: Dolby Pro Logic II
[18:01:43]    + encoder: AC3 (libavcodec)
[18:01:43]      + bitrate: 192 kbps, samplerate: 48000 Hz
[18:01:43]  * audio track 9
[18:01:43]    + decoder: español (AC3) (2.0 ch) (Dolby Surround) (track 5, id 0x5)
[18:01:43]      + bitrate: 256 kbps, samplerate: 48000 Hz
[18:01:43]    + mixdown: Dolby Surround
[18:01:43]    + encoder: AC3 (libavcodec)
[18:01:43]      + bitrate: 192 kbps, samplerate: 48000 Hz
[18:01:43]  * audio track 10
[18:01:43]    + decoder: español (AC3) (5.1 ch) (track 6, id 0x6)
[18:01:43]      + bitrate: 448 kbps, samplerate: 48000 Hz
[18:01:43]    + mixdown: Dolby Pro Logic II
[18:01:43]    + encoder: AC3 (libavcodec)
[18:01:43]      + bitrate: 192 kbps, samplerate: 48000 Hz
[18:01:43] sync: expecting 88691 video frames
[18:01:43] encx264: min-keyint: 60, keyint: 600
[18:01:43] encx264: encoding at constant RF 22.000000
[18:01:43] apply_h264_level [warning]: framerate (60.000) too high for level 4.1 at 1920x1080 (max. 30.118)
[18:01:43] encx264: unparsed options: level=4.1:ref=1:scenecut=0:bframes=0:no-deblock=1:cabac=0:analyse=none:8x8dct=0:weightp=0:me=dia:subme=0:mixed-refs=0:psy-rd=1,0.15:vbv-bufsize=62500:vbv-maxrate=50000:aq-mode=0:mbtree=0:rc-lookahead=0
x264 [info]: using SAR=1/1
x264 [warning]: MB rate (489600) > level limit (245760)
x264 [info]: using cpu capabilities: MMX2 SSE2Fast SSSE3 SSE4.2 AVX FMA3 BMI2 AVX2
x264 [info]: profile Constrained Baseline, level 4.1
[18:01:44] sync: first pts audio 0x2 is 0
[18:01:44] sync: first pts audio 0x1 is 0
[18:01:44] sync: first pts audio 0x3 is 0
[18:01:44] sync: first pts audio 0x4 is 0
[18:01:44] sync: first pts audio 0x7 is 0
[18:01:44] sync: first pts audio 0x8 is 0
[18:01:44] sync: first pts audio 0x5 is 0
[18:01:44] sync: first pts audio 0x6 is 0
[18:01:44] sync: first pts audio 0x9 is 0
[18:01:44] sync: first pts audio 0x16 is 0
[18:01:44] sync: first pts video is 0
[18:01:44] sync: "Chapter 1" (1) at frame 1 time 0
[18:01:49] sync: "Chapter 2" (2) at frame 193 time 720720
[18:01:52] sync: first pts subtitle 0xa is 1129860

Woodstock
Veteran User
Posts: 2602
Joined: Tue Aug 27, 2013 6:39 am

Re: Converting Game of Thrones

Post by Woodstock » Sun Aug 05, 2018 2:43 pm

You cannot keep PGS subtitles when your output format is MP4. You can only burn in PGS subtitles, and only one is allowed.

If you want to retain more subtitles, you must use a format that supports PGS, which means MKV for most people.

Post Reply