How to choose Program of Transport Stream for conversion

General questions or discussion about HandBrake, Video and/or audio transcoding, trends etc.
Post Reply
jirkazprahy
New User
Posts: 1
Joined: Wed Jan 01, 2020 9:05 am

How to choose Program of Transport Stream for conversion

Post by jirkazprahy »

Description of problem or question:
I have Avermedia TD310 USB device. I am able to record the whole .ts, containing multiple Programmes. I am able with HandBrake to convert first programme (probably the default) to .mp4 file.
But I can not find, how to select another Programme. Can you advice me, how to do this? I am relatively new to Hand Brake, but I can not find the solution of this problem in the forum.
In log file the programmes shows as service_name, but I do not know, how to enter in in GUI or how to run HandBrake as command line...

Steps to reproduce the problem (If Applicable):
This is my setup in log file:
{
"Audio": {
"AudioList": [
{
"Bitrate": 160,
"DRC": 0.0,
"Encoder": "av_aac",
"Gain": 0.0,
"Mixdown": 4,
"NormalizeMixLevel": false,
"Samplerate": 0,
"Track": 0,
"DitherMethod": 0
}
],
"CopyMask": [
"copy:aac",
"copy:ac3",
"copy:dtshd",
"copy:dts",
"copy:eac3",
"copy:flac",
"copy:mp3",
"copy:truehd"
],
"FallbackEncoder": "ac3"
},
"Destination": {
"ChapterList": [
{
"Name": "Chapter 1"
}
],
"ChapterMarkers": true,
"AlignAVStart": true,
"File": "C:\\Users\\hronekj\\Videos\\TS1.mp4",
"Mp4Options": {
"IpodAtom": false,
"Mp4Optimize": false
},
"Mux": "mp4"
},
"Filters": {
"FilterList": [
{
"ID": 4,
"Settings": {
"mode": "7"
}
},
{
"ID": 3,
"Settings": {
"block-height": "16",
"block-thresh": "40",
"block-width": "16",
"filter-mode": "2",
"mode": "3",
"motion-thresh": "1",
"spatial-metric": "2",
"spatial-thresh": "1"
}
},
{
"ID": 12,
"Settings": {
"crop-bottom": "0",
"crop-left": "0",
"crop-right": "0",
"crop-top": "0",
"height": "1080",
"width": "1920"
}
},
{
"ID": 6,
"Settings": {
"mode": "2",
"rate": "27000000/900000"
}
}
]
},
"PAR": {
"Num": 1,
"Den": 1
},
"Metadata": {},
"SequenceID": 0,
"Source": {
"Angle": 1,
"Range": {
"Type": "chapter",
"Start": 1,
"End": 1
},
"Title": 1,
"Path": "C:\\Users\\hronekj\\Documents\\vlc-record-2019-12-31-19h03m25s-dvb-t2___frequency=514000000-Zprávy.ts"
},
"Subtitle": {
"Search": {
"Burn": true,
"Default": false,
"Enable": true,
"Forced": true
},
"SubtitleList": []
},
"Video": {
"Encoder": "x264",
"Level": "4.0",
"TwoPass": false,
"Turbo": false,
"ColorMatrixCode": 0,
"Options": "",
"Preset": "fast",
"Profile": "main",
"Quality": 22.0,
"QSV": {
"Decode": false,
"AsyncDepth": 0
}
}
}


HandBrake version (e.g., 1.0.0):




Operating system and version (e.g., Ubuntu 16.04 LTS, macOS 10.13 High Sierra, Windows 10 Creators Update):
Windows 10



HandBrake Activity Log ***required*** (see [url=https://handbrake.fr/docs/en/latest/hel ... y-log.html]
I can see the programmes in the activity log:
nput #0, mpegts, from 'C:\Users\hronekj\Documents\vlc-record-2019-12-31-19h03m25s-dvb-t2___frequency=514000000-Zprávy.ts':
Duration: 26:31:21.37, start: 74156.778778, bitrate: 12 kb/s
Program 268
Metadata:
service_name : CT 1 HD T2
service_provider: CESKA TELEVIZE
Stream #0:0[0x83e]: Video: hevc (Main) ([36][0][0][0] / 0x0024), yuv420p(tv, bt709), 1920x1080 [SAR 1:1 DAR 16:9], 50 fps, 50 tbr, 90k tbn, 50 tbc
Stream #0:1[0x848](cze): Audio: aac_latm (LC) ([17][0][0][0] / 0x0011), 48000 Hz, stereo, fltp
Stream #0:2[0x849](qaa): Audio: aac_latm (LC) ([17][0][0][0] / 0x0011), 48000 Hz, stereo, fltp
Stream #0:3[0x84a](cze): Audio: ac3 (AC-3 / 0x332D4341), 48000 Hz, 5.1(side), fltp, 448 kb/s
Stream #0:4[0x84b](cze): Audio: aac_latm (LC) ([17][0][0][0] / 0x0011), 48000 Hz, mono, fltp (visual impaired) (descriptions) (dependent)
Stream #0:5[0x852](cze): Subtitle: dvb_teletext ([6][0][0][0] / 0x0006)
Stream #0:6[0x866](cze): Subtitle: dvb_subtitle ([6][0][0][0] / 0x0006) (hearing impaired)
Stream #0:7[0x870]: Unknown: none ([5][0][0][0] / 0x0005)
Program 270
Metadata:
service_name : CT 2 HD T2
service_provider: CESKA TELEVIZE
Stream #0:5[0x852](cze): Subtitle: dvb_teletext ([6][0][0][0] / 0x0006)
Stream #0:19[0x8a2]: Video: hevc (Main) ([36][0][0][0] / 0x0024), yuv420p(tv, bt709), 1920x1080 [SAR 1:1 DAR 16:9], 50 fps, 50 tbr, 90k tbn, 50 tbc
Stream #0:18[0x8ac](cze): Audio: aac_latm (LC) ([17][0][0][0] / 0x0011), 48000 Hz, stereo, fltp
Stream #0:15[0x8ad](qaa): Audio: aac_latm (LC) ([17][0][0][0] / 0x0011), 48000 Hz, stereo, fltp
Stream #0:28[0x8ae](cze): Audio: ac3 (AC-3 / 0x332D4341), 48000 Hz, stereo, fltp, 448 kb/s
Stream #0:21[0x8af](cze): Audio: aac_latm (LC) ([17][0][0][0] / 0x0011), 48000 Hz, mono, fltp (visual impaired) (descriptions) (dependent)
Stream #0:41[0x8ca](cze): Subtitle: dvb_subtitle ([6][0][0][0] / 0x0006) (hearing impaired)
Stream #0:42[0x8d4]: Unknown: none ([5][0][0][0] / 0x0005)
Program 272
Metadata:
service_name : CT 24 HD T2
service_provider: CESKA TELEVIZE
Stream #0:5[0x852](cze): Subtitle: dvb_teletext ([6][0][0][0] / 0x0006)
Stream #0:25[0x906]: Video: hevc (Main), yuv420p(tv, bt709), 1920x1080 [SAR 1:1 DAR 16:9], 50 fps, 50 tbr, 90k tbn, 50 tbc
Stream #0:9[0x910](cze): Audio: aac_latm (LC), 48000 Hz, stereo, fltp
Stream #0:14[0x913](cze): Audio: aac_latm (LC), 48000 Hz, mono, fltp (visual impaired) (descriptions) (dependent)
Stream #0:47[0x92e](cze): Subtitle: dvb_subtitle ([6][0][0][0] / 0x0006) (hearing impaired)
Stream #0:48[0x938]: Unknown: none ([5][0][0][0] / 0x0005)
Program 274
Metadata:
service_name : CT sport HD T2
service_provider: CESKA TELEVIZE
Stream #0:5[0x852](cze): Subtitle: dvb_teletext ([6][0][0][0] / 0x0006)
Stream #0:13[0x96a]: Video: hevc (Main) ([36][0][0][0] / 0x0024), yuv420p(tv, bt709), 1920x1080 [SAR 1:1 DAR 16:9], 50 fps, 50 tbr, 90k tbn, 50 tbc
Stream #0:12[0x974](cze): Audio: aac_latm (LC) ([17][0][0][0] / 0x0011), 48000 Hz, stereo, fltp
Stream #0:11[0x976](cze): Audio: ac3 (AC-3 / 0x332D4341), 48000 Hz, stereo, fltp, 448 kb/s
Stream #0:26[0x977](cze): Audio: aac_latm (LC) ([17][0][0][0] / 0x0011), 48000 Hz, mono, fltp (visual impaired) (descriptions) (dependent)
Stream #0:45[0x992](cze): Subtitle: dvb_subtitle ([6][0][0][0] / 0x0006) (hearing impaired)
Stream #0:46[0x99c]: Unknown: none ([5][0][0][0] / 0x0005)
Program 276
Metadata:
service_name : CT :D/art HD T2
service_provider: CESKA TELEVIZE
Stream #0:5[0x852](cze): Subtitle: dvb_teletext ([6][0][0][0] / 0x0006)
Stream #0:8[0x9ce]: Video: hevc (Main) ([36][0][0][0] / 0x0024), yuv420p(tv, bt709), 1920x1080 [SAR 1:1 DAR 16:9], 50 fps, 50 tbr, 90k tbn, 50 tbc
Stream #0:16[0x9d8](cze): Audio: aac_latm (LC) ([17][0][0][0] / 0x0011), 48000 Hz, stereo, fltp
Stream #0:17[0x9d9](qaa): Audio: aac_latm (LC) ([17][0][0][0] / 0x0011), 48000 Hz, stereo, fltp
Stream #0:20[0x9da](cze): Audio: ac3 (AC-3 / 0x332D4341), 48000 Hz, stereo, fltp, 448 kb/s
Stream #0:24[0x9db](cze): Audio: aac_latm (LC) ([17][0][0][0] / 0x0011), 48000 Hz, mono, fltp (visual impaired) (descriptions) (dependent)
Stream #0:36[0x9f6](cze): Subtitle: dvb_subtitle ([6][0][0][0] / 0x0006) (hearing impaired)
Stream #0:37[0xa00]: Unknown: none ([5][0][0][0] / 0x0005)
Program 280
Metadata:
service_name : CT 1 SM HD T2
service_provider: CESKA TELEVIZE
Stream #0:0[0x83e]: Video: hevc (Main) ([36][0][0][0] / 0x0024), yuv420p(tv, bt709), 1920x1080 [SAR 1:1
Please replace this text with the contents of your log file between the two code tags - OR - provide a pastebin URL in place of these 3 lines.
[/code]

Post Reply