Handbrake with screen captures.

General questions or discussion about HandBrake, Video and/or audio transcoding, trends etc.
Post Reply
NickSteel
Posts: 1
Joined: Sat Jun 15, 2019 5:18 pm

Handbrake with screen captures.

Post by NickSteel » Sat Jun 15, 2019 5:54 pm

Description of problem or question:


I'm screen capturing HD Streams at 1200x800 and using Handbrake to reduce the large file sizes and play on HD Tv (not 4K).
I use direct connection, not wireless.

What is the best preset option to use and does anyone have a "tweaked" one they can recommend?


Steps to reproduce the problem (If Applicable):




HandBrake version (e.g., 1.0.0):

1.2.2


Operating system and version (e.g., Ubuntu 16.04 LTS, macOS 10.13 High Sierra, Windows 10 Creators Update):


Windows 10 Pro 1803

HandBrake Activity Log ***required*** (see How-to get an activity log)

HandBrake 1.2.2 (2019022300)
OS: Microsoft Windows NT 10.0.17134.0
CPU: Intel(R) Core(TM) i5 CPU M 560 @ 2.67GHz
Ram: 7987 MB,
GPU Information:
Intel(R) HD Graphics - 8.15.10.2900
Screen: 1280x800
Temp Dir: C:\Users\T420\AppData\Local\Temp\
Install Dir: C:\Program Files\HandBrake
Data Dir: C:\Users\T420\AppData\Roaming\HandBrake

-------------------------------------------

Cannot load nvEncodeAPI64.dll
[12:49:11] hb_init: starting libhb thread

# Starting Scan ...

[12:49:11] CPU: Intel(R) Core(TM) i5 CPU M 560 @ 2.67GHz
[12:49:11] - logical processor count: 4
[12:49:11] Intel Quick Sync Video support: no
[12:49:11] hb_scan: path=C:\Users\T420\Videos\Screen Recorder\Final Fantasy The Spirits Within.mp4, title_index=0
udfread ERROR: ECMA 167 Volume Recognition failed
src/libbluray/disc/disc.c:323: failed opening UDF image C:\Users\T420\Videos\Screen Recorder\Final Fantasy The Spirits Within.mp4
src/libbluray/disc/disc.c:424: error opening file BDMV\index.bdmv
src/libbluray/disc/disc.c:424: error opening file BDMV\BACKUP\index.bdmv
[12:49:11] bd: not a bd - trying as a stream/file instead
libdvdnav: Using dvdnav version 6.0.0
libdvdread: Encrypted DVD support unavailable.
libdvdread:DVDOpenFileUDF:UDFFindFile /VIDEO_TS/VIDEO_TS.IFO failed
libdvdread:DVDOpenFileUDF:UDFFindFile /VIDEO_TS/VIDEO_TS.BUP failed
libdvdread: Can't open file VIDEO_TS.IFO.
libdvdnav: vm: failed to read VIDEO_TS.IFO
[12:49:11] dvd: not a dvd - trying as a stream/file instead
Input #0, mov,mp4,m4a,3gp,3g2,mj2, from 'C:\Users\T420\Videos\Screen Recorder\Final Fantasy The Spirits Within.mp4':
Metadata:
major_brand : isom
minor_version : 512
compatible_brands: isomiso2avc1mp41
encoder : VideoReDo (Lavf56.25.101)
Duration: 01:43:10.97, start: 0.000000, bitrate: 27674 kb/s
Stream #0:0(und): Video: h264 (High) (avc1 / 0x31637661), yuv420p, 1280x800 [SAR 1:1 DAR 8:5], 27518 kb/s, 30 fps, 30 tbr, 90k tbn, 60 tbc (default)
Metadata:
handler_name : VideoHandler
Stream #0:1(und): Audio: aac (LC) (mp4a / 0x6134706D), 44100 Hz, stereo, fltp, 146 kb/s (default)
Metadata:
handler_name : SoundHandler
[12:49:11] scan: decoding previews for title 1
[12:49:11] scan: audio 0x1: aac, rate=44100Hz, bitrate=146570 Unknown (AAC LC) (2.0 ch)
[12:49:12] scan: 10 previews, 1280x800, 30.000 fps, autocrop = 56/54/0/2, aspect 1.60:1, PAR 1:1
[12:49:12] scan: supported video decoders: avcodec qsv
[12:49:12] libhb: scan thread found 1 valid title(s)

# Processing Scan Information ...


# Scan Finished ...

mduell
Veteran User
Posts: 6593
Joined: Sat Apr 21, 2007 8:54 pm

Re: Handbrake with screen captures.

Post by mduell » Sat Jun 15, 2019 6:43 pm

HQ 1080p preset

Anything beyond that is personal preference.

Post Reply