mp4 output

General questions or discussion about HandBrake, Video and/or audio transcoding, trends etc.
Post Reply
tractorboy
Posts: 1
Joined: Thu Sep 04, 2014 7:10 pm

mp4 output

Post by tractorboy »

Hi, I am new to handbrake so please bear with me.

I am trying to get a dvs onto an android tablet and believe that I need mp4 files. To that end I have managed to rip the dvd (and have the owners permission to do this btw) to an iso, but that reading that iso I keep getting a single mp4 per chapter, whereas I believe I should be having a single mp4 for all chapters. Is this possible and is this the correct way to go?

Woodstock
Veteran User
Posts: 3669
Joined: Tue Aug 27, 2013 6:39 am

Re: mp4 output

Post by Woodstock »

First things first - you need to post a scan/encode log, so that what you're doing can be seen. There are a lot of factors that could come into play here, from the version of Handbrake you are using to what was used to get the ISO file off the DVD. The Activity Log (link above has information on it) is necessary!

Fizban_UK
Posts: 4
Joined: Fri Sep 05, 2014 8:44 am

Re: mp4 output

Post by Fizban_UK »

I too am having the same problem. I have ripped a file using MakeMKV and I know it contains all the chapter information. This is showing in VLC & MetaX, but when Handbrake 0.9.9.5530(32-bit) loads it, it only shows 1 chapter.

Windows 7 (32-bit) & Windows 8.1 64-bit
Handbrake 0.9.9.5530

Log;

HandBrake 0.9.9.5530 - 32bit Version
OS: Microsoft Windows NT 6.2.9200.0
CPU: Intel(R) Core(TM) i5-4200U CPU @ 1.60GHz
Ram: 6042 MB, Screen: 1600x900
Temp Dir: C:\Users\gregg_000\AppData\Local\Temp\
Install Dir: C:\Program Files (x86)\Handbrake
Data Dir: C:\Users\gregg_000\AppData\Roaming\HandBrake\HandBrake\0.9.9.5530

-------------------------------------------
-i "\\w7pc\c$\Video\greggDVD.mkv" -t0 --min-duration=10 -v
[09:41:05] hb_init: starting libhb thread
HandBrake 0.9.9 (2013052900) - MinGW i686 - http://handbrake.fr
4 CPUs detected
Opening \\w7pc\c$\Video\greggDVD.mkv...
[09:41:05] hb_scan: path=\\w7pc\c$\Video\greggDVD.mkv, title_index=0
libbluray/bdnav/index_parse.c:162: indx_parse(): error opening \\w7pc\c$\Video\greggDVD.mkv/BDMV/index.bdmv
libbluray/bdnav/index_parse.c:162: indx_parse(): error opening \\w7pc\c$\Video\greggDVD.mkv/BDMV/BACKUP/index.bdmv
libbluray/bluray.c:1725: nav_get_title_list(\\w7pc\c$\Video\greggDVD.mkv) failed (01A74DC8)
[09:41:05] bd: not a bd - trying as a stream/file instead
libdvdnav: Using dvdnav version 4.1.3
libdvdread: Encrypted DVD support unavailable.
libdvdnav:DVDOpenFileUDF:UDFFindFile /VIDEO_TS/VIDEO_TS.IFO failed
libdvdnav:DVDOpenFileUDF:UDFFindFile /VIDEO_TS/VIDEO_TS.BUP failed
libdvdread: Can't open file VIDEO_TS.IFO.
libdvdnav: vm: failed to read VIDEO_TS.IFO
[09:41:05] dvd: not a dvd - trying as a stream/file instead
Input #0, matroska,webm, from '\\w7pc\c$\Video\greggDVD.mkv':
Metadata:
TITLE : greggDVD
ARTIST : Wesley Snipes, Kris Kristofferson, Leonor Varela, Norman Reedus, Thomas Kretschmann, Luke Goss, Matt Schulze, Danny John-Jules, Donnie Yen, Ron Perlman, Karel Roden, Marit Velle Kile, Tony Curran, Daz Crawford, Santiago Segura, Samuel Le, Marek Vašut
ACTOR : Wesley Snipes, Kris Kristofferson, Leonor Varela, Norman Reedus, Thomas Kretschmann, Luke Goss, Matt Schulze, Danny John-Jules, Donnie Yen, Ron Perlman, Karel Roden, Marit Velle Kile, Tony Curran, Daz Crawford, Santiago Segura, Samuel Le, Marek Vašut
DIRECTOR : Guillermo del Toro
PRODUCER : Jon Divens, Robert Bernacchi, Peter Frankfurt, Andrew J. Horne, Patrick J. Palmer, Wesley Snipes
PRODUCTION_STUDIO: Imaginary Forces
GENRE : Action, Adventure, Fantasy, Horror, Science Fiction, Thriller
DATE_RELEASED : 2002
DATE_RELEASE : 2002
CONTENT_TYPE : Movie
DESCRIPTION : Faster. Sharper. Deadlier.
SUMMARY : Faster. Sharper. Deadlier.
SYNOPSIS : A rare mutation has occurred within the vampire community - The Reaper. A vampire so consumed with an insatiable bloodlust that they prey on vampires as well as humans, transforming victims who are unlucky enough to survive into Reapers themselves. Blade is asked by the Vampire Nation for his help in preventing a nightmare plague that would wipe out both humans and vampires.
LAW_RATING : 18
Duration: 01:52:02.00, start: 0.000000, bitrate: 5243 kb/s
Stream #0.0(eng): Video: mpeg2video (Main), yuv420p, 720x576 [PAR 64:45 DAR 16:9], 8000 kb/s, 25 fps, 25 tbr, 1k tbn, 50 tbc
Stream #0.1(eng): Audio: ac3, 48000 Hz, 5.1, fltp, 448 kb/s (default)
Metadata:
title : Surround 5.1
Stream #0.2: Attachment: mjpeg
Metadata:
filename : cover.jpg
mimetype : image/jpeg
[09:41:06] scan: decoding previews for title 1
[09:41:07] libhb: scan thread found 1 valid title(s)
+ title 1:
+ stream: \\w7pc\c$\Video\greggDVD.mkv
+ duration: 01:52:02
+ size: 720x576, pixel aspect: 64/45, display aspect: 1.78, 25.000 fps
+ autocrop: 12/12/2/2
+ chapters:
+ 1: cells 0->0, 0 blocks, duration 01:52:02
+ audio tracks:
+ 1, English (AC3) (5.1 ch) (iso639-2: eng), 48000Hz, 448000bps
+ subtitle tracks:
HandBrake has exited.

Woodstock
Veteran User
Posts: 3669
Joined: Tue Aug 27, 2013 6:39 am

Re: mp4 output

Post by Woodstock »

fizban:
HandBrake 0.9.9.5530 - 32bit Version
Try it with a nightly build. There are a LOT of things in the year old release version that are fixed in the nightly builds.

Post Reply