Audio garbled in video from Canon camera (HandBrake 0.9.3)

HandBrake for Mac support
Forum rules
An Activity Log is required for support requests. Please read How-to get an activity log? for details on how and why this should be provided.
Post Reply
Aetles
Posts: 6
Joined: Mon Nov 24, 2008 1:31 am

Audio garbled in video from Canon camera (HandBrake 0.9.3)

Post by Aetles » Mon Nov 24, 2008 1:42 am

I have a AVI video made by a Canon Ixus 800 IS (European name) that I tried to convert with HandBrake 0.9.3 (to H.264 MP4 video) but the audio came out all garbled. Is this to be expected?

I did all the "Must Read" searches but couldn't find anything about this. I guess since HandBrake didn't convert other source before 0.9.3 it's a new kind of problem.

The Activity Log:

Code: Select all

HandBrake Activity Log for Session (Cleared): 2008-11-24 02:05:29 +0100

[02:05:29] macgui: Handbrake Version: 0.9.3 (2008112300)
[02:05:31] hb_init: checking cpu count
[02:05:31] hb_init: starting libhb thread
[02:05:31] hb_init: checking cpu count
[02:05:31] hb_init: starting libhb thread
[02:07:29] macgui: trying to open video_ts folder (parent directory chosen)
[02:07:29] hb_scan: path=/Users/adrian/Desktop/Temp/Video/Test av videokonvertering/MVI_7787.AVI, title_index=0
[02:07:29] scan: trying to open with libdvdread
[02:07:29] dvd: not a dvd - trying as a stream/file instead
Input #0, avi, from '/Users/adrian/Desktop/Temp/Video/Test av videokonvertering/MVI_7787.AVI':
  Duration: 00:00:25.73, start: 0.000000, bitrate: 14578 kb/s
    Stream #0.0: Video: mjpeg, yuvj422p, 640x480, 30.00 tb(r)
    Stream #0.1: Audio: pcm_u8, 11024 Hz, mono, s16, 88 kb/s
[02:07:30] scan: decoding previews for title 1
[02:07:30] scan: 10 previews, 640x480, 30.000 fps, autocrop = 0/0/0/0, aspect 4:3, PAR 1:1
[02:07:30] scan: title (0) job->width:640, job->height:480
[02:07:30] libhb: scan thread found 1 valid title(s)
[02:07:31] macgui: ScanDone state received from fHandle
[02:10:30] macgui: Rip: Pending queue count is 0
[02:10:30] macgui: Rip: No pending jobs, so sending this one to doAddToQueue
[02:10:30] macgui: Rip: Going right to performNewQueueScan
[02:10:30] macgui: scanning specifically for title: 1
[02:10:30] macgui: performNewQueueScan currentQueueEncodeIndex is: 0
[02:10:30] hb_scan: path=/Users/adrian/Desktop/Temp/Video/Test av videokonvertering/MVI_7787.AVI, title_index=1
[02:10:30] scan: trying to open with libdvdread
[02:10:30] dvd: not a dvd - trying as a stream/file instead
Input #0, avi, from '/Users/adrian/Desktop/Temp/Video/Test av videokonvertering/MVI_7787.AVI':
  Duration: 00:00:25.73, start: 0.000000, bitrate: 14578 kb/s
    Stream #0.0: Video: mjpeg, yuvj422p, 640x480, 30.00 tb(r)
    Stream #0.1: Audio: pcm_u8, 11024 Hz, mono, s16, 88 kb/s
[02:10:30] scan: decoding previews for title 1
[02:10:30] scan: 10 previews, 640x480, 30.000 fps, autocrop = 0/0/0/0, aspect 4:3, PAR 1:1
[02:10:30] scan: title (0) job->width:640, job->height:480
[02:10:30] libhb: scan thread found 1 valid title(s)
[02:10:30] macgui: ScanDone state received from fQueueEncodeLibhb
[02:10:30] macgui: processNewQueueEncode title list is: 1
[02:10:30] macgui: Preset: Normal (Default)
[02:10:30] macgui: processNewQueueEncode number of passes expected is: 2
[02:10:30] macgui: prepareJob exiting
[02:10:30] 2 job(s) to process
[02:10:30] starting job
[02:10:30] work: sanitizing track 0 mixdown Stereo to Mono
[02:10:30] job configuration:
[02:10:30]  * source
[02:10:30]    + /Users/adrian/Desktop/Temp/Video/Test av videokonvertering/MVI_7787.AVI
[02:10:30]    + title 1, chapter(s) 1 to 1
[02:10:30]    + container: avi
[02:10:30]    + data rate: 14578 kbps
[02:10:30]  * destination
[02:10:30]    + /Users/adrian/Desktop/Temp/Video/Test av videokonvertering/Test med HandBrake/MVI_7787.m4v
[02:10:30]    + container: MPEG-4 (.mp4 and .m4v)
[02:10:30]      + chapter markers
[02:10:30]  * video track
[02:10:30]    + decoder: mjpeg
[02:10:30]    + frame rate: same as source (around 30.000 fps)
[02:10:30]    + strict anamorphic
[02:10:30]      + storage dimensions: 640 * 480 -> 640 * 480, crop 0/0/0/0
[02:10:30]      + pixel aspect ratio: 1 / 1
[02:10:30]      + display dimensions: 640 * 480
[02:10:30]    + filter
[02:10:30]      + Deinterlaces selectively with yadif/mcdeint and lowpass5 blending (1:2:6:9:80:16:16)
[02:10:30]    + encoder: x264
[02:10:30]      + options: ref=2:bframes=2:me=umh:ref=1:subme=1:me=dia:analyse=none:trellis=0:no-fast-pskip=0:8x8dct=0:weightb=0
[02:10:30]      + bitrate: 1500 kbps, pass: 1
[02:10:30]  * audio track 0
[02:10:30]    + decoder: Unknown (PCM_U8) (track 1, id 1)
[02:10:30]    + mixdown: Mono
[02:10:30]    + encoder: faac
[02:10:30]      + bitrate: 160 kbps, samplerate: 11024 Hz
[02:10:30] dvd: not a dvd - trying as a stream/file instead
[02:10:30] yadif thread started for segment 0
[02:10:30] yadif thread started for segment 1
[02:10:30] decomb thread started for segment 0
[02:10:30] decomb thread started for segment 1
[02:10:30] reader: first SCR 0
[02:10:30] encx264: keyint-min: 31, keyint-max: 301
[02:10:30] encx264: encoding with stored aspect 1/1
x264 [info]: using SAR=1/1
x264 [info]: using cpu capabilities: MMX2 SSE2Fast SSSE3 Cache64
x264 [info]: profile Main, level 3.0
[02:10:30] encfaac changing output samplerate from 11024 to 22050
[02:10:30] encfaac changing output bitrate from 160 to 132
[02:10:31] sync: expecting 802 video frames
[02:10:31] sync: adding 1000 ms of silence to audio 0  start 90000, next 0
[02:10:31] sync: adding 524 ms of silence to audio 0  start 180000, next 132773
[02:10:31] sync: audio 0 time went backwards 0 ms, dropped 1 frames (next 182929, current 182929)
[02:10:31] sync: adding 500 ms of silence to audio 0  start 360000, next 315000
[02:10:31] sync: adding 500 ms of silence to audio 0  start 450000, next 405000
[02:10:31] sync: adding 500 ms of silence to audio 0  start 540000, next 495000
[02:10:31] sync: adding 500 ms of silence to audio 0  start 630000, next 585000
[02:10:31] sync: adding 500 ms of silence to audio 0  start 720000, next 675000
[02:10:31] sync: adding 500 ms of silence to audio 0  start 810000, next 765000
[02:10:31] sync: adding 500 ms of silence to audio 0  start 900000, next 855000
[02:10:32] sync: adding 500 ms of silence to audio 0  start 990000, next 945000
[02:10:33] sync: adding 500 ms of silence to audio 0  start 1080000, next 1035000
[02:10:33] sync: adding 500 ms of silence to audio 0  start 1170000, next 1125000
[02:10:34] sync: adding 500 ms of silence to audio 0  start 1260000, next 1215000
[02:10:35] sync: adding 500 ms of silence to audio 0  start 1350000, next 1305000
[02:10:35] sync: adding 500 ms of silence to audio 0  start 1440000, next 1395000
[02:10:36] sync: adding 500 ms of silence to audio 0  start 1530000, next 1485000
[02:10:37] sync: adding 500 ms of silence to audio 0  start 1620000, next 1575000
[02:10:37] sync: adding 500 ms of silence to audio 0  start 1710000, next 1665000
[02:10:38] sync: adding 500 ms of silence to audio 0  start 1800000, next 1755000
[02:10:39] sync: adding 500 ms of silence to audio 0  start 1890000, next 1845000
[02:10:39] sync: audio 0 time went backwards 0 ms, dropped 1 frames (next 1895156, current 1895156)
[02:10:40] sync: adding 500 ms of silence to audio 0  start 2070000, next 2025000
[02:10:41] sync: adding 500 ms of silence to audio 0  start 2160000, next 2115000
[02:10:41] sync: adding 500 ms of silence to audio 0  start 2250000, next 2205000
[02:10:42] reader: done. 1 scr changes
[02:10:47] sync: got 771 frames, 802 expected
[02:10:47] work: average encoding speed for job is 45.221157 fps
[02:10:48] mjpeg-decoder done: 772 frames, 0 decoder errors, 0 drops
[02:10:48] render: lost time: 0 (0 frames)
[02:10:48] render: gained time: 0 (0 frames) (0 not accounted for)
x264 [info]: slice I:4     Avg QP:21.20  size: 24570  PSNR Mean Y:42.50 U:45.04 V:46.87 Avg:43.35 Global:43.18
x264 [info]: slice P:475   Avg QP:23.24  size:  8848  PSNR Mean Y:40.00 U:43.01 V:44.79 Avg:40.93 Global:40.89
x264 [info]: slice B:291   Avg QP:26.47  size:  2532  PSNR Mean Y:38.71 U:42.32 V:44.16 Avg:39.75 Global:39.72
x264 [info]: consecutive B-frames: 24.0% 76.0%  0.0%
x264 [info]: mb I  I16..4: 40.3%  0.0% 59.7%
x264 [info]: mb P  I16..4: 34.8%  0.0%  0.0%  P16..4: 58.6%  0.0%  0.0%  0.0%  0.0%    skip: 6.7%
x264 [info]: mb B  I16..4:  4.8%  0.0%  0.0%  B16..8: 26.9%  0.0%  0.0%  direct:18.5%  skip:49.8%  L0:31.0% L1:52.7% BI:16.3%
x264 [info]: final ratefactor: 25.75
x264 [info]: SSIM Mean Y:0.9452479
x264 [info]: PSNR Mean Y:39.523 U:42.761 V:44.560 Avg:40.499 Global:40.419 kb/s:1570.27
[02:10:48] pcm_u8-decoder done: 0 frames, 0 decoder errors, 0 drops
[02:10:48] decomb: yadif deinterlaced 0 | blend deinterlaced 0 | unfiltered 770 | total 770
[02:10:48] starting job
[02:10:48] work: sanitizing track 0 mixdown Stereo to Mono
[02:10:48] job configuration:
[02:10:48]  * source
[02:10:48]    + /Users/adrian/Desktop/Temp/Video/Test av videokonvertering/MVI_7787.AVI
[02:10:48]    + title 1, chapter(s) 1 to 1
[02:10:48]    + container: avi
[02:10:48]    + data rate: 14578 kbps
[02:10:48]  * destination
[02:10:48]    + /Users/adrian/Desktop/Temp/Video/Test av videokonvertering/Test med HandBrake/MVI_7787.m4v
[02:10:48]    + container: MPEG-4 (.mp4 and .m4v)
[02:10:48]      + chapter markers
[02:10:48]  * video track
[02:10:48]    + decoder: mjpeg
[02:10:48]    + frame rate: same as source (around 30.000 fps)
[02:10:48]    + strict anamorphic
[02:10:48]      + storage dimensions: 640 * 480 -> 640 * 480, crop 0/0/0/0
[02:10:48]      + pixel aspect ratio: 1 / 1
[02:10:48]      + display dimensions: 640 * 480
[02:10:48]    + filter
[02:10:48]      + Deinterlaces selectively with yadif/mcdeint and lowpass5 blending (1:2:6:9:80:16:16)
[02:10:48]    + encoder: x264
[02:10:48]      + options: ref=2:bframes=2:me=umh
[02:10:48]      + bitrate: 1500 kbps, pass: 2
[02:10:48]  * audio track 0
[02:10:48]    + decoder: Unknown (PCM_U8) (track 1, id 1)
[02:10:48]    + mixdown: Mono
[02:10:48]    + encoder: faac
[02:10:48]      + bitrate: 160 kbps, samplerate: 11024 Hz
[02:10:48] dvd: not a dvd - trying as a stream/file instead
[02:10:48] encx264: keyint-min: 31, keyint-max: 301
[02:10:48] encx264: encoding with stored aspect 1/1
x264 [info]: using SAR=1/1
[02:10:48] yadif thread started for segment 0
[02:10:48] yadif thread started for segment 1
[02:10:48] decomb thread started for segment 1
[02:10:48] decomb thread started for segment 0
[02:10:48] reader: first SCR 0
x264 [info]: using cpu capabilities: MMX2 SSE2Fast SSSE3 Cache64
x264 [info]: profile Main, level 3.0
[02:10:48] encfaac changing output samplerate from 11024 to 22050
[02:10:48] encfaac changing output bitrate from 160 to 132
[02:10:48] sync: expecting 802 video frames
[02:10:48] sync: adding 1000 ms of silence to audio 0  start 90000, next 0
[02:10:48] sync: adding 524 ms of silence to audio 0  start 180000, next 132773
[02:10:48] sync: audio 0 time went backwards 0 ms, dropped 1 frames (next 182929, current 182929)
[02:10:48] sync: adding 500 ms of silence to audio 0  start 360000, next 315000
[02:10:48] sync: adding 500 ms of silence to audio 0  start 450000, next 405000
[02:10:48] sync: adding 500 ms of silence to audio 0  start 540000, next 495000
[02:10:48] sync: adding 500 ms of silence to audio 0  start 630000, next 585000
[02:10:49] sync: adding 500 ms of silence to audio 0  start 720000, next 675000
[02:10:49] sync: adding 500 ms of silence to audio 0  start 810000, next 765000
[02:10:50] sync: adding 500 ms of silence to audio 0  start 900000, next 855000
[02:10:51] sync: adding 500 ms of silence to audio 0  start 990000, next 945000
[02:10:52] sync: adding 500 ms of silence to audio 0  start 1080000, next 1035000
[02:10:54] sync: adding 500 ms of silence to audio 0  start 1170000, next 1125000
[02:10:55] sync: adding 500 ms of silence to audio 0  start 1260000, next 1215000
[02:10:57] sync: adding 500 ms of silence to audio 0  start 1350000, next 1305000
[02:10:58] sync: adding 500 ms of silence to audio 0  start 1440000, next 1395000
[02:11:00] sync: adding 500 ms of silence to audio 0  start 1530000, next 1485000
[02:11:01] sync: adding 500 ms of silence to audio 0  start 1620000, next 1575000
[02:11:03] sync: adding 500 ms of silence to audio 0  start 1710000, next 1665000
[02:11:04] sync: adding 500 ms of silence to audio 0  start 1800000, next 1755000
[02:11:05] sync: adding 500 ms of silence to audio 0  start 1890000, next 1845000
[02:11:07] sync: audio 0 time went backwards 0 ms, dropped 1 frames (next 1895156, current 1895156)
[02:11:08] sync: adding 500 ms of silence to audio 0  start 2070000, next 2025000
[02:11:10] sync: adding 500 ms of silence to audio 0  start 2160000, next 2115000
[02:11:11] sync: adding 500 ms of silence to audio 0  start 2250000, next 2205000
[02:11:12] reader: done. 1 scr changes
[02:11:25] sync: got 771 frames, 802 expected
[02:11:25] work: average encoding speed for job is 20.459095 fps
[02:11:26] mjpeg-decoder done: 772 frames, 0 decoder errors, 0 drops
[02:11:26] render: lost time: 0 (0 frames)
[02:11:26] render: gained time: 0 (0 frames) (0 not accounted for)
x264 [info]: slice I:4     Avg QP:20.83  size: 27975  PSNR Mean Y:42.87 U:46.53 V:48.18 Avg:43.90 Global:43.75
x264 [info]: slice P:476   Avg QP:23.32  size:  8281  PSNR Mean Y:40.27 U:43.84 V:45.85 Avg:41.31 Global:41.28
x264 [info]: slice B:290   Avg QP:25.94  size:  2764  PSNR Mean Y:39.02 U:42.94 V:45.06 Avg:40.12 Global:40.10
x264 [info]: consecutive B-frames: 24.3% 75.7%  0.0%
x264 [info]: mb I  I16..4: 15.2%  0.0% 84.8%
x264 [info]: mb P  I16..4:  0.8%  0.0%  4.2%  P16..4: 64.7% 14.5% 10.2%  0.0%  0.0%    skip: 5.6%
x264 [info]: mb B  I16..4:  9.4%  0.0%  0.0%  B16..8: 28.7%  1.7%  1.1%  direct:13.5%  skip:45.6%  L0:30.5% L1:50.1% BI:19.3%
x264 [info]: ref P L0  66.4% 33.6%
x264 [info]: SSIM Mean Y:0.9468423
x264 [info]: PSNR Mean Y:39.810 U:43.516 V:45.566 Avg:40.876 Global:40.806 kb/s:1513.36
[02:11:26] pcm_u8-decoder done: 0 frames, 0 decoder errors, 0 drops
[02:11:26] decomb: yadif deinterlaced 0 | blend deinterlaced 0 | unfiltered 770 | total 770
[02:11:26] libhb: work result = 0
[02:11:27] macgui: incrementQueueItemDone currentQueueEncodeIndex is incremented to: 1
[02:11:27] macgui: incrementQueueItemDone the 0 item queue is complete
[02:17:56] macgui: Rip: Pending queue count is 0
[02:17:56] macgui: Rip: No pending jobs, so sending this one to doAddToQueue
[02:17:56] macgui: Rip: Going right to performNewQueueScan
[02:17:56] macgui: scanning specifically for title: 1
[02:17:56] macgui: performNewQueueScan currentQueueEncodeIndex is: 1
[02:17:56] hb_scan: path=/Users/adrian/Desktop/Temp/Video/Test av videokonvertering/MVI_7787.AVI, title_index=1
[02:17:56] scan: trying to open with libdvdread
[02:17:56] dvd: not a dvd - trying as a stream/file instead
Input #0, avi, from '/Users/adrian/Desktop/Temp/Video/Test av videokonvertering/MVI_7787.AVI':
  Duration: 00:00:25.73, start: 0.000000, bitrate: 14578 kb/s
    Stream #0.0: Video: mjpeg, yuvj422p, 640x480, 30.00 tb(r)
    Stream #0.1: Audio: pcm_u8, 11024 Hz, mono, s16, 88 kb/s
[02:17:56] scan: decoding previews for title 1
[02:17:57] scan: 10 previews, 640x480, 30.000 fps, autocrop = 0/0/0/0, aspect 4:3, PAR 1:1
[02:17:57] scan: title (0) job->width:640, job->height:480
[02:17:57] libhb: scan thread found 1 valid title(s)
[02:17:57] macgui: currentScanCount received from fQueueEncodeLibhb
[02:17:57] macgui: ScanDone state received from fQueueEncodeLibhb
[02:17:57] macgui: processNewQueueEncode title list is: 1
[02:17:57] macgui: Preset: QuickTime
[02:17:57] macgui: processNewQueueEncode number of passes expected is: 2
[02:17:57] macgui: prepareJob exiting
[02:17:57] 2 job(s) to process
[02:17:57] starting job
[02:17:57] work: sanitizing track 0 mixdown Stereo to Mono
[02:17:57] job configuration:
[02:17:57]  * source
[02:17:57]    + /Users/adrian/Desktop/Temp/Video/Test av videokonvertering/MVI_7787.AVI
[02:17:57]    + title 1, chapter(s) 1 to 1
[02:17:57]    + container: avi
[02:17:57]    + data rate: 14578 kbps
[02:17:57]  * destination
[02:17:57]    + /Users/adrian/Desktop/Temp/Video/Test av videokonvertering/Test med HandBrake/MVI_7787_QT.m4v
[02:17:57]    + container: MPEG-4 (.mp4 and .m4v)
[02:17:57]      + chapter markers
[02:17:57]  * video track
[02:17:57]    + decoder: mjpeg
[02:17:57]    + frame rate: same as source (around 30.000 fps)
[02:17:57]    + strict anamorphic
[02:17:57]      + storage dimensions: 640 * 480 -> 640 * 480, crop 0/0/0/0
[02:17:57]      + pixel aspect ratio: 1 / 1
[02:17:57]      + display dimensions: 640 * 480
[02:17:57]    + encoder: x264
[02:17:57]      + options: ref=3:mixed-refs=1:bframes=3:weightb=1:direct=auto:me=umh:subq=7:analyse=all:8x8dct=1:trellis=1:no-fast-pskip=1:psy-rd=1,1:ref=1:subme=1:me=dia:analyse=none:trellis=0:no-fast-pskip=0:8x8dct=0:weightb=0
[02:17:57]      + bitrate: 1800 kbps, pass: 1
[02:17:57]  * audio track 0
[02:17:57]    + decoder: Unknown (PCM_U8) (track 1, id 1)
[02:17:57]    + mixdown: Mono
[02:17:57]    + encoder: faac
[02:17:57]      + bitrate: 160 kbps, samplerate: 11024 Hz
[02:17:57] dvd: not a dvd - trying as a stream/file instead
[02:17:57] reader: first SCR 0
[02:17:57] encx264: keyint-min: 31, keyint-max: 301
[02:17:57] encx264: encoding with stored aspect 1/1
x264 [info]: using SAR=1/1
x264 [info]: using cpu capabilities: MMX2 SSE2Fast SSSE3 Cache64
x264 [info]: profile Main, level 3.0
[02:17:57] encfaac changing output samplerate from 11024 to 22050
[02:17:57] encfaac changing output bitrate from 160 to 132
[02:17:57] sync: expecting 802 video frames
[02:17:57] sync: adding 1000 ms of silence to audio 0  start 90000, next 0
[02:17:57] sync: adding 524 ms of silence to audio 0  start 180000, next 132773
[02:17:57] sync: audio 0 time went backwards 0 ms, dropped 1 frames (next 182929, current 182929)
[02:17:57] sync: adding 500 ms of silence to audio 0  start 360000, next 315000
[02:17:57] sync: adding 500 ms of silence to audio 0  start 450000, next 405000
[02:17:57] sync: adding 500 ms of silence to audio 0  start 540000, next 495000
[02:17:57] sync: adding 500 ms of silence to audio 0  start 630000, next 585000
[02:17:57] sync: adding 500 ms of silence to audio 0  start 720000, next 675000
[02:17:58] sync: adding 500 ms of silence to audio 0  start 810000, next 765000
[02:17:58] sync: adding 500 ms of silence to audio 0  start 900000, next 855000
[02:17:59] sync: adding 500 ms of silence to audio 0  start 990000, next 945000
[02:17:59] sync: adding 500 ms of silence to audio 0  start 1080000, next 1035000
[02:18:00] sync: adding 500 ms of silence to audio 0  start 1170000, next 1125000
[02:18:00] sync: adding 500 ms of silence to audio 0  start 1260000, next 1215000
[02:18:01] sync: adding 500 ms of silence to audio 0  start 1350000, next 1305000
[02:18:02] sync: adding 500 ms of silence to audio 0  start 1440000, next 1395000
[02:18:02] sync: adding 500 ms of silence to audio 0  start 1530000, next 1485000
[02:18:03] sync: adding 500 ms of silence to audio 0  start 1620000, next 1575000
[02:18:03] sync: adding 500 ms of silence to audio 0  start 1710000, next 1665000
[02:18:04] sync: adding 500 ms of silence to audio 0  start 1800000, next 1755000
[02:18:04] sync: adding 500 ms of silence to audio 0  start 1890000, next 1845000
[02:18:05] sync: audio 0 time went backwards 0 ms, dropped 1 frames (next 1895156, current 1895156)
[02:18:06] sync: adding 500 ms of silence to audio 0  start 2070000, next 2025000
[02:18:06] sync: adding 500 ms of silence to audio 0  start 2160000, next 2115000
[02:18:07] sync: adding 500 ms of silence to audio 0  start 2250000, next 2205000
[02:18:07] reader: done. 1 scr changes
[02:18:12] sync: got 771 frames, 802 expected
[02:18:12] work: average encoding speed for job is 50.796322 fps
[02:18:12] mjpeg-decoder done: 772 frames, 0 decoder errors, 0 drops
[02:18:12] render: lost time: 0 (0 frames)
[02:18:12] render: gained time: 0 (0 frames) (0 not accounted for)
x264 [info]: slice I:4     Avg QP:20.43  size: 27192  PSNR Mean Y:43.03 U:45.52 V:47.38 Avg:43.87 Global:43.64
x264 [info]: slice P:475   Avg QP:22.59  size: 10482  PSNR Mean Y:40.32 U:43.19 V:45.00 Avg:41.24 Global:41.19
x264 [info]: slice B:292   Avg QP:25.43  size:  3301  PSNR Mean Y:38.94 U:42.46 V:44.35 Avg:39.97 Global:39.94
x264 [info]: consecutive B-frames: 23.9% 76.1%  0.0%  0.0%
x264 [info]: mb I  I16..4: 37.2%  0.0% 62.8%
x264 [info]: mb P  I16..4: 36.7%  0.0%  0.0%  P16..4: 60.3%  0.0%  0.0%  0.0%  0.0%    skip: 3.1%
x264 [info]: mb B  I16..4:  7.3%  0.0%  0.0%  B16..8: 29.7%  0.0%  0.0%  direct:22.8%  skip:40.3%  L0:31.2% L1:49.4% BI:19.3%
x264 [info]: final ratefactor: 25.12
x264 [info]: direct mvs  spatial:61.0%  temporal:39.0%
x264 [info]: SSIM Mean Y:0.9479496
x264 [info]: PSNR Mean Y:39.812 U:42.924 V:44.763 Avg:40.769 Global:40.682 kb/s:1883.79
[02:18:12] pcm_u8-decoder done: 0 frames, 0 decoder errors, 0 drops
[02:18:12] starting job
[02:18:12] work: sanitizing track 0 mixdown Stereo to Mono
[02:18:12] job configuration:
[02:18:12]  * source
[02:18:12]    + /Users/adrian/Desktop/Temp/Video/Test av videokonvertering/MVI_7787.AVI
[02:18:12]    + title 1, chapter(s) 1 to 1
[02:18:12]    + container: avi
[02:18:12]    + data rate: 14578 kbps
[02:18:12]  * destination
[02:18:12]    + /Users/adrian/Desktop/Temp/Video/Test av videokonvertering/Test med HandBrake/MVI_7787_QT.m4v
[02:18:12]    + container: MPEG-4 (.mp4 and .m4v)
[02:18:12]      + chapter markers
[02:18:12]  * video track
[02:18:12]    + decoder: mjpeg
[02:18:12]    + frame rate: same as source (around 30.000 fps)
[02:18:12]    + strict anamorphic
[02:18:12]      + storage dimensions: 640 * 480 -> 640 * 480, crop 0/0/0/0
[02:18:12]      + pixel aspect ratio: 1 / 1
[02:18:12]      + display dimensions: 640 * 480
[02:18:12]    + encoder: x264
[02:18:12]      + options: ref=3:mixed-refs=1:bframes=3:weightb=1:direct=auto:me=umh:subq=7:analyse=all:8x8dct=1:trellis=1:no-fast-pskip=1:psy-rd=1,1
[02:18:12]      + bitrate: 1800 kbps, pass: 2
[02:18:12]  * audio track 0
[02:18:12]    + decoder: Unknown (PCM_U8) (track 1, id 1)
[02:18:12]    + mixdown: Mono
[02:18:12]    + encoder: faac
[02:18:12]      + bitrate: 160 kbps, samplerate: 11024 Hz
[02:18:12] dvd: not a dvd - trying as a stream/file instead
[02:18:12] reader: first SCR 0
[02:18:12] encx264: keyint-min: 31, keyint-max: 301
[02:18:12] encx264: encoding with stored aspect 1/1
x264 [info]: using SAR=1/1
x264 [info]: using cpu capabilities: MMX2 SSE2Fast SSSE3 Cache64
x264 [info]: profile High, level 3.0
[02:18:13] encfaac changing output samplerate from 11024 to 22050
[02:18:13] encfaac changing output bitrate from 160 to 132
[02:18:13] sync: expecting 802 video frames
[02:18:13] sync: adding 1000 ms of silence to audio 0  start 90000, next 0
[02:18:13] sync: adding 524 ms of silence to audio 0  start 180000, next 132773
[02:18:13] sync: audio 0 time went backwards 0 ms, dropped 1 frames (next 182929, current 182929)
[02:18:13] sync: adding 500 ms of silence to audio 0  start 360000, next 315000
[02:18:13] sync: adding 500 ms of silence to audio 0  start 450000, next 405000
[02:18:13] sync: adding 500 ms of silence to audio 0  start 540000, next 495000
[02:18:13] sync: adding 500 ms of silence to audio 0  start 630000, next 585000
[02:18:14] sync: adding 500 ms of silence to audio 0  start 720000, next 675000
[02:18:14] sync: adding 500 ms of silence to audio 0  start 810000, next 765000
[02:18:15] sync: adding 500 ms of silence to audio 0  start 900000, next 855000
[02:18:17] sync: adding 500 ms of silence to audio 0  start 990000, next 945000
[02:18:20] sync: adding 500 ms of silence to audio 0  start 1080000, next 1035000
[02:18:22] sync: adding 500 ms of silence to audio 0  start 1170000, next 1125000
[02:18:24] sync: adding 500 ms of silence to audio 0  start 1260000, next 1215000
[02:18:26] sync: adding 500 ms of silence to audio 0  start 1350000, next 1305000
[02:18:28] sync: adding 500 ms of silence to audio 0  start 1440000, next 1395000
[02:18:30] sync: adding 500 ms of silence to audio 0  start 1530000, next 1485000
[02:18:33] sync: adding 500 ms of silence to audio 0  start 1620000, next 1575000
[02:18:35] sync: adding 500 ms of silence to audio 0  start 1710000, next 1665000
[02:18:37] sync: adding 500 ms of silence to audio 0  start 1800000, next 1755000
[02:18:40] sync: adding 500 ms of silence to audio 0  start 1890000, next 1845000
[02:18:42] sync: audio 0 time went backwards 0 ms, dropped 1 frames (next 1895156, current 1895156)
[02:18:44] sync: adding 500 ms of silence to audio 0  start 2070000, next 2025000
[02:18:47] sync: adding 500 ms of silence to audio 0  start 2160000, next 2115000
[02:18:51] sync: adding 500 ms of silence to audio 0  start 2250000, next 2205000
[02:18:53] reader: done. 1 scr changes
[02:19:14] sync: got 771 frames, 802 expected
[02:19:14] work: average encoding speed for job is 12.456804 fps
[02:19:15] mjpeg-decoder done: 772 frames, 0 decoder errors, 0 drops
[02:19:15] render: lost time: 0 (0 frames)
[02:19:15] render: gained time: 0 (0 frames) (0 not accounted for)
x264 [info]: slice I:4     Avg QP:22.79  size: 17279  PSNR Mean Y:41.07 U:46.58 V:48.49 Avg:42.35 Global:42.04
x264 [info]: slice P:477   Avg QP:25.62  size: 10415  PSNR Mean Y:39.86 U:43.97 V:45.99 Avg:40.98 Global:40.95
x264 [info]: slice B:290   Avg QP:28.04  size:  2823  PSNR Mean Y:38.22 U:42.81 V:45.15 Avg:39.42 Global:39.40
x264 [info]: consecutive B-frames: 24.4% 75.6%  0.0%  0.0%
x264 [info]: mb I  I16..4:  0.5% 92.9%  6.5%
x264 [info]: mb P  I16..4:  0.3%  3.6%  0.4%  P16..4: 66.1% 17.3%  9.0%  0.1%  0.1%    skip: 3.2%
x264 [info]: mb B  I16..4:  0.0%  0.2%  0.0%  B16..8: 52.9%  0.8%  1.5%  direct: 1.9%  skip:42.7%  L0:41.1% L1:51.7% BI: 7.2%
x264 [info]: 8x8 transform  intra:86.3%  inter:82.9%
x264 [info]: direct mvs  spatial:50.3%  temporal:49.7%
x264 [info]: ref P L0  57.5% 23.2% 19.4%
x264 [info]: ref B L0  72.4% 27.6%
x264 [info]: SSIM Mean Y:0.9415724
x264 [info]: PSNR Mean Y:39.250 U:43.550 V:45.687 Avg:40.402 Global:40.300 kb/s:1822.86
[02:19:15] pcm_u8-decoder done: 0 frames, 0 decoder errors, 0 drops
[02:19:15] libhb: work result = 0
[02:19:16] macgui: incrementQueueItemDone currentQueueEncodeIndex is incremented to: 2
[02:19:16] macgui: incrementQueueItemDone the 1 item queue is complete

rhester
Veteran User
Posts: 2888
Joined: Tue Apr 18, 2006 10:24 pm

Re: Audio garbled in video from Canon camera (HandBrake 0.9.3)

Post by rhester » Mon Nov 24, 2008 3:18 am

8-bit LPCM? Wow. I've never even seen that (well, outside of Windows 3.1 ;). I'm not sure HB can grok 8-bit audio input.

Rodney

Aetles
Posts: 6
Joined: Mon Nov 24, 2008 1:31 am

Re: Audio garbled in video from Canon camera (HandBrake 0.9.3)

Post by Aetles » Mon Nov 24, 2008 12:48 pm

I guessed it had something to do with the audio codec. Even though it maybe old or unusual it's out there in millions and millions of Canon compact cameras.

I wish Canon would have used H.264 video, because the file size of the video is ridiculous (which is why I wan't to convert it). I've been using VisualHub before (which handles the audio just fine) but somehow the colors where slightly changed and now that VH is dead I was hoping for HandBrake.

explodopop
Posts: 1
Joined: Mon Nov 24, 2008 6:10 pm

Re: Audio garbled in video from Canon camera (HandBrake 0.9.3)

Post by explodopop » Mon Nov 24, 2008 6:19 pm

I'm probably not adding anything useful, but I have the same problem with the .mov's from my Panasonic TZ3 which records fairly similar video/audio.

Here's my log:

Code: Select all

HandBrake Activity Log for Session (Cleared): 2008-11-24 09:59:52 -0800

[09:59:52] macgui: Handbrake Version: 0.9.3 (2008112300)
[09:59:52] hb_init: checking cpu count
[09:59:52] hb_init: starting libhb thread
[09:59:52] hb_init: checking cpu count
[09:59:52] hb_init: starting libhb thread
[09:59:57] macgui: trying to open video_ts folder (parent directory chosen)
[09:59:57] hb_scan: path=/Volumes/Home/Users/explodopop/Desktop/P1010666.MOV, title_index=0
[09:59:57] scan: trying to open with libdvdread
[09:59:57] dvd: not a dvd - trying as a stream/file instead
Input #0, mov,mp4,m4a,3gp,3g2,mj2, from '/Volumes/Home/Users/explodopop/Desktop/P1010666.MOV':
  Duration: 00:00:30.00, start: 0.000000, bitrate: 13421 kb/s
    Stream #0.0(eng): Video: mjpeg, yuvj420p, 848x480, 30.00 tb(r)
    Stream #0.1(eng): Audio: pcm_u8, 8000 Hz, mono, s16, 64 kb/s
[09:59:57] scan: decoding previews for title 1
[09:59:57] scan: 10 previews, 848x480, 30.000 fps, autocrop = 0/0/0/0, aspect 1.77:1, PAR 1:1
[09:59:57] scan: title (0) job->width:848, job->height:480
[09:59:57] libhb: scan thread found 1 valid title(s)
[09:59:57] macgui: ScanDone state received from fHandle
[10:00:00] macgui: Rip: Pending queue count is 0
[10:00:00] macgui: Rip: No pending jobs, so sending this one to doAddToQueue
[10:00:00] macgui: Rip: Going right to performNewQueueScan
[10:00:00] macgui: scanning specifically for title: 1
[10:00:00] macgui: performNewQueueScan currentQueueEncodeIndex is: 0
[10:00:00] hb_scan: path=/Volumes/Home/Users/explodopop/Desktop/P1010666.MOV, title_index=1
[10:00:00] scan: trying to open with libdvdread
[10:00:00] dvd: not a dvd - trying as a stream/file instead
Input #0, mov,mp4,m4a,3gp,3g2,mj2, from '/Volumes/Home/Users/explodopop/Desktop/P1010666.MOV':
  Duration: 00:00:30.00, start: 0.000000, bitrate: 13421 kb/s
    Stream #0.0(eng): Video: mjpeg, yuvj420p, 848x480, 30.00 tb(r)
    Stream #0.1(eng): Audio: pcm_u8, 8000 Hz, mono, s16, 64 kb/s
[10:00:00] scan: decoding previews for title 1
[10:00:00] scan: 10 previews, 848x480, 30.000 fps, autocrop = 0/0/0/0, aspect 1.77:1, PAR 1:1
[10:00:00] scan: title (0) job->width:848, job->height:480
[10:00:00] libhb: scan thread found 1 valid title(s)
[10:00:00] macgui: ScanDone state received from fQueueEncodeLibhb
[10:00:00] macgui: processNewQueueEncode title list is: 1
[10:00:00] macgui: Preset: Normal (Default)
[10:00:00] macgui: processNewQueueEncode number of passes expected is: 2
[10:00:00] macgui: prepareJob exiting
[10:00:00] 2 job(s) to process
[10:00:00] starting job
[10:00:00] work: sanitizing track 0 mixdown Stereo to Mono
[10:00:00] job configuration:
[10:00:00]  * source
[10:00:00]    + /Volumes/Home/Users/explodopop/Desktop/P1010666.MOV
[10:00:00]    + title 1, chapter(s) 1 to 1
[10:00:00]    + container: mov,mp4,m4a,3gp,3g2,mj2
[10:00:00]    + data rate: 13421 kbps
[10:00:00]  * destination
[10:00:00]    + /Volumes/Home/Users/explodopop/Desktop/P1010666.m4v
[10:00:00]    + container: MPEG-4 (.mp4 and .m4v)
[10:00:00]      + chapter markers
[10:00:00]  * video track
[10:00:00]    + decoder: mjpeg
[10:00:00]    + frame rate: same as source (around 30.000 fps)
[10:00:00]    + strict anamorphic
[10:00:00]      + storage dimensions: 848 * 480 -> 848 * 480, crop 0/0/0/0
[10:00:00]      + pixel aspect ratio: 1 / 1
[10:00:00]      + display dimensions: 848 * 480
[10:00:00]    + encoder: x264
[10:00:00]      + options: ref=2:bframes=2:me=umh:ref=1:subme=1:me=dia:analyse=none:trellis=0:no-fast-pskip=0:8x8dct=0:weightb=0
[10:00:00]      + bitrate: 1500 kbps, pass: 1
[10:00:00]  * audio track 0
[10:00:00]    + decoder: English (PCM_U8) (track 1, id 1)
[10:00:00]    + mixdown: Mono
[10:00:00]    + encoder: faac
[10:00:00]      + bitrate: 160 kbps, samplerate: 8000 Hz
[10:00:00] encx264: keyint-min: 31, keyint-max: 301
[10:00:00] encx264: encoding with stored aspect 1/1
x264 [info]: using SAR=1/1
[10:00:00] dvd: not a dvd - trying as a stream/file instead
[10:00:00] reader: first SCR 0
x264 [info]: using cpu capabilities: MMX2 SSE2Fast SSSE3 Cache64
x264 [info]: profile Main, level 3.1
[10:00:01] encfaac changing output samplerate from 8000 to 22050
[10:00:01] encfaac changing output bitrate from 160 to 132
[10:00:01] sync: expecting 930 video frames
[10:00:01] sync: adding 500 ms of silence to audio 0  start 45000, next 0
[10:00:01] sync: audio 0 time went backwards 0 ms, dropped 1 frames (next 51840, current 51840)
[10:00:01] sync: adding 250 ms of silence to audio 0  start 135000, next 112500
[10:00:01] sync: adding 308 ms of silence to audio 0  start 180000, next 152280
[10:00:01] sync: adding 250 ms of silence to audio 0  start 225000, next 202500
[10:00:01] sync: adding 308 ms of silence to audio 0  start 270000, next 242280
[10:00:01] sync: adding 250 ms of silence to audio 0  start 315000, next 292500
[10:00:01] sync: adding 308 ms of silence to audio 0  start 360000, next 332280
[10:00:01] sync: adding 250 ms of silence to audio 0  start 405000, next 382500
[10:00:01] sync: adding 308 ms of silence to audio 0  start 450000, next 422280
[10:00:01] sync: adding 250 ms of silence to audio 0  start 495000, next 472500
[10:00:01] sync: adding 308 ms of silence to audio 0  start 540000, next 512280
[10:00:02] sync: adding 250 ms of silence to audio 0  start 585000, next 562500
[10:00:02] sync: adding 308 ms of silence to audio 0  start 630000, next 602280
[10:00:02] sync: audio 0 time went backwards 0 ms, dropped 1 frames (next 636840, current 636840)
[10:00:02] sync: adding 250 ms of silence to audio 0  start 720000, next 697500
[10:00:02] sync: adding 308 ms of silence to audio 0  start 765000, next 737280
[10:00:02] sync: adding 250 ms of silence to audio 0  start 810000, next 787500
[10:00:02] sync: adding 308 ms of silence to audio 0  start 855000, next 827280
[10:00:03] sync: adding 250 ms of silence to audio 0  start 900000, next 877500
[10:00:03] sync: adding 308 ms of silence to audio 0  start 945000, next 917280
[10:00:04] sync: adding 250 ms of silence to audio 0  start 990000, next 967500
[10:00:04] sync: adding 308 ms of silence to audio 0  start 1035000, next 1007280
[10:00:05] sync: adding 250 ms of silence to audio 0  start 1080000, next 1057500
[10:00:06] sync: adding 308 ms of silence to audio 0  start 1125000, next 1097280
[10:00:06] sync: adding 250 ms of silence to audio 0  start 1170000, next 1147500
[10:00:07] sync: adding 308 ms of silence to audio 0  start 1215000, next 1187280
[10:00:07] sync: adding 250 ms of silence to audio 0  start 1260000, next 1237500
[10:00:08] sync: adding 308 ms of silence to audio 0  start 1305000, next 1277280
[10:00:08] sync: audio 0 time went backwards 0 ms, dropped 1 frames (next 1311840, current 1311840)
[10:00:09] sync: adding 250 ms of silence to audio 0  start 1395000, next 1372500
[10:00:10] sync: adding 308 ms of silence to audio 0  start 1440000, next 1412280
[10:00:10] sync: adding 250 ms of silence to audio 0  start 1485000, next 1462500
[10:00:11] sync: adding 308 ms of silence to audio 0  start 1530000, next 1502280
[10:00:11] sync: adding 250 ms of silence to audio 0  start 1575000, next 1552500
[10:00:12] sync: adding 308 ms of silence to audio 0  start 1620000, next 1592280
[10:00:12] sync: adding 250 ms of silence to audio 0  start 1665000, next 1642500
[10:00:13] sync: adding 308 ms of silence to audio 0  start 1710000, next 1682280
[10:00:13] sync: adding 250 ms of silence to audio 0  start 1755000, next 1732500
[10:00:14] sync: adding 308 ms of silence to audio 0  start 1800000, next 1772280
[10:00:15] sync: adding 250 ms of silence to audio 0  start 1845000, next 1822500
[10:00:15] sync: adding 308 ms of silence to audio 0  start 1890000, next 1862280
[10:00:16] sync: adding 250 ms of silence to audio 0  start 1935000, next 1912500
[10:00:16] sync: adding 308 ms of silence to audio 0  start 1980000, next 1952280
[10:00:17] sync: audio 0 time went backwards 0 ms, dropped 1 frames (next 1986840, current 1986840)
[10:00:17] sync: adding 250 ms of silence to audio 0  start 2070000, next 2047500
[10:00:18] sync: adding 308 ms of silence to audio 0  start 2115000, next 2087280
[10:00:18] sync: adding 250 ms of silence to audio 0  start 2160000, next 2137500
[10:00:19] sync: adding 308 ms of silence to audio 0  start 2205000, next 2177280
[10:00:19] sync: adding 250 ms of silence to audio 0  start 2250000, next 2227500
[10:00:20] sync: adding 308 ms of silence to audio 0  start 2295000, next 2267280
[10:00:21] sync: adding 250 ms of silence to audio 0  start 2340000, next 2317500
[10:00:21] sync: adding 308 ms of silence to audio 0  start 2385000, next 2357280
[10:00:22] sync: adding 250 ms of silence to audio 0  start 2430000, next 2407500
[10:00:22] sync: adding 308 ms of silence to audio 0  start 2475000, next 2447280
[10:00:23] sync: adding 250 ms of silence to audio 0  start 2520000, next 2497500
[10:00:24] sync: adding 308 ms of silence to audio 0  start 2565000, next 2537280
[10:00:24] sync: audio 0 time went backwards 0 ms, dropped 1 frames (next 2571840, current 2571840)
[10:00:24] sync: adding 250 ms of silence to audio 0  start 2655000, next 2632500
[10:00:25] reader: done. 1 scr changes
[10:00:34] sync: got 899 frames, 930 expected
[10:00:34] work: average encoding speed for job is 26.745779 fps
[10:00:35] mjpeg-decoder done: 900 frames, 0 decoder errors, 0 drops
[10:00:35] render: lost time: 0 (0 frames)
[10:00:35] render: gained time: 0 (0 frames) (0 not accounted for)
x264 [info]: slice I:3     Avg QP:28.51  size: 37974  PSNR Mean Y:34.91 U:40.23 V:40.44 Avg:36.08 Global:35.88
x264 [info]: slice P:342   Avg QP:28.20  size: 11313  PSNR Mean Y:34.36 U:38.78 V:39.13 Avg:35.40 Global:35.05
x264 [info]: slice B:554   Avg QP:30.28  size:  2972  PSNR Mean Y:33.57 U:38.63 V:38.97 Avg:34.70 Global:34.32
x264 [info]: consecutive B-frames:  2.0% 21.0% 77.0%
x264 [info]: mb I  I16..4: 20.0%  0.0% 80.0%
x264 [info]: mb P  I16..4: 11.1%  0.0%  0.0%  P16..4: 79.8%  0.0%  0.0%  0.0%  0.0%    skip: 9.1%
x264 [info]: mb B  I16..4:  1.4%  0.0%  0.0%  B16..8: 21.2%  0.0%  0.0%  direct:25.3%  skip:52.2%  L0:30.2% L1:52.9% BI:16.9%
x264 [info]: final ratefactor: 26.35
x264 [info]: SSIM Mean Y:0.9549043
x264 [info]: PSNR Mean Y:33.874 U:38.696 V:39.038 Avg:34.971 Global:34.584 kb/s:1502.98
[10:00:35] pcm_u8-decoder done: 0 frames, 0 decoder errors, 0 drops
[10:00:35] starting job
[10:00:35] work: sanitizing track 0 mixdown Stereo to Mono
[10:00:35] job configuration:
[10:00:35]  * source
[10:00:35]    + /Volumes/Home/Users/explodopop/Desktop/P1010666.MOV
[10:00:35]    + title 1, chapter(s) 1 to 1
[10:00:35]    + container: mov,mp4,m4a,3gp,3g2,mj2
[10:00:35]    + data rate: 13421 kbps
[10:00:35]  * destination
[10:00:35]    + /Volumes/Home/Users/explodopop/Desktop/P1010666.m4v
[10:00:35]    + container: MPEG-4 (.mp4 and .m4v)
[10:00:35]      + chapter markers
[10:00:35]  * video track
[10:00:35]    + decoder: mjpeg
[10:00:35]    + frame rate: same as source (around 30.000 fps)
[10:00:35]    + strict anamorphic
[10:00:35]      + storage dimensions: 848 * 480 -> 848 * 480, crop 0/0/0/0
[10:00:35]      + pixel aspect ratio: 1 / 1
[10:00:35]      + display dimensions: 848 * 480
[10:00:35]    + encoder: x264
[10:00:35]      + options: ref=2:bframes=2:me=umh
[10:00:35]      + bitrate: 1500 kbps, pass: 2
[10:00:35]  * audio track 0
[10:00:35]    + decoder: English (PCM_U8) (track 1, id 1)
[10:00:35]    + mixdown: Mono
[10:00:35]    + encoder: faac
[10:00:35]      + bitrate: 160 kbps, samplerate: 8000 Hz
[10:00:35] encx264: keyint-min: 31, keyint-max: 301
[10:00:35] encx264: encoding with stored aspect 1/1
x264 [info]: using SAR=1/1
[10:00:35] dvd: not a dvd - trying as a stream/file instead
x264 [info]: using cpu capabilities: MMX2 SSE2Fast SSSE3 Cache64
[10:00:35] reader: first SCR 0
x264 [info]: profile Main, level 3.1
[10:00:35] encfaac changing output samplerate from 8000 to 22050
[10:00:35] encfaac changing output bitrate from 160 to 132
[10:00:35] sync: expecting 930 video frames
[10:00:35] sync: adding 500 ms of silence to audio 0  start 45000, next 0
[10:00:35] sync: audio 0 time went backwards 0 ms, dropped 1 frames (next 51840, current 51840)
[10:00:35] sync: adding 250 ms of silence to audio 0  start 135000, next 112500
[10:00:36] sync: adding 308 ms of silence to audio 0  start 180000, next 152280
[10:00:36] sync: adding 250 ms of silence to audio 0  start 225000, next 202500
[10:00:36] sync: adding 308 ms of silence to audio 0  start 270000, next 242280
[10:00:36] sync: adding 250 ms of silence to audio 0  start 315000, next 292500
[10:00:36] sync: adding 308 ms of silence to audio 0  start 360000, next 332280
[10:00:36] sync: adding 250 ms of silence to audio 0  start 405000, next 382500
[10:00:37] sync: adding 308 ms of silence to audio 0  start 450000, next 422280
[10:00:37] sync: adding 250 ms of silence to audio 0  start 495000, next 472500
[10:00:37] sync: adding 308 ms of silence to audio 0  start 540000, next 512280
[10:00:37] sync: adding 250 ms of silence to audio 0  start 585000, next 562500
[10:00:37] sync: adding 308 ms of silence to audio 0  start 630000, next 602280
[10:00:37] sync: audio 0 time went backwards 0 ms, dropped 1 frames (next 636840, current 636840)
[10:00:37] sync: adding 250 ms of silence to audio 0  start 720000, next 697500
[10:00:38] sync: adding 308 ms of silence to audio 0  start 765000, next 737280
[10:00:38] sync: adding 250 ms of silence to audio 0  start 810000, next 787500
[10:00:38] sync: adding 308 ms of silence to audio 0  start 855000, next 827280
[10:00:38] sync: adding 250 ms of silence to audio 0  start 900000, next 877500
[10:00:39] sync: adding 308 ms of silence to audio 0  start 945000, next 917280
[10:00:40] sync: adding 250 ms of silence to audio 0  start 990000, next 967500
[10:00:41] sync: adding 308 ms of silence to audio 0  start 1035000, next 1007280
[10:00:43] sync: adding 250 ms of silence to audio 0  start 1080000, next 1057500
[10:00:44] sync: adding 308 ms of silence to audio 0  start 1125000, next 1097280
[10:00:45] sync: adding 250 ms of silence to audio 0  start 1170000, next 1147500
[10:00:46] sync: adding 308 ms of silence to audio 0  start 1215000, next 1187280
[10:00:48] sync: adding 250 ms of silence to audio 0  start 1260000, next 1237500
[10:00:49] sync: adding 308 ms of silence to audio 0  start 1305000, next 1277280
[10:00:50] sync: audio 0 time went backwards 0 ms, dropped 1 frames (next 1311840, current 1311840)
[10:00:51] sync: adding 250 ms of silence to audio 0  start 1395000, next 1372500
[10:00:52] sync: adding 308 ms of silence to audio 0  start 1440000, next 1412280
[10:00:54] sync: adding 250 ms of silence to audio 0  start 1485000, next 1462500
[10:00:55] sync: adding 308 ms of silence to audio 0  start 1530000, next 1502280
[10:00:57] sync: adding 250 ms of silence to audio 0  start 1575000, next 1552500
[10:00:58] sync: adding 308 ms of silence to audio 0  start 1620000, next 1592280
[10:01:00] sync: adding 250 ms of silence to audio 0  start 1665000, next 1642500
[10:01:02] sync: adding 308 ms of silence to audio 0  start 1710000, next 1682280
[10:01:04] sync: adding 250 ms of silence to audio 0  start 1755000, next 1732500
[10:01:06] sync: adding 308 ms of silence to audio 0  start 1800000, next 1772280
[10:01:07] sync: adding 250 ms of silence to audio 0  start 1845000, next 1822500
[10:01:08] sync: adding 308 ms of silence to audio 0  start 1890000, next 1862280
[10:01:09] sync: adding 250 ms of silence to audio 0  start 1935000, next 1912500
[10:01:10] sync: adding 308 ms of silence to audio 0  start 1980000, next 1952280
[10:01:12] sync: audio 0 time went backwards 0 ms, dropped 1 frames (next 1986840, current 1986840)
[10:01:13] sync: adding 250 ms of silence to audio 0  start 2070000, next 2047500
[10:01:16] sync: adding 308 ms of silence to audio 0  start 2115000, next 2087280
[10:01:17] sync: adding 250 ms of silence to audio 0  start 2160000, next 2137500
[10:01:19] sync: adding 308 ms of silence to audio 0  start 2205000, next 2177280
[10:01:21] sync: adding 250 ms of silence to audio 0  start 2250000, next 2227500
[10:01:22] sync: adding 308 ms of silence to audio 0  start 2295000, next 2267280
[10:01:24] sync: adding 250 ms of silence to audio 0  start 2340000, next 2317500
[10:01:26] sync: adding 308 ms of silence to audio 0  start 2385000, next 2357280
[10:01:28] sync: adding 250 ms of silence to audio 0  start 2430000, next 2407500
[10:01:31] sync: adding 308 ms of silence to audio 0  start 2475000, next 2447280
[10:01:33] sync: adding 250 ms of silence to audio 0  start 2520000, next 2497500
[10:01:35] sync: adding 308 ms of silence to audio 0  start 2565000, next 2537280
[10:01:37] sync: audio 0 time went backwards 0 ms, dropped 1 frames (next 2571840, current 2571840)
[10:01:40] sync: adding 250 ms of silence to audio 0  start 2655000, next 2632500
[10:01:42] reader: done. 1 scr changes
[10:02:12] sync: got 899 frames, 930 expected
[10:02:12] work: average encoding speed for job is 9.301498 fps
[10:02:16] mjpeg-decoder done: 900 frames, 0 decoder errors, 0 drops
[10:02:16] render: lost time: 0 (0 frames)
[10:02:16] render: gained time: 0 (0 frames) (0 not accounted for)
x264 [info]: slice I:3     Avg QP:25.69  size: 48314  PSNR Mean Y:37.13 U:42.92 V:42.99 Avg:38.36 Global:38.35
x264 [info]: slice P:344   Avg QP:28.08  size: 11509  PSNR Mean Y:34.82 U:39.61 V:39.94 Avg:35.92 Global:35.61
x264 [info]: slice B:552   Avg QP:29.65  size:  2761  PSNR Mean Y:34.08 U:39.33 V:39.67 Avg:35.24 Global:34.88
x264 [info]: consecutive B-frames:  2.3% 21.0% 76.7%
x264 [info]: mb I  I16..4: 20.6%  0.0% 79.4%
x264 [info]: mb P  I16..4:  9.5%  0.0%  2.7%  P16..4: 49.1% 17.8% 13.7%  0.0%  0.0%    skip: 7.1%
x264 [info]: mb B  I16..4:  3.0%  0.0%  0.0%  B16..8: 29.2%  1.2%  0.7%  direct:17.5%  skip:48.4%  L0:26.1% L1:55.9% BI:18.0%
x264 [info]: ref P L0  88.1% 11.9%
x264 [info]: SSIM Mean Y:0.9595497
x264 [info]: PSNR Mean Y:34.374 U:39.451 V:39.787 Avg:35.510 Global:35.156 kb/s:1502.44
[10:02:16] pcm_u8-decoder done: 0 frames, 0 decoder errors, 0 drops
[10:02:16] libhb: work result = 0
[10:02:18] macgui: incrementQueueItemDone currentQueueEncodeIndex is incremented to: 1
[10:02:18] macgui: incrementQueueItemDone the 0 item queue is complete

User avatar
s55
HandBrake Team
Posts: 9519
Joined: Sun Dec 24, 2006 1:05 pm

Re: Audio garbled in video from Canon camera (HandBrake 0.9.3)

Post by s55 » Mon Nov 24, 2008 6:21 pm

Your pretty much out of luck guys. It looks like it's unsupported right now.
Unless of course your camera has an option to change the audio format.

Mr. H
Posts: 25
Joined: Mon Nov 24, 2008 2:32 pm

Re: Audio garbled in video from Canon camera (HandBrake 0.9.3)

Post by Mr. H » Mon Nov 24, 2008 7:16 pm

Guys, you may be able to use MPEG streamclip and the x264 QuickTime component (much better than Apple's rubbish implementation of H.264).

First, install the x264 component, then install MPEG streamclip and open your video file. Hopefully MPEG streamclip will be able to handle the audio codec. You can then export to H.264 with AAC by going to File->Export to QuickTime or Export to MPEG-4. Then choose "x264encoder" in the drop-down at the top of the export window.

This will use QuickTime to do the video and audio decode, the x264 component to do the video encode, and QuickTime for the audio encode. If your video files are large, it may be quicker to see if you can do an export with MPEG streamclip that passes-through the video untouched and converts the audio to something HandBrake will like (say 16 bit, 32 kHz AIFF/WAV), then encode the file with HandBrake. Whether or not this is faster depends on whether the libraries HandBrake uses are faster at QuickTime for video decode, the probability of which is quite high.

Good luck!

Aetles
Posts: 6
Joined: Mon Nov 24, 2008 1:31 am

Re: Audio garbled in video from Canon camera (HandBrake 0.9.3)

Post by Aetles » Tue Nov 25, 2008 3:17 pm

s55 wrote:Your pretty much out of luck guys. It looks like it's unsupported right now.
Ok, too bad, but at least I know it wasn't me :)
s55 wrote:Unless of course your camera has an option to change the audio format.
Afaik, unfortunately they don't. Resolution and fps is usually the only options available.

Newer cameras will probably use H.264 video (I know some of them already do) but most of them sold so far don't.

Aetles
Posts: 6
Joined: Mon Nov 24, 2008 1:31 am

Re: Audio garbled in video from Canon camera (HandBrake 0.9.3)

Post by Aetles » Tue Nov 25, 2008 3:26 pm

Mr. H wrote:Guys, you may be able to use MPEG streamclip and the x264 QuickTime component (much better than Apple's rubbish implementation of H.264).

First, install the x264 component, then install MPEG streamclip and open your video file. Hopefully MPEG streamclip will be able to handle the audio codec. You can then export to H.264 with AAC by going to File->Export to QuickTime or Export to MPEG-4. Then choose "x264encoder" in the drop-down at the top of the export window.
Thank you for the detailed explanation, I didn't know of any of those (coming from the comfort of VisualHub).

I tried this and it worked very well. MPEG streamclip handled the audio just fine. Finally a working solution. And MPEG streamclip has a batching function, which is crucial when you have a lot of clips to convert. I haven't tried the second suggestion yet (passing through the video untouch), but if speed becomes and issue I'll try.

Now I'll just have to learn what all these options means (or which ones I don't have to care about), boy are there options... :)

Mr. H
Posts: 25
Joined: Mon Nov 24, 2008 2:32 pm

Re: Audio garbled in video from Canon camera (HandBrake 0.9.3)

Post by Mr. H » Tue Nov 25, 2008 7:30 pm

Aetles wrote:Now I'll just have to learn what all these options means (or which ones I don't have to care about), boy are there options... :)
Glad it's working for you :-).

If you're talking about the QT x264 component options, take a look at the HandBrake help files, you should be able to figure out which advanced options in HandBrake correspond to the QT x264 component options (because both HandBrake and the QT x264 component make use of the x264 project, they have similar options but laid out differently, HandBrake in a much more user-friendly/intelligible manner).

andrewj
Posts: 5
Joined: Tue Nov 25, 2008 7:49 pm

Re: Audio garbled in video from Canon camera (HandBrake 0.9.3)

Post by andrewj » Thu Nov 27, 2008 2:44 am

Mr. H wrote:
Aetles wrote:Now I'll just have to learn what all these options means (or which ones I don't have to care about), boy are there options... :)
Glad it's working for you :-).

If you're talking about the QT x264 component options, take a look at the HandBrake help files, you should be able to figure out which advanced options in HandBrake correspond to the QT x264 component options (because both HandBrake and the QT x264 component make use of the x264 project, they have similar options but laid out differently, HandBrake in a much more user-friendly/intelligible manner).
I'm having the same problem too also with the Canon SD800 (but this time on Windows Vista). Anyone figured a specific solution with HandBrake? Thanks!

Mr. H
Posts: 25
Joined: Mon Nov 24, 2008 2:32 pm

Re: Audio garbled in video from Canon camera (HandBrake 0.9.3)

Post by Mr. H » Thu Nov 27, 2008 2:49 am

andrewj wrote:I'm having the same problem too also with the Canon SD800 (but this time on Windows Vista). Anyone figured a specific solution with HandBrake? Thanks!
No. HandBrake doesn't currently support that audio codec. You'll have to use other tools instead.

Aetles
Posts: 6
Joined: Mon Nov 24, 2008 1:31 am

Re: Audio garbled in video from Canon camera (HandBrake 0.9.3)

Post by Aetles » Thu Nov 27, 2008 10:45 am

andrewj wrote:I'm having the same problem too also with the Canon SD800 (but this time on Windows Vista). Anyone figured a specific solution with HandBrake? Thanks!
No offence but it was made quite clear by the answers in this thread that there's no way to "figure" a solution since it's an unsupported audio codec.

van
Veteran User
Posts: 417
Joined: Wed Aug 29, 2007 6:35 am

Re: Audio garbled in video from Canon camera (HandBrake 0.9.3)

Post by van » Fri Dec 05, 2008 11:33 pm

Can someone point me at a small sample of the video from this camera? I believe the problem is due to a change in the way ffmpeg handles pcm_u8 audio. It used to convert all audio to signed 16-bit linear format, which is what HB expects. Recently it looks like they changed it to convert to signed 8 bit linear format which HB doesn't know how to deal with & would cause the behavior described in this thread. I can fix the decoder to handle this but need a sample to test. Thanks.

van
Veteran User
Posts: 417
Joined: Wed Aug 29, 2007 6:35 am

Re: Audio garbled in video from Canon camera (HandBrake 0.9.3)

Post by van » Sat Dec 06, 2008 12:12 am

Never mind, I found a sample on the Canon Japan site. The problem is what I thought - HB is getting u8 (1 byte) audio from ffmpeg when it expects s16 (2 byte) audio and therefore doing many wrong things. I'll try to get a fix in for this sometime this weekend so it makes the next snapshot.

andrewj
Posts: 5
Joined: Tue Nov 25, 2008 7:49 pm

Re: Audio garbled in video from Canon camera (HandBrake 0.9.3)

Post by andrewj » Sat Dec 06, 2008 3:16 am

van wrote:Never mind, I found a sample on the Canon Japan site. The problem is what I thought - HB is getting u8 (1 byte) audio from ffmpeg when it expects s16 (2 byte) audio and therefore doing many wrong things. I'll try to get a fix in for this sometime this weekend so it makes the next snapshot.
That would be fantastic for the Canon users out there! Thanks for looking into this.

van
Veteran User
Posts: 417
Joined: Wed Aug 29, 2007 6:35 am

Re: Audio garbled in video from Canon camera (HandBrake 0.9.3)

Post by van » Sat Dec 06, 2008 9:33 am

A fix has been committed as r2014.

Aetles
Posts: 6
Joined: Mon Nov 24, 2008 1:31 am

Re: Audio garbled in video from Canon camera (HandBrake 0.9.3)

Post by Aetles » Sun Dec 07, 2008 5:22 pm

This is great news, thanks for the fast response!

TaviRider
Posts: 1
Joined: Fri Dec 19, 2008 9:20 pm

Re: Audio garbled in video from Canon camera (HandBrake 0.9.3)

Post by TaviRider » Fri Dec 19, 2008 9:24 pm

Thank you for solving this issue, van. I'm almost certain I'm suffering from this problem converting videos from my Canon PowerShot SD630. Would you like me to test the fix on my videos? If so, can you send me a Windows GUI build that includes the fix?

User avatar
s55
HandBrake Team
Posts: 9519
Joined: Sun Dec 24, 2006 1:05 pm

Re: Audio garbled in video from Canon camera (HandBrake 0.9.3)

Post by s55 » Sat Dec 20, 2008 2:56 pm

We'll have a snapshot out in the near future which you'll be able to try.

andrewj
Posts: 5
Joined: Tue Nov 25, 2008 7:49 pm

Re: Audio garbled in video from Canon camera (HandBrake 0.9.3)

Post by andrewj » Sat Dec 20, 2008 3:12 pm

s55 wrote:We'll have a snapshot out in the near future which you'll be able to try.
This is great. A naive question: how/where do you download a snapshot?

User avatar
s55
HandBrake Team
Posts: 9519
Joined: Sun Dec 24, 2006 1:05 pm

Re: Audio garbled in video from Canon camera (HandBrake 0.9.3)

Post by s55 » Sat Dec 20, 2008 3:47 pm

When we release one, there will be an announcement on the forum.

markdj
Posts: 1
Joined: Sun Jan 04, 2009 11:30 pm

Re: Audio garbled in video from Canon camera (HandBrake 0.9.3)

Post by markdj » Sun Jan 04, 2009 11:36 pm

I have a Panasonic TZ5 and HB is having the same problems with the sound which is the following

Bit rate mode : Constant
Bit rate : 64.0 Kbps
Channel(s) : 1 channel
Sampling rate : 8 000 Hz
Resolution : 8 bits

So I look forward to testing next release. Many thanks to s55.

Post Reply