Can't set output resolution above 1090. Source is 1280x720 50fps

HandBrake for Mac support
Forum rules
An Activity Log is required for support requests. Please read How-to get an activity log? for details on how and why this should be provided.
Post Reply
dwstorefront
Posts: 2
Joined: Sat Feb 13, 2021 10:40 am

Can't set output resolution above 1090. Source is 1280x720 50fps

Post by dwstorefront »

Apologies – I am not well-versed in Handbrake...

I am unable to set the resolution slider above 1090 for output. The source is a 1280x720 with 50fps MKV file.

I am using Handbrake 1.3.3

macOS Mojave 10.14.6

Thank you for any advice!

Code: Select all

[10:39:14] macgui: Handbrake Version: 1.3.3 (2020061300)
[10:39:15] macgui: built-in presets updated
[10:39:15] macgui: Error domain: NSCocoaErrorDomain
[10:39:15] macgui: Error code: 4864
[10:39:15] macgui: Error description: The data couldn’t be read because it isn’t in the correct format.
[10:39:15] macgui: Error debug description: Error Domain=NSCocoaErrorDomain Code=4864 "value for key 'NS.objects' was of unexpected class 'HBJob'. Allowed classes are '{(
    NSMutableArray,
    HBQueueItem
)}'." UserInfo={NSDebugDescription=value for key 'NS.objects' was of unexpected class 'HBJob'. Allowed classes are '{(
    NSMutableArray,
    HBQueueItem
)}'.}
[10:39:15] hb_init: starting libhb thread
[10:39:15] Compile-time hardening features are enabled
[10:39:16] hb_init: starting libhb thread
[10:39:53] macgui: ScanCore scanning titles with a duration of 10 seconds or more
[10:39:53] CPU: Intel(R) Core(TM) i7-4980HQ CPU @ 2.80GHz
[10:39:53]  - Intel microarchitecture Haswell
[10:39:53]  - logical processor count: 8
[10:39:53] hb_scan: path=/Users/DW/Downloads/Can't Get You Out of My Head - S01E04 - Part 4 - But What If The People Are Stupid264.mkv, title_index=0
udfread ERROR: ECMA 167 Volume Recognition failed
disc.c:323: failed opening UDF image /Users/DW/Downloads/Can't Get You Out of My Head - S01E04 - Part 4 - But What If The People Are Stupid264.mkv
disc.c:424: error opening file BDMV/index.bdmv
disc.c:424: error opening file BDMV/BACKUP/index.bdmv
bluray.c:2585: nav_get_title_list(/Users/DW/Downloads/Can't Get You Out of My Head - S01E04 - Part 4 - But What If The People Are Stupid264.mkv/) failed
[10:39:53] bd: not a bd - trying as a stream/file instead
libdvdnav: Using dvdnav version 6.0.1
libdvdread: Encrypted DVD support unavailable.
libdvdread:DVDOpenFileUDF:UDFFindFile /VIDEO_TS/VIDEO_TS.IFO failed
libdvdread:DVDOpenFileUDF:UDFFindFile /VIDEO_TS/VIDEO_TS.BUP failed
libdvdread: Can't open file VIDEO_TS.IFO.
libdvdnav: vm: failed to read VIDEO_TS.IFO
[10:39:53] dvd: not a dvd - trying as a stream/file instead
Input #0, matroska,webm, from '/Users/DW/Downloads/Can't Get You Out of My Head - S01E04 - Part 4 - But What If The People Are Stupid264.mkv':
  Metadata:
    encoder         : libebml v1.3.10 + libmatroska v1.5.2
    creation_time   : 2021-02-11T11:30:43.000000Z
  Duration: 01:13:29.04, start: 0.000000, bitrate: 3712 kb/s
    Stream #0:0: Video: h264 (High), yuv420p(progressive), 1280x720 [SAR 1:1 DAR 16:9], 50 fps, 50 tbr, 1k tbn, 100 tbc (default)
    Metadata:
      BPS-eng         : 3516870
      DURATION-eng    : 01:13:29.040000000
      NUMBER_OF_FRAMES-eng: 220452
      NUMBER_OF_BYTES-eng: 1938252702
      _STATISTICS_WRITING_APP-eng: mkvmerge v42.0.0 ('Overtime') 64-bit
      _STATISTICS_WRITING_DATE_UTC-eng: 2021-02-11 11:30:43
      _STATISTICS_TAGS-eng: BPS DURATION NUMBER_OF_FRAMES NUMBER_OF_BYTES
    Stream #0:1(eng): Audio: ac3, 48000 Hz, stereo, fltp, 192 kb/s (default)
    Metadata:
      BPS-eng         : 192000
      DURATION-eng    : 01:13:29.024000000
      NUMBER_OF_FRAMES-eng: 137782
      NUMBER_OF_BYTES-eng: 105816576
      _STATISTICS_WRITING_APP-eng: mkvmerge v42.0.0 ('Overtime') 64-bit
      _STATISTICS_WRITING_DATE_UTC-eng: 2021-02-11 11:30:43
      _STATISTICS_TAGS-eng: BPS DURATION NUMBER_OF_FRAMES NUMBER_OF_BYTES
    Stream #0:2: Subtitle: subrip (default)
    Metadata:
      BPS-eng         : 174
      DURATION-eng    : 01:12:48.920000000
      NUMBER_OF_FRAMES-eng: 1018
      NUMBER_OF_BYTES-eng: 95309
      _STATISTICS_WRITING_APP-eng: mkvmerge v42.0.0 ('Overtime') 64-bit
      _STATISTICS_WRITING_DATE_UTC-eng: 2021-02-11 11:30:43
      _STATISTICS_TAGS-eng: BPS DURATION NUMBER_OF_FRAMES NUMBER_OF_BYTES
[10:39:53] scan: decoding previews for title 1
[10:39:53] scan: audio 0x1: ac3, rate=48000Hz, bitrate=192000 English (AC3) (2.0 ch) (192 kbps)
[10:39:54] scan: 10 previews, 1280x720, 50.000 fps, autocrop = 0/0/30/160, aspect 16:9, PAR 1:1
[10:39:54] libhb: scan thread found 1 valid title(s)
[10:39:54] macgui: ScanCore scan done
[10:50:33] macgui: QueueCore scanning specifically for title: 1
[10:50:33] CPU: Intel(R) Core(TM) i7-4980HQ CPU @ 2.80GHz
[10:50:33]  - Intel microarchitecture Haswell
[10:50:33]  - logical processor count: 8
[10:50:33] hb_scan: path=/Users/DW/Downloads/Can't Get You Out of My Head - S01E04 - Part 4 - But What If The People Are Stupid264.mkv, title_index=1
udfread ERROR: ECMA 167 Volume Recognition failed
disc.c:323: failed opening UDF image /Users/DW/Downloads/Can't Get You Out of My Head - S01E04 - Part 4 - But What If The People Are Stupid264.mkv
disc.c:424: error opening file BDMV/index.bdmv
disc.c:424: error opening file BDMV/BACKUP/index.bdmv
bluray.c:2585: nav_get_title_list(/Users/DW/Downloads/Can't Get You Out of My Head - S01E04 - Part 4 - But What If The People Are Stupid264.mkv/) failed
[10:50:33] bd: not a bd - trying as a stream/file instead
libdvdnav: Using dvdnav version 6.0.1
libdvdread: Encrypted DVD support unavailable.
libdvdread:DVDOpenFileUDF:UDFFindFile /VIDEO_TS/VIDEO_TS.IFO failed
libdvdread:DVDOpenFileUDF:UDFFindFile /VIDEO_TS/VIDEO_TS.BUP failed
libdvdread: Can't open file VIDEO_TS.IFO.
libdvdnav: vm: failed to read VIDEO_TS.IFO
[10:50:33] dvd: not a dvd - trying as a stream/file instead
Input #0, matroska,webm, from '/Users/DW/Downloads/Can't Get You Out of My Head - S01E04 - Part 4 - But What If The People Are Stupid264.mkv':
  Metadata:
    encoder         : libebml v1.3.10 + libmatroska v1.5.2
    creation_time   : 2021-02-11T11:30:43.000000Z
  Duration: 01:13:29.04, start: 0.000000, bitrate: 3712 kb/s
    Stream #0:0: Video: h264 (High), yuv420p(progressive), 1280x720 [SAR 1:1 DAR 16:9], 50 fps, 50 tbr, 1k tbn, 100 tbc (default)
    Metadata:
      BPS-eng         : 3516870
      DURATION-eng    : 01:13:29.040000000
      NUMBER_OF_FRAMES-eng: 220452
      NUMBER_OF_BYTES-eng: 1938252702
      _STATISTICS_WRITING_APP-eng: mkvmerge v42.0.0 ('Overtime') 64-bit
      _STATISTICS_WRITING_DATE_UTC-eng: 2021-02-11 11:30:43
      _STATISTICS_TAGS-eng: BPS DURATION NUMBER_OF_FRAMES NUMBER_OF_BYTES
    Stream #0:1(eng): Audio: ac3, 48000 Hz, stereo, fltp, 192 kb/s (default)
    Metadata:
      BPS-eng         : 192000
      DURATION-eng    : 01:13:29.024000000
      NUMBER_OF_FRAMES-eng: 137782
      NUMBER_OF_BYTES-eng: 105816576
      _STATISTICS_WRITING_APP-eng: mkvmerge v42.0.0 ('Overtime') 64-bit
      _STATISTICS_WRITING_DATE_UTC-eng: 2021-02-11 11:30:43
      _STATISTICS_TAGS-eng: BPS DURATION NUMBER_OF_FRAMES NUMBER_OF_BYTES
    Stream #0:2: Subtitle: subrip (default)
    Metadata:
      BPS-eng         : 174
      DURATION-eng    : 01:12:48.920000000
      NUMBER_OF_FRAMES-eng: 1018
      NUMBER_OF_BYTES-eng: 95309
      _STATISTICS_WRITING_APP-eng: mkvmerge v42.0.0 ('Overtime') 64-bit
      _STATISTICS_WRITING_DATE_UTC-eng: 2021-02-11 11:30:43
      _STATISTICS_TAGS-eng: BPS DURATION NUMBER_OF_FRAMES NUMBER_OF_BYTES
[10:50:33] scan: decoding previews for title 1
[10:50:33] scan: audio 0x1: ac3, rate=48000Hz, bitrate=192000 English (AC3) (2.0 ch) (192 kbps)
[10:50:34] scan: 10 previews, 1280x720, 50.000 fps, autocrop = 0/0/30/160, aspect 16:9, PAR 1:1
[10:50:34] libhb: scan thread found 1 valid title(s)
[10:50:34] macgui: QueueCore scan done
[10:50:34] macgui: QueueCore started encoding Can't Get You Out of My Head - S01E04 - Part 4 - But What If The People Are Stupid264.mp4
[10:50:34] macgui: QueueCore with preset Fast 1080p30 (Modified)
[10:50:34] Starting work at: Sat Feb 13 10:50:34 2021

[10:50:34] 1 job(s) to process
[10:50:34] Starting Task: Encoding Pass
[10:50:34] work: only 1 chapter, disabling chapter markers
[10:50:34] job configuration:
[10:50:34]  * source
[10:50:34]    + /Users/DW/Downloads/Can't Get You Out of My Head - S01E04 - Part 4 - But What If The People Are Stupid264.mkv
[10:50:34]    + title 1, chapter(s) 1 to 1
[10:50:34]    + container: matroska,webm
[10:50:34]    + data rate: 3712 kbps
[10:50:34]  * destination
[10:50:34]    + /Users/DW/Movies/Handbrake/Can't Get You Out of My Head - S01E04 - Part 4 - But What If The People Are Stupid264.mp4
[10:50:34]    + container: MPEG-4 (libavformat)
[10:50:34]      + align initial A/V stream timestamps
[10:50:34]  * video track
[10:50:34]    + decoder: h264
[10:50:34]    + filters
[10:50:34]      + Comb Detect (mode=3:spatial-metric=2:motion-thresh=1:spatial-thresh=1:filter-mode=2:block-thresh=40:block-width=16:block-height=16)
[10:50:34]      + Decomb (mode=39)
[10:50:34]      + Framerate Shaper (mode=1:rate=27000000/540000)
[10:50:34]        + frame rate: 50.000 fps -> constant 50.000 fps
[10:50:34]      + Crop and Scale (width=1090:height=720:crop-top=0:crop-bottom=0:crop-left=30:crop-right=160)
[10:50:34]        + source: 1280 * 720, crop (0/0/30/160): 1090 * 720, scale: 1090 * 720
[10:50:34]    + Output geometry
[10:50:34]      + storage dimensions: 1090 x 720
[10:50:34]      + pixel aspect ratio: 1 : 1
[10:50:34]      + display dimensions: 1090 x 720
[10:50:34]    + encoder: H.264 (libx264)
[10:50:34]      + preset:  fast
[10:50:34]      + profile: main
[10:50:34]      + level:   4.0
[10:50:34]      + quality: 22.00 (RF)
[10:50:34]      + color profile: 1-1-1
[10:50:34]  * subtitle track 1, Unknown [UTF-8] (track 0, id 0x2, Text) -> Passthrough, Default
[10:50:34]  * audio track 1
[10:50:34]    + decoder: English (AC3) (2.0 ch) (192 kbps) (track 1, id 0x1)
[10:50:34]      + bitrate: 192 kbps, samplerate: 48000 Hz
[10:50:34]    + mixdown: Stereo
[10:50:34]    + dither: triangular
[10:50:34]    + encoder: AAC (Apple AudioToolbox)
[10:50:34]      + bitrate: 160 kbps, samplerate: 48000 Hz
[10:50:34] sync: expecting 220452 video frames
[10:50:34] encx264: min-keyint: 50, keyint: 500
[10:50:34] encx264: encoding at constant RF 22.000000
[10:50:34] encx264: unparsed options: level=4.0:ref=2:8x8dct=0:weightp=1:subme=6:vbv-bufsize=25000:vbv-maxrate=20000:rc-lookahead=30
x264 [info]: using SAR=1/1
x264 [info]: using cpu capabilities: MMX2 SSE2Fast SSSE3 SSE4.2 AVX FMA3 BMI2 AVX2
x264 [info]: profile Main, level 4.0, 4:2:0, 8-bit
[10:50:34] sync: first pts video is 0
[10:50:34] sync: "Chapter 1" (1) at frame 1 time 0
[10:50:34] sync: first pts audio 0x1 is 0
[10:51:13] sync: first pts subtitle 0x2 is 2880000

User avatar
Ritsuka
HandBrake Team
Posts: 1226
Joined: Fri Jan 12, 2007 11:29 am

Re: Can't set output resolution above 1090. Source is 1280x720 50fps

Post by Ritsuka »

Set crop to 0.
dwstorefront
Posts: 2
Joined: Sat Feb 13, 2021 10:40 am

Re: Can't set output resolution above 1090. Source is 1280x720 50fps

Post by dwstorefront »

Thank you!
Post Reply