1.3.3 Encode failed

HandBrake for Mac support
Forum rules
An Activity Log is required for support requests. Please read How-to get an activity log? for details on how and why this should be provided.
Post Reply
glensound
New User
Posts: 1
Joined: Wed Feb 10, 2021 6:33 pm

1.3.3 Encode failed

Post by glensound »

After updating to 1.3.3, the "Encode Failed" is the only result I get even from the first video. I've restarted the computer and tried other options but to no avail. What else can be done to fix this? Should I delete this and use the version before?


Steps to reproduce the problem (If Applicable):

Went through many forum posts and researched separately online


HandBrake version (e.g., 1.0.0):

1.3.3


Operating system and version (e.g., Ubuntu 16.04 LTS, macOS 10.13 High Sierra, Windows 10 Creators Update):

Catalina

HandBrake Activity Log ***required*** (see How-to get an activity log)

Code: Select all

Please replace this text with the contents of your log file between the two code tags - OR -  provide a pastebin URL in place of these 3 lines.
If you are unable to do so, please state why so we can help you.

 HandBrake Activity Log for Session: 2021-01-18 04:46:33 -0800
Handbrake Version: 1.0.7 (2017040900)
192.168.1.6_ch4_20200601181144_20200601214659 compressed.mp4
Preset: Custom
[04:46:33] macgui: QueueCore scanning specifically for title: 1
[04:46:33] CPU: Intel(R) Core(TM) i7-6567U CPU @ 3.30GHz
[04:46:33]  - Intel microarchitecture Skylake
[04:46:33]  - logical processor count: 4
[04:46:33] hb_scan: path=/Users/new/Downloads/Record/DownLoad/192.168.1.6_ch4_20200601181144_20200601214659.mp4, title_index=1
udfread ERROR: ECMA 167 Volume Recognition failed
disc.c:274: failed opening UDF image /Users/new/Downloads/Record/DownLoad/192.168.1.6_ch4_20200601181144_20200601214659.mp4
disc.c:352: error opening file BDMV/index.bdmv
disc.c:352: error opening file BDMV/BACKUP/index.bdmv
[04:46:33] bd: not a bd - trying as a stream/file instead
libdvdnav: Using dvdnav version 5.0.1
libdvdread: Encrypted DVD support unavailable.
libdvdread:DVDOpenFileUDF:UDFFindFile /VIDEO_TS/VIDEO_TS.IFO failed
libdvdread:DVDOpenFileUDF:UDFFindFile /VIDEO_TS/VIDEO_TS.BUP failed
libdvdread: Can't open file VIDEO_TS.IFO.
libdvdnav: vm: failed to read VIDEO_TS.IFO
[04:46:33] dvd: not a dvd - trying as a stream/file instead
Input #0, mov,mp4,m4a,3gp,3g2,mj2, from '/Users/new/Downloads/Record/DownLoad/192.168.1.6_ch4_20200601181144_20200601214659.mp4':
  Metadata:
    major_brand     : isom
    minor_version   : 512
    compatible_brands: isomiso2avc1mp41
    creation_time   : 2021-01-16 21:59:11
  Duration: 01:28:54.06, start: 0.000000, bitrate: 4200 kb/s
    Stream #0:0(und): Video: h264 (High) [avc1 / 0x31637661]
      yuv420p, 2560x1440, 4198 kb/s
      15 fps, 1k tbn (default)
    Metadata:
      creation_time   : 2021-01-16 21:59:11
      handler_name    : VideoHandler
[04:46:34] scan: decoding previews for title 1
[04:46:37] scan: 10 previews, 2560x1440, 15.000 fps, autocrop = 0/0/0/0, aspect 16:9, PAR 1:1
[04:46:37] libhb: scan thread found 1 valid title(s)
[04:46:37] macgui: QueueCore scan done
[04:46:37] macgui: QueueCore started encoding 192.168.1.6_ch4_20200601181144_20200601214659 compressed.mp4
[04:46:37] macgui: QueueCore with preset Custom
[04:46:37] 1 job(s) to process
[04:46:37] starting job
[04:46:37] job configuration:
[04:46:37]  * source
[04:46:37]    + /Users/new/Downloads/Record/DownLoad/192.168.1.6_ch4_20200601181144_20200601214659.mp4
[04:46:37]    + title 1, chapter(s) 1 to 1
[04:46:37]    + container: mov,mp4,m4a,3gp,3g2,mj2
[04:46:37]    + data rate: 4200 kbps
[04:46:37]  * destination
[04:46:37]    + /Users/new/Downloads/Record/DownLoad/192.168.1.6_ch4_20200601181144_20200601214659 compressed.mp4
[04:46:37]    + container: MPEG-4 (libavformat)
[04:46:37]      + optimized for HTTP streaming (fast start)
[04:46:37]  * video track
[04:46:37]    + decoder: h264
[04:46:37]      + bitrate 4198 kbps
[04:46:37]    + filters
[04:46:37]      + Framerate Shaper (mode=1:rate=27000000/1800000)
[04:46:37]        + frame rate: 15.000 fps -> constant 15.000 fps
[04:46:37]      + Crop and Scale (width=1920:height=1080:crop-top=0:crop-bottom=0:crop-left=0:crop-right=0)
[04:46:37]        + source: 2560 * 1440, crop (0/0/0/0): 2560 * 1440, scale: 1920 * 1080
[04:46:37]    + Output geometry
[04:46:37]      + storage dimensions: 1920 x 1080
[04:46:37]      + pixel aspect ratio: 1 : 1
[04:46:37]      + display dimensions: 1920 x 1080
[04:46:37]    + encoder: H.264 (libx264)
[04:46:37]      + preset:  slower
[04:46:37]      + profile: auto
[04:46:37]      + level:   auto
[04:46:37]      + quality: 30.00 (RF)
[04:46:38] sync: expecting 80010 video frames
[04:46:38] encx264: min-keyint: 15, keyint: 150
[04:46:38] encx264: encoding at constant RF 30.000000
[04:46:38] encx264: unparsed options: subme=9:direct=auto:ref=8:trellis=2:b-adapt=2:me=umh:analyse=all:rc-lookahead=60
x264 [info]: using SAR=1/1
x264 [info]: using cpu capabilities: MMX2 SSE2Fast SSSE3 SSE4.2 AVX FMA3 AVX2 LZCNT BMI2
x264 [info]: profile High, level 5.0
[04:46:39] sync: first pts video is 0
[04:46:39] sync: Chapter 1 at frame 1 time 0
[04:55:42] macgui: QueueCore encode canceled
[04:55:52] macgui: QueueCore encode canceled
[04:55:53] work: average encoding speed for job is 1.808667 fps
[04:55:55] vfr: 978 frames output, 0 dropped and 0 duped for CFR/PFR
[04:55:55] vfr: lost time: 0 (0 frames)
[04:55:55] vfr: gained time: 0 (0 frames) (0 not accounted for)
[04:55:56] h264-decoder done: 1035 frames, 0 decoder errors
[04:55:58] macgui: QueueCore encode canceled
[04:56:02] sync: got 1014 frames, 80010 expected
[04:56:02] sync: framerate min 15.000 fps, max 15.000 fps, avg 15.000 fps



HandBrake Activity Log for Session: 2021-01-19 05:01:15 -0800
Handbrake Version: 1.0.7 (2017040900)
192.168.1.6_ch4_20200601181144_20200601214659 compressed.mp4
Preset: Custom
[05:01:15] macgui: QueueCore scanning specifically for title: 1
[05:01:15] CPU: Intel(R) Core(TM) i7-6567U CPU @ 3.30GHz
[05:01:15]  - Intel microarchitecture Skylake
[05:01:15]  - logical processor count: 4
[05:01:15] hb_scan: path=/Users/new/Downloads/Record/DownLoad/192.168.1.6_ch4_20200601181144_20200601214659.mp4, title_index=1
udfread ERROR: ECMA 167 Volume Recognition failed
disc.c:274: failed opening UDF image /Users/new/Downloads/Record/DownLoad/192.168.1.6_ch4_20200601181144_20200601214659.mp4
disc.c:352: error opening file BDMV/index.bdmv
disc.c:352: error opening file BDMV/BACKUP/index.bdmv
[05:01:15] bd: not a bd - trying as a stream/file instead
libdvdnav: Using dvdnav version 5.0.1
libdvdread: Encrypted DVD support unavailable.
libdvdread:DVDOpenFileUDF:UDFFindFile /VIDEO_TS/VIDEO_TS.IFO failed
libdvdread:DVDOpenFileUDF:UDFFindFile /VIDEO_TS/VIDEO_TS.BUP failed
libdvdread: Can't open file VIDEO_TS.IFO.
libdvdnav: vm: failed to read VIDEO_TS.IFO
[05:01:15] dvd: not a dvd - trying as a stream/file instead
Input #0, mov,mp4,m4a,3gp,3g2,mj2, from '/Users/new/Downloads/Record/DownLoad/192.168.1.6_ch4_20200601181144_20200601214659.mp4':
  Metadata:
    major_brand     : isom
    minor_version   : 512
    compatible_brands: isomiso2avc1mp41
    creation_time   : 2021-01-16 21:59:11
  Duration: 01:28:54.06, start: 0.000000, bitrate: 4200 kb/s
    Stream #0:0(und): Video: h264 (High) [avc1 / 0x31637661]
      yuv420p, 2560x1440, 4198 kb/s
      15 fps, 1k tbn (default)
    Metadata:
      creation_time   : 2021-01-16 21:59:11
      handler_name    : VideoHandler
[05:01:15] scan: decoding previews for title 1
[05:01:18] scan: 10 previews, 2560x1440, 15.000 fps, autocrop = 0/0/0/0, aspect 16:9, PAR 1:1
[05:01:18] libhb: scan thread found 1 valid title(s)
[05:01:18] macgui: QueueCore scan done
[05:01:18] macgui: QueueCore started encoding 192.168.1.6_ch4_20200601181144_20200601214659 compressed.mp4
[05:01:18] macgui: QueueCore with preset Custom
[05:01:18] 1 job(s) to process
[05:01:18] starting job
[05:01:18] job configuration:
[05:01:18]  * source
[05:01:18]    + /Users/new/Downloads/Record/DownLoad/192.168.1.6_ch4_20200601181144_20200601214659.mp4
[05:01:18]    + title 1, chapter(s) 1 to 1
[05:01:18]    + container: mov,mp4,m4a,3gp,3g2,mj2
[05:01:18]    + data rate: 4200 kbps
[05:01:18]  * destination
[05:01:18]    + /Users/new/Downloads/Record/DownLoad/192.168.1.6_ch4_20200601181144_20200601214659 compressed.mp4
[05:01:18]    + container: MPEG-4 (libavformat)
[05:01:18]      + optimized for HTTP streaming (fast start)
[05:01:18]  * video track
[05:01:18]    + decoder: h264
[05:01:18]      + bitrate 4198 kbps
[05:01:18]    + filters
[05:01:18]      + Framerate Shaper (mode=1:rate=27000000/1800000)
[05:01:18]        + frame rate: 15.000 fps -> constant 15.000 fps
[05:01:18]      + Crop and Scale (width=1920:height=1080:crop-top=0:crop-bottom=0:crop-left=0:crop-right=0)
[05:01:18]        + source: 2560 * 1440, crop (0/0/0/0): 2560 * 1440, scale: 1920 * 1080
[05:01:18]    + Output geometry
[05:01:18]      + storage dimensions: 1920 x 1080
[05:01:18]      + pixel aspect ratio: 1 : 1
[05:01:18]      + display dimensions: 1920 x 1080
[05:01:18]    + encoder: H.264 (libx264)
[05:01:18]      + preset:  slower
[05:01:18]      + profile: auto
[05:01:18]      + level:   auto
[05:01:18]      + quality: 30.00 (RF)
[05:01:18] sync: expecting 80010 video frames
[05:01:18] encx264: min-keyint: 15, keyint: 150
[05:01:18] encx264: encoding at constant RF 30.000000
[05:01:18] encx264: unparsed options: me=umh:ref=8:b-adapt=2:direct=auto:rc-lookahead=60:subme=9:analyse=all:trellis=2
x264 [info]: using SAR=1/1
x264 [info]: using cpu capabilities: MMX2 SSE2Fast SSSE3 SSE4.2 AVX FMA3 AVX2 LZCNT BMI2
x264 [info]: profile High, level 5.0
[05:01:19] sync: first pts video is 0
[05:01:19] sync: Chapter 1 at frame 1 time 0
[06:28:11] reader: done. 1 scr changes
[06:28:17] work: average encoding speed for job is 15.339771 fps
[06:28:17] vfr: 80011 frames output, 0 dropped and 0 duped for CFR/PFR
[06:28:17] vfr: lost time: 0 (0 frames)
[06:28:17] vfr: gained time: 0 (0 frames) (0 not accounted for)
[06:28:17] h264-decoder done: 80011 frames, 0 decoder errors
[06:28:17] sync: got 80011 frames, 80010 expected
[06:28:17] sync: framerate min 15.000 fps, max 15.003 fps, avg 15.000 fps
x264 [info]: frame I:534   Avg QP:22.14  size:192703
x264 [info]: frame P:35243 Avg QP:25.31  size:  6853
x264 [info]: frame B:44234 Avg QP:32.16  size:   845
x264 [info]: consecutive B-frames:  1.3% 74.9%  0.3% 23.5%
x264 [info]: mb I  I16..4: 24.8% 46.8% 28.3%
x264 [info]: mb P  I16..4:  0.6%  0.5%  0.1%  P16..4: 13.1%  1.0%  5.2%  0.0%  0.0%    skip:79.5%
x264 [info]: mb B  I16..4:  0.0%  0.0%  0.0%  B16..8:  9.8%  0.2%  0.0%  direct: 0.1%  skip:89.9%  L0:29.0% L1:70.4% BI: 0.6%
x264 [info]: 8x8 transform intra:46.2% inter:52.4%
x264 [info]: direct mvs  spatial:100.0% temporal:0.0%
x264 [info]: coded y,uvDC,uvAC intra: 48.9% 46.6% 11.5% inter: 1.8% 2.9% 0.0%
x264 [info]: i16 v,h,dc,p: 33% 18% 13% 35%
x264 [info]: i8 v,h,dc,ddl,ddr,vr,hd,vl,hu: 13%  7% 14% 12% 12% 11% 11% 10% 10%
x264 [info]: i4 v,h,dc,ddl,ddr,vr,hd,vl,hu: 12%  7%  6% 13% 11% 11% 12% 11% 17%
x264 [info]: i8c dc,h,v,p: 50% 27% 16%  7%
x264 [info]: Weighted P-Frames: Y:0.3% UV:0.1%
x264 [info]: ref P L0: 79.8%  8.7%  5.4%  1.5%  1.4%  1.2%  1.3%  0.7%  0.0%
x264 [info]: ref B L0: 95.0%  2.6%  1.3%  0.4%  0.3%  0.2%  0.1%
x264 [info]: ref B L1: 99.0%  1.0%
x264 [info]: kb/s:572.66
[06:28:17] mux: track 0, 80011 frames, 381804985 bytes, 572.62 kbps, fifo 4096
[06:28:17] libhb: work result = 0




musicvid
Veteran User
Posts: 3923
Joined: Sat Jun 27, 2009 1:19 am

Re: 1.3.3 Encode failed

Post by musicvid »

Is this a recording of a broadcast?
rollin_eng
Veteran User
Posts: 3846
Joined: Wed May 04, 2011 11:06 pm

Re: 1.3.3 Encode failed

Post by rollin_eng »

Your logs are from version 1.0.7 and seems to show a completed encode.
Post Reply