"data" format?

HandBrake for Mac support
Forum rules
An Activity Log is required for support requests. Please read How-to get an activity log? for details on how and why this should be provided.
Post Reply
gill.mobilityflex
Posts: 2
Joined: Thu Jan 07, 2021 12:49 pm

"data" format?

Post by gill.mobilityflex »

Description of problem or question:
So I'm no tech pro so hoping this will be an easy fix and just me being clueless! I'm trying to compress a video file to upload to my website. I have never used Handbrake before but followed several different YouTube tutorials and this happened every time... after what appears to be a successful conversion of an MP4 file when I click the new file to open it I'm getting the message "The document “Daily CARs.mp4 Handbrake” could not be opened. QuickTime Player cannot open files in the “data” format." Do you know what's going on here?


Steps to reproduce the problem (If Applicable):




HandBrake version (e.g., 1.0.0):
1.3.3



Operating system and version (e.g., Ubuntu 16.04 LTS, macOS 10.13 High Sierra, Windows 10 Creators Update):
Mac OS Big Sur



HandBrake Activity Log ***required*** (see How-to get an activity log)

Code: Select all

[12:31:51] macgui: Handbrake Version: 1.3.3 (2020061300)
[12:31:51] hb_init: starting libhb thread
[12:31:51] Compile-time hardening features are enabled
[12:31:52] hb_init: starting libhb thread
[12:32:07] macgui: ScanCore scanning titles with a duration of 10 seconds or more
[12:32:07] CPU: 
[12:32:07]  - logical processor count: 8
[12:32:07] hb_scan: path=/Users/gillianlawson/Desktop/Daily CARs.mp4, title_index=0
udfread ERROR: ECMA 167 Volume Recognition failed
disc.c:323: failed opening UDF image /Users/gillianlawson/Desktop/Daily CARs.mp4
disc.c:424: error opening file BDMV/index.bdmv
disc.c:424: error opening file BDMV/BACKUP/index.bdmv
bluray.c:2585: nav_get_title_list(/Users/gillianlawson/Desktop/Daily CARs.mp4/) failed
[12:32:07] bd: not a bd - trying as a stream/file instead
libdvdnav: Using dvdnav version 6.0.1
libdvdread: Encrypted DVD support unavailable.
libdvdread:DVDOpenFileUDF:UDFFindFile /VIDEO_TS/VIDEO_TS.IFO failed
libdvdread:DVDOpenFileUDF:UDFFindFile /VIDEO_TS/VIDEO_TS.BUP failed
libdvdread: Can't open file VIDEO_TS.IFO.
libdvdnav: vm: failed to read VIDEO_TS.IFO
[12:32:07] dvd: not a dvd - trying as a stream/file instead
Input #0, mov,mp4,m4a,3gp,3g2,mj2, from '/Users/gillianlawson/Desktop/Daily CARs.mp4':
  Metadata:
    major_brand     : mp42
    minor_version   : 1
    compatible_brands: isommp41mp42
    creation_time   : 2021-01-05T22:29:08.000000Z
    comment         : This video is about Daily CARs
    author          : 
    title           : Daily CARs
  Duration: 00:13:23.34, start: 0.000000, bitrate: 19773 kb/s
    Stream #0:0(eng): Audio: aac (LC) (mp4a / 0x6134706D), 48000 Hz, stereo, fltp, 102 kb/s (default)
    Metadata:
      creation_time   : 2021-01-05T22:29:08.000000Z
      handler_name    : Core Media Audio
    Stream #0:1(und): Video: h264 (High) (avc1 / 0x31637661), yuv420p(tv, bt709, progressive), 1920x1080, 19664 kb/s, SAR 1:1 DAR 16:9, 29.97 fps, 29.97 tbr, 30k tbn, 60k tbc (default)
    Metadata:
      creation_time   : 2021-01-05T22:29:08.000000Z
      handler_name    : Core Media Video
[12:32:07] scan: decoding previews for title 1
[12:32:07] scan: audio 0x0: aac, rate=48000Hz, bitrate=102631 English (AAC LC) (2.0 ch) (102 kbps)
[12:32:08] scan: 10 previews, 1920x1080, 29.970 fps, autocrop = 0/0/238/238, aspect 16:9, PAR 1:1
[12:32:08] libhb: scan thread found 1 valid title(s)
[12:32:08] macgui: ScanCore scan done
[12:35:25] macgui: QueueCore scanning specifically for title: 1
[12:35:25] CPU: 
[12:35:25]  - logical processor count: 8
[12:35:25] hb_scan: path=/Users/gillianlawson/Desktop/Daily CARs.mp4, title_index=1
udfread ERROR: ECMA 167 Volume Recognition failed
disc.c:323: failed opening UDF image /Users/gillianlawson/Desktop/Daily CARs.mp4
disc.c:424: error opening file BDMV/index.bdmv
disc.c:424: error opening file BDMV/BACKUP/index.bdmv
bluray.c:2585: nav_get_title_list(/Users/gillianlawson/Desktop/Daily CARs.mp4/) failed
[12:35:25] bd: not a bd - trying as a stream/file instead
libdvdnav: Using dvdnav version 6.0.1
libdvdread: Encrypted DVD support unavailable.
libdvdread:DVDOpenFileUDF:UDFFindFile /VIDEO_TS/VIDEO_TS.IFO failed
libdvdread:DVDOpenFileUDF:UDFFindFile /VIDEO_TS/VIDEO_TS.BUP failed
libdvdread: Can't open file VIDEO_TS.IFO.
libdvdnav: vm: failed to read VIDEO_TS.IFO
[12:35:25] dvd: not a dvd - trying as a stream/file instead
Input #0, mov,mp4,m4a,3gp,3g2,mj2, from '/Users/gillianlawson/Desktop/Daily CARs.mp4':
  Metadata:
    major_brand     : mp42
    minor_version   : 1
    compatible_brands: isommp41mp42
    creation_time   : 2021-01-05T22:29:08.000000Z
    comment         : This video is about Daily CARs
    author          : 
    title           : Daily CARs
  Duration: 00:13:23.34, start: 0.000000, bitrate: 19773 kb/s
    Stream #0:0(eng): Audio: aac (LC) (mp4a / 0x6134706D), 48000 Hz, stereo, fltp, 102 kb/s (default)
    Metadata:
      creation_time   : 2021-01-05T22:29:08.000000Z
      handler_name    : Core Media Audio
    Stream #0:1(und): Video: h264 (High) (avc1 / 0x31637661), yuv420p(tv, bt709, progressive), 1920x1080, 19664 kb/s, SAR 1:1 DAR 16:9, 29.97 fps, 29.97 tbr, 30k tbn, 60k tbc (default)
    Metadata:
      creation_time   : 2021-01-05T22:29:08.000000Z
      handler_name    : Core Media Video
[12:35:25] scan: decoding previews for title 1
[12:35:25] scan: audio 0x0: aac, rate=48000Hz, bitrate=102631 English (AAC LC) (2.0 ch) (102 kbps)
[12:35:25] scan: 10 previews, 1920x1080, 29.970 fps, autocrop = 0/0/238/238, aspect 16:9, PAR 1:1
[12:35:25] libhb: scan thread found 1 valid title(s)
[12:35:25] macgui: QueueCore scan done
[12:35:25] macgui: QueueCore started encoding Daily CARs.mp4 Handbrake
[12:35:25] macgui: QueueCore with preset Fast 1080p30 (Modified)
[12:35:25] Starting work at: Thu Jan  7 12:35:25 2021

[12:35:25] 1 job(s) to process
[12:35:25] Starting Task: Encoding Pass
[12:35:25] work: only 1 chapter, disabling chapter markers
[12:35:25] job configuration:
[12:35:25]  * source
[12:35:25]    + /Users/gillianlawson/Desktop/Daily CARs.mp4
[12:35:25]    + title 1, chapter(s) 1 to 1
[12:35:25]    + container: mov,mp4,m4a,3gp,3g2,mj2
[12:35:25]    + data rate: 19773 kbps
[12:35:25]  * destination
[12:35:25]    + /Users/gillianlawson/Desktop/Daily CARs.mp4 Handbrake
[12:35:25]    + container: MPEG-4 (libavformat)
[12:35:25]      + optimized for HTTP streaming (fast start)
[12:35:25]      + align initial A/V stream timestamps
[12:35:25]  * video track
[12:35:25]    + decoder: h264
[12:35:25]      + bitrate 19664 kbps
[12:35:25]    + filters
[12:35:25]      + Comb Detect (mode=3:spatial-metric=2:motion-thresh=1:spatial-thresh=1:filter-mode=2:block-thresh=40:block-width=16:block-height=16)
[12:35:25]      + Decomb (mode=39)
[12:35:25]      + Framerate Shaper (mode=1:rate=27000000/900900)
[12:35:25]        + frame rate: 29.970 fps -> constant 29.970 fps
[12:35:25]      + Crop and Scale (width=1444:height=1080:crop-top=0:crop-bottom=0:crop-left=238:crop-right=238)
[12:35:25]        + source: 1920 * 1080, crop (0/0/238/238): 1444 * 1080, scale: 1444 * 1080
[12:35:25]    + Output geometry
[12:35:25]      + storage dimensions: 1444 x 1080
[12:35:25]      + pixel aspect ratio: 1 : 1
[12:35:25]      + display dimensions: 1444 x 1080
[12:35:25]    + encoder: H.264 (libx264)
[12:35:25]      + preset:  slow
[12:35:25]      + profile: main
[12:35:25]      + level:   4.0
[12:35:25]      + quality: 23.00 (RF)
[12:35:25]      + color profile: 1-1-1
[12:35:25]  * audio track 1
[12:35:25]    + decoder: English (AAC LC) (2.0 ch) (102 kbps) (track 1, id 0x0)
[12:35:25]      + bitrate: 102 kbps, samplerate: 48000 Hz
[12:35:25]    + mixdown: Stereo
[12:35:25]    + dither: triangular
[12:35:25]    + encoder: AAC (Apple AudioToolbox)
[12:35:25]      + bitrate: 160 kbps, samplerate: 48000 Hz
[12:35:25] sync: expecting 24076 video frames
[12:35:25] encx264: min-keyint: 30, keyint: 300
[12:35:25] encx264: encoding at constant RF 23.000000
[12:35:25] encx264: unparsed options: level=4.0:ref=5:direct=auto:8x8dct=0:subme=8:trellis=2:vbv-bufsize=25000:vbv-maxrate=20000:rc-lookahead=50
x264 [info]: using SAR=1/1
x264 [info]: using cpu capabilities: MMX2 SSE2Fast SSSE3 SSE4.2
x264 [info]: profile Main, level 4.0, 4:2:0, 8-bit
[12:35:25] sync: first pts video is 0
[12:35:25] sync: "Chapter 1" (1) at frame 1 time 0
[12:35:25] sync: first pts audio 0x0 is 0
[12:44:26] reader: done. 1 scr changes
[12:44:28] work: average encoding speed for job is 44.357105 fps
[12:44:28] comb detect: heavy 0 | light 4 | uncombed 24072 | total 24076
[12:44:28] decomb: deinterlaced 0 | blended 4 | unfiltered 24072 | total 24076
[12:44:28] vfr: 24076 frames output, 0 dropped and 0 duped for CFR/PFR
[12:44:28] vfr: lost time: 0 (0 frames)
[12:44:28] vfr: gained time: 0 (0 frames) (0 not accounted for)
[12:44:28] aac-decoder done: 37657 frames, 0 decoder errors
[12:44:28] h264-decoder done: 24076 frames, 0 decoder errors
[12:44:28] sync: got 24076 frames, 24076 expected
[12:44:28] sync: framerate min 29.970 fps, max 29.970 fps, avg 29.970 fps
x264 [info]: frame I:89    Avg QP:17.71  size: 98518
x264 [info]: frame P:6201  Avg QP:21.00  size:  8386
x264 [info]: frame B:17786 Avg QP:21.75  size:  1067
x264 [info]: consecutive B-frames:  0.7%  2.0%  1.3% 96.0%
x264 [info]: mb I  I16..4: 46.9%  0.0% 53.1%
x264 [info]: mb P  I16..4:  3.6%  0.0%  0.3%  P16..4: 29.6%  4.0%  4.5%  0.0%  0.0%    skip:58.1%
x264 [info]: mb B  I16..4:  0.1%  0.0%  0.0%  B16..8: 14.0%  0.3%  0.0%  direct: 0.3%  skip:85.3%  L0:29.4% L1:69.7% BI: 0.9%
x264 [info]: direct mvs  spatial:100.0% temporal:0.0%
x264 [info]: coded y,uvDC,uvAC intra: 18.4% 36.6% 12.5% inter: 1.6% 5.7% 0.0%
x264 [info]: i16 v,h,dc,p: 49% 22%  8% 21%
x264 [info]: i4 v,h,dc,ddl,ddr,vr,hd,vl,hu: 34%  9% 11%  6%  7% 10%  6%  7%  9%
x264 [info]: i8c dc,h,v,p: 49% 22% 22%  6%
x264 [info]: Weighted P-Frames: Y:0.9% UV:0.1%
x264 [info]: ref P L0: 68.3%  8.0% 13.8%  4.5%  5.3%  0.0%  0.0%
x264 [info]: ref B L0: 82.2% 12.8%  3.8%  1.2%
x264 [info]: ref B L1: 96.6%  3.4%
x264 [info]: kb/s:794.21
[12:44:28] mux: track 0, 24076 frames, 79748472 bytes, 794.11 kbps, fifo 4096
[12:44:28] mux: track 1, 37660 frames, 13262328 bytes, 132.06 kbps, fifo 8192
[12:44:28] Finished work at: Thu Jan  7 12:44:28 2021

[12:44:28] libhb: work result = 0
[12:44:29] macgui: Queue Done, there are no more pending encodes
[12:44:29] macgui: QueueCore work done

User avatar
Ritsuka
HandBrake Team
Posts: 1225
Joined: Fri Jan 12, 2007 11:29 am

Re: "data" format?

Post by Ritsuka »

".mp4" must at the end of the filename. Rename your file and put it at the end.
User avatar
Rodeo
HandBrake Team
Posts: 12714
Joined: Tue Mar 03, 2009 8:55 pm

Re: "data" format?

Post by Rodeo »

gill.mobilityflex wrote: Thu Jan 07, 2021 1:06 pm

Code: Select all

[12:35:25]  * destination
[12:35:25]    + /Users/gillianlawson/Desktop/Daily CARs.mp4 Handbrake
It looks like your output file has no extension, maybe try appending .mp4 to it?
gill.mobilityflex
Posts: 2
Joined: Thu Jan 07, 2021 12:49 pm

Re: "data" format?

Post by gill.mobilityflex »

Amazing guys, working perfectly now! Knew it would just be a wee thing and a case of me being clueless!!! Thanks so much!
Post Reply