Black screen at start

HandBrake for Mac support
Forum rules
An Activity Log is required for support requests. Please read How-to get an activity log? for details on how and why this should be provided.
Post Reply
Wayneb
New User
Posts: 1
Joined: Mon Jul 20, 2020 9:43 pm

Black screen at start

Post by Wayneb »

I have created training videos with Camtasia and then use Handbrake to reduce size before uploading to Vimeo. I am getting a black screen at the start of each video. I thought it was because my graphic at the start of each video had black lines at the top and bottom so I went and changed these to blue but get the same result. So when I play the video it starts as black for a fraction of a second. The preview in Finder is also a black screen.




Steps to reproduce the problem (If Applicable):




HandBrake version 1.2.0):




Operating system and version macOS 10.15.5 Catalina:




HandBrake Activity Log ***required*** (see How-to get an activity log)

Code: Select all

[06:35:37] macgui: Handbrake Version: 1.2.0  (2018122200)
[06:35:37] hb_init: starting libhb thread
[06:35:37] hb_init: starting libhb thread
[06:35:48] macgui: trying to open a folder or file
[06:35:48] macgui: ScanCore scanning titles with a duration of 10 seconds or more
[06:35:48] CPU: Intel(R) Core(TM) i7-4870HQ CPU @ 2.50GHz
[06:35:48]  - Intel microarchitecture Haswell
[06:35:48]  - logical processor count: 8
[06:35:48] hb_scan: path=/Users/wayneburgan/Documents/Academy, title_index=0
disc.c:424: error opening file BDMV/index.bdmv
disc.c:424: error opening file BDMV/BACKUP/index.bdmv
[06:35:48] bd: not a bd - trying as a stream/file instead
libdvdnav: Using dvdnav version 6.0.0
libdvdread: Encrypted DVD support unavailable.
libdvdread: Couldn't find device name.
libdvdread:DVDOpenFilePath:findDVDFile /VIDEO_TS/VIDEO_TS.IFO failed
libdvdread:DVDOpenFilePath:findDVDFile /VIDEO_TS/VIDEO_TS.BUP failed
libdvdread: Can't open file VIDEO_TS.IFO.
libdvdnav: vm: failed to read VIDEO_TS.IFO
[06:35:48] dvd: not a dvd - trying as a stream/file instead
[06:35:48] batch: scanning /Users/wayneburgan/Documents/Academy/.DS_Store
[06:35:48] hb_stream_open: open /Users/wayneburgan/Documents/Academy/.DS_Store failed
[06:35:48] batch: scanning /Users/wayneburgan/Documents/Academy/100 Survival Tips for Small Business Owners.docx
[06:35:48] hb_stream_open: open /Users/wayneburgan/Documents/Academy/100 Survival Tips for Small Business Owners.docx failed
[06:35:48] batch: scanning /Users/wayneburgan/Documents/Academy/Academy Social Media Resources.xlsx
[06:35:48] hb_stream_open: open /Users/wayneburgan/Documents/Academy/Academy Social Media Resources.xlsx failed
[06:35:48] batch: scanning /Users/wayneburgan/Documents/Academy/Academy-welcome-200717-2.mp4
Input #0, mov,mp4,m4a,3gp,3g2,mj2, from '/Users/wayneburgan/Documents/Academy/Academy-welcome-200717-2.mp4':
  Metadata:
    major_brand     : mp42
    minor_version   : 512
    compatible_brands: isomiso2avc1mp41
    creation_time   : 2020-07-17T00:42:06.000000Z
    encoder         : HandBrake 1.2.0 2018122200
  Duration: 00:33:02.57, start: 0.000000, bitrate: 438 kb/s
    Stream #0:0(und): Video: h264 (Main) (avc1 / 0x31637661), yuv420p(tv, smpte170m/smpte170m/bt709), 1280x720 [SAR 1:1 DAR 16:9], 304 kb/s, 30 fps, 30 tbr, 90k tbn, 180k tbc (default)
    Metadata:
      creation_time   : 2020-07-17T00:42:06.000000Z
      handler_name    : VideoHandler
    Stream #0:1(und): Audio: aac (LC) (mp4a / 0x6134706D), 44100 Hz, stereo, fltp, 125 kb/s (default)
    Metadata:
      creation_time   : 2020-07-17T00:42:06.000000Z
      handler_name    : SoundHandler
[06:35:48] batch: scanning /Users/wayneburgan/Documents/Academy/Academy-welcome-200717-camtasia-2.mp4
Input #0, mov,mp4,m4a,3gp,3g2,mj2, from '/Users/wayneburgan/Documents/Academy/Academy-welcome-200717-camtasia-2.mp4':
  Metadata:
    major_brand     : mp42
    minor_version   : 1
    compatible_brands: isommp41mp42
    creation_time   : 2020-07-17T00:31:35.000000Z
  Duration: 00:33:02.43, start: 0.000000, bitrate: 3385 kb/s
    Stream #0:0(und): Video: h264 (Main) (avc1 / 0x31637661), yuv420p(tv, smpte170m/smpte170m/bt709), 1280x720 [SAR 1:1 DAR 16:9], 3280 kb/s, 30 fps, 30 tbr, 600 tbn, 1200 tbc (default)
    Metadata:
      creation_time   : 2020-07-17T00:31:35.000000Z
      handler_name    : Core Media Video
    Stream #0:1(und): Audio: aac (LC) (mp4a / 0x6134706D), 44100 Hz, stereo, fltp, 101 kb/s (default)
    Metadata:
      creation_time   : 2020-07-17T00:31:35.000000Z
      handler_name    : Core Media Audio
[06:35:48] batch: scanning /Users/wayneburgan/Documents/Academy/Academy-welcome-200717-camtasia.mp4
Input #0, mov,mp4,m4a,3gp,3g2,mj2, from '/Users/wayneburgan/Documents/Academy/Academy-welcome-200717-camtasia.mp4':
  Metadata:
    major_brand     : mp42
    minor_version   : 1
    compatible_brands: isommp41mp42
    creation_time   : 2020-07-16T23:26:37.000000Z
  Duration: 00:18:37.33, start: 0.000000, bitrate: 4247 kb/s
    Stream #0:0(und): Video: h264 (Main) (avc1 / 0x31637661), yuv420p(tv, smpte170m/smpte170m/bt709), 1280x720 [SAR 1:1 DAR 16:9], 4140 kb/s, 30 fps, 30 tbr, 600 tbn, 1200 tbc (default)
    Metadata:
      creation_time   : 2020-07-16T23:26:37.000000Z
      handler_name    : Core Media Video
    Stream #0:1(und): Audio: aac (LC) (mp4a / 0x6134706D), 44100 Hz, stereo, fltp, 104 kb/s (default)
    Metadata:
      creation_time   : 2020-07-16T23:26:37.000000Z
      handler_name    : Core Media Audio
[06:35:48] batch: scanning /Users/wayneburgan/Documents/Academy/Academy-welcome-200717.mp4
Input #0, mov,mp4,m4a,3gp,3g2,mj2, from '/Users/wayneburgan/Documents/Academy/Academy-welcome-200717.mp4':
  Metadata:
    major_brand     : mp42
    minor_version   : 512
    compatible_brands: isomiso2avc1mp41
    creation_time   : 2020-07-17T00:04:46.000000Z
    encoder         : HandBrake 1.2.0 2018122200
  Duration: 00:18:37.46, start: 0.000000, bitrate: 534 kb/s
    Stream #0:0(und): Video: h264 (Main) (avc1 / 0x31637661), yuv420p(tv, smpte170m/smpte170m/bt709), 1280x720 [SAR 1:1 DAR 16:9], 395 kb/s, 30 fps, 30 tbr, 90k tbn, 180k tbc (default)
    Metadata:
      creation_time   : 2020-07-17T00:04:46.000000Z
      handler_name    : VideoHandler
    Stream #0:1(und): Audio: aac (LC) (mp4a / 0x6134706D), 44100 Hz, stereo, fltp, 129 kb/s (default)
    Metadata:
      creation_time   : 2020-07-17T00:04:46.000000Z
      handler_name    : SoundHandler
[06:35:48] batch: scanning /Users/wayneburgan/Documents/Academy/AdBusinessPlan.jpg
Input #0, image2, from '/Users/wayneburgan/Documents/Academy/AdBusinessPlan.jpg':
  Duration: 00:00:00.04, start: 0.000000, bitrate: 63752 kb/s
    Stream #0:0: Video: mjpeg, yuvj444p(pc, bt470bg/unknown/unknown), 1800x483 [SAR 72:72 DAR 600:161], 25 tbr, 25 tbn, 25 tbc
[06:35:48] batch: ignoring title (too short)
[06:35:48] batch: scanning /Users/wayneburgan/Documents/Academy/Compass-video-1.mp4
Input #0, mov,mp4,m4a,3gp,3g2,mj2, from '/Users/wayneburgan/Documents/Academy/Compass-video-1.mp4':
  Metadata:
    major_brand     : mp42
    minor_version   : 512
    compatible_brands: isomiso2avc1mp41
    creation_time   : 2020-07-19T07:49:14.000000Z
    encoder         : HandBrake 1.2.0 2018122200
  Duration: 00:01:39.01, start: 0.000000, bitrate: 2966 kb/s
    Stream #0:0(und): Video: h264 (High) (avc1 / 0x31637661), yuv420p(tv, smpte170m/smpte170m/bt709), 1280x720 [SAR 1:1 DAR 16:9], 2712 kb/s, 30 fps, 30 tbr, 90k tbn, 180k tbc (default)
    Metadata:
      creation_time   : 2020-07-19T07:49:14.000000Z
      handler_name    : VideoHandler
    Stream #0:1(und): Audio: aac (LC) (mp4a / 0x6134706D), 48000 Hz, mono, fltp, 247 kb/s (default)
    Metadata:
      creation_time   : 2020-07-19T07:49:14.000000Z
      handler_name    : SoundHandler
[06:35:48] batch: scanning /Users/wayneburgan/Documents/Academy/Doing the best I can video copyright.docx
[06:35:48] hb_stream_open: open /Users/wayneburgan/Documents/Academy/Doing the best I can video copyright.docx failed
[06:35:48] batch: scanning /Users/wayneburgan/Documents/Academy/Download_links_for_Local_Business_Video_MEGA_PACK.zip
[06:35:48] hb_stream_open: open /Users/wayneburgan/Documents/Academy/Download_links_for_Local_Business_Video_MEGA_PACK.zip failed
[06:35:48] batch: scanning /Users/wayneburgan/Documents/Academy/MentalGame-200508-no-top.mp4
Input #0, mov,mp4,m4a,3gp,3g2,mj2, from '/Users/wayneburgan/Documents/Academy/MentalGame-200508-no-top.mp4':
  Metadata:
    major_brand     : mp42
    minor_version   : 1
    compatible_brands: isommp41mp42
    creation_time   : 2020-05-08T00:55:58.000000Z
  Duration: 00:22:16.60, start: 0.000000, bitrate: 481 kb/s
    Stream #0:0(und): Video: h264 (Main) (avc1 / 0x31637661), yuv420p(tv, smpte170m/smpte170m/bt709), 1280x720 [SAR 1:1 DAR 16:9], 416 kb/s, 15 fps, 15 tbr, 600 tbn, 1200 tbc (default)
    Metadata:
      creation_time   : 2020-05-08T00:55:58.000000Z
      handler_name    : Core Media Video
    Stream #0:1(und): Audio: aac (LC) (mp4a / 0x6134706D), 44100 Hz, stereo, fltp, 62 kb/s (default)
    Metadata:
      creation_time   : 2020-05-08T00:55:58.000000Z
      handler_name    : Core Media Audio
[06:35:48] batch: scanning /Users/wayneburgan/Documents/Academy/MentalGame-original.mp4
Input #0, mov,mp4,m4a,3gp,3g2,mj2, from '/Users/wayneburgan/Documents/Academy/MentalGame-original.mp4':
  Metadata:
    major_brand     : mp42
    minor_version   : 0
    compatible_brands: mp42mp41isomavc1
    creation_time   : 2016-10-21T05:49:14.000000Z
  Duration: 00:22:16.64, start: 0.000000, bitrate: 444 kb/s
    Stream #0:0(und): Video: h264 (High) (avc1 / 0x31637661), yuv420p(tv, bt709), 1280x720 [SAR 1:1 DAR 16:9], 205 kb/s, 15 fps, 15 tbr, 15 tbn, 30 tbc (default)
    Metadata:
      creation_time   : 2016-10-21T05:49:14.000000Z
      handler_name    : L-SMASH Video Handler
      encoder         : AVC Coding
    Stream #0:1(und): Audio: aac (LC) (mp4a / 0x6134706D), 48000 Hz, stereo, fltp, 235 kb/s (default)
    Metadata:
      creation_time   : 2016-10-21T05:49:14.000000Z
      handler_name    : L-SMASH Audio Handler
[06:35:48] batch: scanning /Users/wayneburgan/Documents/Academy/MentalGame.mp4
Input #0, mov,mp4,m4a,3gp,3g2,mj2, from '/Users/wayneburgan/Documents/Academy/MentalGame.mp4':
  Metadata:
    major_brand     : mp42
    minor_version   : 1
    compatible_brands: isommp41mp42
    creation_time   : 2020-05-08T01:07:43.000000Z
  Duration: 00:22:23.93, start: 0.000000, bitrate: 494 kb/s
    Stream #0:0(und): Video: h264 (Main) (avc1 / 0x31637661), yuv420p(tv, smpte170m/smpte170m/bt709), 1280x720 [SAR 1:1 DAR 16:9], 429 kb/s, 15 fps, 15 tbr, 600 tbn, 1200 tbc (default)
    Metadata:
      creation_time   : 2020-05-08T01:07:43.000000Z
      handler_name    : Core Media Video
    Stream #0:1(und): Audio: aac (LC) (mp4a / 0x6134706D), 44100 Hz, stereo, fltp, 62 kb/s (default)
    Metadata:
      creation_time   : 2020-05-08T01:07:43.000000Z
      handler_name    : Core Media Audio
[06:35:48] batch: scanning /Users/wayneburgan/Documents/Academy/SESBA-Viddyoze-Intro.mp4
Input #0, mov,mp4,m4a,3gp,3g2,mj2, from '/Users/wayneburgan/Documents/Academy/SESBA-Viddyoze-Intro.mp4':
  Metadata:
    major_brand     : mp42
    minor_version   : 1
    compatible_brands: isommp41mp42
    creation_time   : 2020-05-08T05:34:36.000000Z
  Duration: 00:00:08.33, start: 0.000000, bitrate: 3060 kb/s
    Stream #0:0(und): Video: h264 (Main) (avc1 / 0x31637661), yuv420p(tv, smpte170m/smpte170m/bt709), 1280x720 [SAR 1:1 DAR 16:9], 2932 kb/s, 30 fps, 30 tbr, 600 tbn, 1200 tbc (default)
    Metadata:
      creation_time   : 2020-05-08T05:34:36.000000Z
      handler_name    : Core Media Video
    Stream #0:1(und): Audio: aac (LC) (mp4a / 0x6134706D), 44100 Hz, stereo, fltp, 123 kb/s (default)
    Metadata:
      creation_time   : 2020-05-08T05:34:36.000000Z
      handler_name    : Core Media Audio
[06:35:48] batch: ignoring title (too short)
[06:35:48] batch: scanning /Users/wayneburgan/Documents/Academy/SOP-Template-SESEBA180809.doc
[06:35:48] hb_stream_open: open /Users/wayneburgan/Documents/Academy/SOP-Template-SESEBA180809.doc failed
[06:35:48] batch: scanning /Users/wayneburgan/Documents/Academy/Survey Swipe - Content Sparks.docx
[06:35:48] hb_stream_open: open /Users/wayneburgan/Documents/Academy/Survey Swipe - Content Sparks.docx failed
[06:35:48] batch: scanning /Users/wayneburgan/Documents/Academy/The Big 4 duplications.docx
[06:35:48] hb_stream_open: open /Users/wayneburgan/Documents/Academy/The Big 4 duplications.docx failed
[06:35:48] batch: scanning /Users/wayneburgan/Documents/Academy/To-Do.xlsx
[06:35:48] hb_stream_open: open /Users/wayneburgan/Documents/Academy/To-Do.xlsx failed
[06:35:48] batch: scanning /Users/wayneburgan/Documents/Academy/Todo 2005.xlsx
[mp3 @ 0x7f8c381baa00] Failed to read frame size: Could not seek to 10716.
[06:35:48] hb_stream_open: open /Users/wayneburgan/Documents/Academy/Todo 2005.xlsx failed
[06:35:48] batch: scanning /Users/wayneburgan/Documents/Academy/the-best-i-can-do-bud.mp4
Input #0, mov,mp4,m4a,3gp,3g2,mj2, from '/Users/wayneburgan/Documents/Academy/the-best-i-can-do-bud.mp4':
  Metadata:
    major_brand     : isom
    minor_version   : 512
    compatible_brands: isomiso2avc1mp41
    encoder         : Lavf58.29.100
  Duration: 00:06:28.99, start: 0.000000, bitrate: 602 kb/s
    Stream #0:0(und): Video: h264 (Constrained Baseline) (avc1 / 0x31637661), yuv420p, 1280x720, 467 kb/s, 29.97 fps, 29.97 tbr, 30k tbn, 59.94 tbc (default)
    Metadata:
      handler_name    : VideoHandler
    Stream #0:1(und): Audio: aac (LC) (mp4a / 0x6134706D), 44100 Hz, stereo, fltp, 128 kb/s (default)
    Metadata:
      handler_name    : SoundHandler
[06:35:48] batch: scanning /Users/wayneburgan/Documents/Academy/the-best-i-can-do-oscar.mp4
Input #0, mov,mp4,m4a,3gp,3g2,mj2, from '/Users/wayneburgan/Documents/Academy/the-best-i-can-do-oscar.mp4':
  Metadata:
    major_brand     : isom
    minor_version   : 512
    compatible_brands: isomiso2avc1mp41
    encoder         : Lavf58.29.100
  Duration: 00:05:34.20, start: 0.000000, bitrate: 618 kb/s
    Stream #0:0(und): Video: h264 (Constrained Baseline) (avc1 / 0x31637661), yuv420p, 1280x720, 482 kb/s, 29.97 fps, 29.97 tbr, 30k tbn, 59.94 tbc (default)
    Metadata:
      handler_name    : VideoHandler
    Stream #0:1(und): Audio: aac (LC) (mp4a / 0x6134706D), 44100 Hz, stereo, fltp, 129 kb/s (default)
    Metadata:
      handler_name    : SoundHandler
[06:35:48] batch: scanning /Users/wayneburgan/Documents/Academy/wc-product-export-15-12-2019-1576403363678.csv
[06:35:48] hb_stream_open: open /Users/wayneburgan/Documents/Academy/wc-product-export-15-12-2019-1576403363678.csv failed
[06:35:48] batch: scanning /Users/wayneburgan/Documents/Academy/wc-product-export-15-12-2019-accountezytest.csv
[06:35:48] hb_stream_open: open /Users/wayneburgan/Documents/Academy/wc-product-export-15-12-2019-accountezytest.csv failed
[06:35:48] batch: scanning /Users/wayneburgan/Documents/Academy/wc-product-export-15-12-2019-amended-1576403363678.csv
[06:35:48] hb_stream_open: open /Users/wayneburgan/Documents/Academy/wc-product-export-15-12-2019-amended-1576403363678.csv failed
[06:35:48] scan: decoding previews for title 4 (/Users/wayneburgan/Documents/Academy/Academy-welcome-200717-2.mp4)
[06:35:48] scan: audio 0x1: aac, rate=44100Hz, bitrate=125850 Unknown (AAC LC) (2.0 ch)
[06:35:48] scan: 10 previews, 1280x720, 30.000 fps, autocrop = 0/0/0/0, aspect 16:9, PAR 1:1
[06:35:48] scan: decoding previews for title 5 (/Users/wayneburgan/Documents/Academy/Academy-welcome-200717-camtasia-2.mp4)
[06:35:48] scan: audio 0x1: aac, rate=44100Hz, bitrate=101522 Unknown (AAC LC) (2.0 ch)
[06:35:49] scan: 10 previews, 1280x720, 30.000 fps, autocrop = 0/0/0/0, aspect 16:9, PAR 1:1
[06:35:49] scan: decoding previews for title 6 (/Users/wayneburgan/Documents/Academy/Academy-welcome-200717-camtasia.mp4)
[06:35:49] scan: audio 0x1: aac, rate=44100Hz, bitrate=104231 Unknown (AAC LC) (2.0 ch)
[06:35:49] scan: 10 previews, 1280x720, 30.000 fps, autocrop = 0/0/0/0, aspect 16:9, PAR 1:1
[06:35:49] scan: decoding previews for title 7 (/Users/wayneburgan/Documents/Academy/Academy-welcome-200717.mp4)
[06:35:49] scan: audio 0x1: aac, rate=44100Hz, bitrate=129264 Unknown (AAC LC) (2.0 ch)
[06:35:49] scan: 10 previews, 1280x720, 30.000 fps, autocrop = 0/0/0/0, aspect 16:9, PAR 1:1
[06:35:49] scan: decoding previews for title 9 (/Users/wayneburgan/Documents/Academy/Compass-video-1.mp4)
[06:35:49] scan: audio 0x1: aac, rate=48000Hz, bitrate=247500 Unknown (AAC LC) (1.0 ch)
[06:35:49] scan: 10 previews, 1280x720, 30.000 fps, autocrop = 0/0/0/0, aspect 16:9, PAR 1:1
[06:35:49] scan: decoding previews for title 12 (/Users/wayneburgan/Documents/Academy/MentalGame-200508-no-top.mp4)
[06:35:49] scan: audio 0x1: aac, rate=44100Hz, bitrate=62866 Unknown (AAC LC) (2.0 ch)
[06:35:50] scan: 10 previews, 1280x720, 15.000 fps, autocrop = 0/48/0/8, aspect 16:9, PAR 1:1
[06:35:50] scan: decoding previews for title 13 (/Users/wayneburgan/Documents/Academy/MentalGame-original.mp4)
[06:35:50] scan: audio 0x1: aac, rate=48000Hz, bitrate=235200 Unknown (AAC LC) (2.0 ch)
[06:35:50] scan: 10 previews, 1280x720, 15.000 fps, autocrop = 0/48/0/8, aspect 16:9, PAR 1:1
[06:35:50] scan: decoding previews for title 14 (/Users/wayneburgan/Documents/Academy/MentalGame.mp4)
[06:35:50] scan: audio 0x1: aac, rate=44100Hz, bitrate=62868 Unknown (AAC LC) (2.0 ch)
[06:35:50] scan: 10 previews, 1280x720, 15.000 fps, autocrop = 0/48/0/8, aspect 16:9, PAR 1:1
[06:35:50] scan: decoding previews for title 21 (/Users/wayneburgan/Documents/Academy/the-best-i-can-do-bud.mp4)
[06:35:50] scan: audio 0x1: aac, rate=44100Hz, bitrate=128496 Unknown (AAC LC) (2.0 ch)
[06:35:50] scan: 10 previews, 1280x720, 29.970 fps, autocrop = 0/0/0/0, aspect 16:9, PAR 1:1
[06:35:50] scan: decoding previews for title 22 (/Users/wayneburgan/Documents/Academy/the-best-i-can-do-oscar.mp4)
[06:35:50] scan: audio 0x1: aac, rate=44100Hz, bitrate=129492 Unknown (AAC LC) (2.0 ch)
[06:35:50] scan: 10 previews, 1280x720, 29.970 fps, autocrop = 0/0/0/0, aspect 16:9, PAR 1:1
[06:35:50] libhb: scan thread found 10 valid title(s)
[06:35:51] macgui: ScanCore scan done
[06:36:14] macgui: trying to open a folder or file
[06:36:14] macgui: ScanCore scanning titles with a duration of 10 seconds or more
[06:36:14] CPU: Intel(R) Core(TM) i7-4870HQ CPU @ 2.50GHz
[06:36:14]  - Intel microarchitecture Haswell
[06:36:14]  - logical processor count: 8
[06:36:14] hb_scan: path=/Users/wayneburgan/Documents/Academy/Courses/Facebook 2020/Videos/FB0-introduction.mp4, title_index=0
udfread ERROR: ECMA 167 Volume Recognition failed
disc.c:323: failed opening UDF image /Users/wayneburgan/Documents/Academy/Courses/Facebook 2020/Videos/FB0-introduction.mp4
disc.c:424: error opening file BDMV/index.bdmv
disc.c:424: error opening file BDMV/BACKUP/index.bdmv
[06:36:14] bd: not a bd - trying as a stream/file instead
libdvdnav: Using dvdnav version 6.0.0
libdvdread: Encrypted DVD support unavailable.
libdvdread:DVDOpenFileUDF:UDFFindFile /VIDEO_TS/VIDEO_TS.IFO failed
libdvdread:DVDOpenFileUDF:UDFFindFile /VIDEO_TS/VIDEO_TS.BUP failed
libdvdread: Can't open file VIDEO_TS.IFO.
libdvdnav: vm: failed to read VIDEO_TS.IFO
[06:36:14] dvd: not a dvd - trying as a stream/file instead
Input #0, mov,mp4,m4a,3gp,3g2,mj2, from '/Users/wayneburgan/Documents/Academy/Courses/Facebook 2020/Videos/FB0-introduction.mp4':
  Metadata:
    major_brand     : mp42
    minor_version   : 1
    compatible_brands: isommp41mp42
    creation_time   : 2020-07-19T08:28:14.000000Z
  Duration: 00:02:05.43, start: 0.000000, bitrate: 2117 kb/s
    Stream #0:0(und): Video: h264 (Main) (avc1 / 0x31637661), yuv420p(tv, smpte170m/smpte170m/bt709), 1280x720 [SAR 1:1 DAR 16:9], 1864 kb/s, 30 fps, 30 tbr, 600 tbn, 1200 tbc (default)
    Metadata:
      creation_time   : 2020-07-19T08:28:14.000000Z
      handler_name    : Core Media Video
    Stream #0:1(und): Audio: aac (LC) (mp4a / 0x6134706D), 44100 Hz, stereo, fltp, 250 kb/s (default)
    Metadata:
      creation_time   : 2020-07-19T08:28:14.000000Z
      handler_name    : Core Media Audio
[06:36:14] scan: decoding previews for title 1
[06:36:14] scan: audio 0x1: aac, rate=44100Hz, bitrate=250062 Unknown (AAC LC) (2.0 ch)
[06:36:14] scan: 10 previews, 1280x720, 30.000 fps, autocrop = 0/0/0/0, aspect 16:9, PAR 1:1
[06:36:14] libhb: scan thread found 1 valid title(s)
[06:36:15] macgui: ScanCore scan done
[06:37:34] macgui: QueueCore prevented sleep
[06:37:34] macgui: QueueCore scanning specifically for title: 1
[06:37:34] CPU: Intel(R) Core(TM) i7-4870HQ CPU @ 2.50GHz
[06:37:34]  - Intel microarchitecture Haswell
[06:37:34]  - logical processor count: 8
[06:37:34] hb_scan: path=/Users/wayneburgan/Documents/Academy/Courses/Facebook 2020/Videos/FB0-introduction.mp4, title_index=1
udfread ERROR: ECMA 167 Volume Recognition failed
disc.c:323: failed opening UDF image /Users/wayneburgan/Documents/Academy/Courses/Facebook 2020/Videos/FB0-introduction.mp4
disc.c:424: error opening file BDMV/index.bdmv
disc.c:424: error opening file BDMV/BACKUP/index.bdmv
[06:37:34] bd: not a bd - trying as a stream/file instead
libdvdnav: Using dvdnav version 6.0.0
libdvdread: Encrypted DVD support unavailable.
libdvdread:DVDOpenFileUDF:UDFFindFile /VIDEO_TS/VIDEO_TS.IFO failed
libdvdread:DVDOpenFileUDF:UDFFindFile /VIDEO_TS/VIDEO_TS.BUP failed
libdvdread: Can't open file VIDEO_TS.IFO.
libdvdnav: vm: failed to read VIDEO_TS.IFO
[06:37:34] dvd: not a dvd - trying as a stream/file instead
Input #0, mov,mp4,m4a,3gp,3g2,mj2, from '/Users/wayneburgan/Documents/Academy/Courses/Facebook 2020/Videos/FB0-introduction.mp4':
  Metadata:
    major_brand     : mp42
    minor_version   : 1
    compatible_brands: isommp41mp42
    creation_time   : 2020-07-19T08:28:14.000000Z
  Duration: 00:02:05.43, start: 0.000000, bitrate: 2117 kb/s
    Stream #0:0(und): Video: h264 (Main) (avc1 / 0x31637661), yuv420p(tv, smpte170m/smpte170m/bt709), 1280x720 [SAR 1:1 DAR 16:9], 1864 kb/s, 30 fps, 30 tbr, 600 tbn, 1200 tbc (default)
    Metadata:
      creation_time   : 2020-07-19T08:28:14.000000Z
      handler_name    : Core Media Video
    Stream #0:1(und): Audio: aac (LC) (mp4a / 0x6134706D), 44100 Hz, stereo, fltp, 250 kb/s (default)
    Metadata:
      creation_time   : 2020-07-19T08:28:14.000000Z
      handler_name    : Core Media Audio
[06:37:34] scan: decoding previews for title 1
[06:37:34] scan: audio 0x1: aac, rate=44100Hz, bitrate=250062 Unknown (AAC LC) (2.0 ch)
[06:37:34] scan: 10 previews, 1280x720, 30.000 fps, autocrop = 0/0/0/0, aspect 16:9, PAR 1:1
[06:37:34] libhb: scan thread found 1 valid title(s)
[06:37:34] macgui: QueueCore scan done
[06:37:34] 1 job(s) to process
[06:37:34] starting job
[06:37:34] macgui: QueueCore started encoding FB0-introduction.mp4
[06:37:34] macgui: QueueCore with preset Vimeo YouTube 720p30
[06:37:34] decomb filter thread started for segment 0
[06:37:34] decomb filter thread started for segment 1
[06:37:34] decomb filter thread started for segment 2
[06:37:34] decomb filter thread started for segment 3
[06:37:34] decomb filter thread started for segment 4
[06:37:34] decomb filter thread started for segment 6
[06:37:34] decomb filter thread started for segment 7
[06:37:34] decomb filter thread started for segment 5
[06:37:34] decomb check thread started for segment 0
[06:37:34] decomb check thread started for segment 1
[06:37:34] decomb check thread started for segment 2
[06:37:34] decomb check thread started for segment 3
[06:37:34] decomb check thread started for segment 5
[06:37:34] decomb check thread started for segment 4
[06:37:34] decomb check thread started for segment 7
[06:37:34] decomb check thread started for segment 6
[06:37:34] mask filter thread started for segment 0
[06:37:34] mask filter thread started for segment 1
[06:37:34] mask filter thread started for segment 2
[06:37:34] mask filter thread started for segment 5
[06:37:34] mask filter thread started for segment 4
[06:37:34] mask filter thread started for segment 7
[06:37:34] mask filter thread started for segment 6
[06:37:34] mask erode thread started for segment 1
[06:37:34] mask erode thread started for segment 0
[06:37:34] mask erode thread started for segment 3
[06:37:34] mask filter thread started for segment 3
[06:37:34] mask erode thread started for segment 6
[06:37:34] mask erode thread started for segment 4
[06:37:34] mask dilate thread started for segment 0
[06:37:34] mask erode thread started for segment 2
[06:37:34] mask erode thread started for segment 7
[06:37:34] mask dilate thread started for segment 1
[06:37:34] mask dilate thread started for segment 3
[06:37:34] mask erode thread started for segment 5
[06:37:34] mask dilate thread started for segment 2
[06:37:34] mask dilate thread started for segment 4
[06:37:34] mask dilate thread started for segment 5
[06:37:34] mask dilate thread started for segment 6
[06:37:34] mask dilate thread started for segment 7
[06:37:34] yadif thread started for segment 1
[06:37:34] yadif thread started for segment 2
[06:37:34] yadif thread started for segment 0
[06:37:34] yadif thread started for segment 3
[06:37:34] yadif thread started for segment 4
[06:37:34] yadif thread started for segment 5
[06:37:34] yadif thread started for segment 6
[06:37:34] yadif thread started for segment 7
[06:37:34] work: only 1 chapter, disabling chapter markers
[06:37:34] job configuration:
[06:37:34]  * source
[06:37:34]    + /Users/wayneburgan/Documents/Academy/Courses/Facebook 2020/Videos/FB0-introduction.mp4
[06:37:34]    + title 1, chapter(s) 1 to 1
[06:37:34]    + container: mov,mp4,m4a,3gp,3g2,mj2
[06:37:34]    + data rate: 2117 kbps
[06:37:34]  * destination
[06:37:34]    + /Users/wayneburgan/Documents/Academy/Courses/Facebook 2020/Videos/Handbrake/FB0-introduction.mp4
[06:37:34]    + container: MPEG-4 (libavformat)
[06:37:34]      + optimized for HTTP streaming (fast start)
[06:37:34]      + align initial A/V stream timestamps
[06:37:34]  * video track
[06:37:34]    + decoder: h264
[06:37:34]      + bitrate 1864 kbps
[06:37:34]    + filters
[06:37:34]      + Comb Detect (mode=3:spatial-metric=2:motion-thresh=1:spatial-thresh=1:filter-mode=2:block-thresh=40:block-width=16:block-height=16)
[06:37:34]      + Decomb (mode=39)
[06:37:34]      + Framerate Shaper (mode=2:rate=27000000/900000)
[06:37:34]        + frame rate: 30.000 fps -> peak rate limited to 30.000 fps
[06:37:34]      + Crop and Scale (width=1280:height=720:crop-top=0:crop-bottom=0:crop-left=0:crop-right=0)
[06:37:34]        + source: 1280 * 720, crop (0/0/0/0): 1280 * 720, scale: 1280 * 720
[06:37:34]    + Output geometry
[06:37:34]      + storage dimensions: 1280 x 720
[06:37:34]      + pixel aspect ratio: 1 : 1
[06:37:34]      + display dimensions: 1280 x 720
[06:37:34]    + encoder: H.264 (libx264)
[06:37:34]      + preset:  medium
[06:37:34]      + options: keyint=30:min-keyint=15:ref=1:bframes=2:b-pyramid=none
[06:37:34]      + profile: high
[06:37:34]      + level:   3.2
[06:37:34]      + quality: 22.00 (RF)
[06:37:34]      + color profile: 6-1-6
[06:37:34]  * audio track 1
[06:37:34]    + decoder: Unknown (AAC LC) (2.0 ch) (track 1, id 0x1)
[06:37:34]      + bitrate: 250 kbps, samplerate: 44100 Hz
[06:37:34]    + mixdown: Stereo
[06:37:34]    + dither: triangular
[06:37:34]    + encoder: AAC (Apple AudioToolbox)
[06:37:34]      + bitrate: 320 kbps, samplerate: 48000 Hz
[06:37:34] sync: expecting 3762 video frames
[06:37:34] encx264: min-keyint: 15, keyint: 30
[06:37:34] encx264: encoding at constant RF 22.000000
[06:37:34] encx264: unparsed options: keyint=30:keyint-min=15:ref=1:bframes=2:b-pyramid=none:level=3.2:vbv-bufsize=25000:vbv-maxrate=25000
x264 [info]: using SAR=1/1
x264 [info]: using cpu capabilities: MMX2 SSE2Fast SSSE3 SSE4.2 AVX FMA3 BMI2 AVX2
x264 [info]: profile High, level 3.2, 4:2:0, 8-bit
[06:37:34] sync: first pts video is 0
[06:37:34] sync: first pts audio 0x1 is 0
[06:37:34] sync: "Chapter 1" (1) at frame 2 time 4310
[06:37:53] reader: done. 1 scr changes
[06:37:53] work: average encoding speed for job is 200.155029 fps
[06:37:53] comb detect: heavy 3 | light 24 | uncombed 3737 | total 3764
[06:37:53] decomb: deinterlaced 3 | blended 24 | unfiltered 3737 | total 3764
[06:37:53] vfr: 3764 frames output, 0 dropped and 0 duped for CFR/PFR
[06:37:53] vfr: lost time: 0 (0 frames)
[06:37:53] vfr: gained time: 0 (0 frames) (0 not accounted for)
[06:37:54] aac-decoder done: 5405 frames, 0 decoder errors
[06:37:54] h264-decoder done: 3763 frames, 0 decoder errors
[06:37:54] sync: got 3764 frames, 3762 expected
[06:37:54] sync: framerate min 20.882 fps, max 30.000 fps, avg 29.997 fps
x264 [info]: frame I:128   Avg QP:14.62  size: 36796
x264 [info]: frame P:1484  Avg QP:13.91  size:  1328
x264 [info]: frame B:2152  Avg QP:13.85  size:   241
x264 [info]: consecutive B-frames: 12.1%  8.4% 79.5%
x264 [info]: mb I  I16..4: 49.7% 34.0% 16.3%
x264 [info]: mb P  I16..4:  1.4%  1.6%  0.5%  P16..4:  1.4%  0.5%  0.2%  0.0%  0.0%    skip:94.4%
x264 [info]: mb B  I16..4:  0.3%  0.2%  0.0%  B16..8:  1.2%  0.2%  0.0%  direct: 0.1%  skip:98.0%  L0:40.5% L1:53.7% BI: 5.8%
x264 [info]: 8x8 transform intra:37.9% inter:42.3%
x264 [info]: coded y,uvDC,uvAC intra: 14.6% 4.4% 3.1% inter: 0.5% 0.2% 0.0%
x264 [info]: i16 v,h,dc,p: 66% 26%  6%  2%
x264 [info]: i8 v,h,dc,ddl,ddr,vr,hd,vl,hu: 54% 22% 22%  0%  0%  0%  0%  0%  0%
x264 [info]: i4 v,h,dc,ddl,ddr,vr,hd,vl,hu: 43% 22% 12%  3%  3%  5%  4%  4%  4%
x264 [info]: i8c dc,h,v,p: 89% 10%  1%  0%
x264 [info]: Weighted P-Frames: Y:1.3% UV:0.8%
x264 [info]: kb/s:458.97
[06:37:54] mux: track 0, 3764 frames, 7193735 bytes, 458.32 kbps, fifo 4096
[06:37:54] mux: track 1, 5886 frames, 5199631 bytes, 331.27 kbps, fifo 8192
[06:37:54] libhb: work result = 0
[06:37:54] macgui: QueueCore work done
[06:37:54] macgui: Queue Done, there are no more pending encodes
[06:37:54] macgui: QueueCore stopped preventing sleep
[06:55:36] macgui: trying to open a folder or file
[06:55:36] macgui: ScanCore scanning titles with a duration of 10 seconds or more
[06:55:36] CPU: Intel(R) Core(TM) i7-4870HQ CPU @ 2.50GHz
[06:55:36]  - Intel microarchitecture Haswell
[06:55:36]  - logical processor count: 8
[06:55:36] hb_scan: path=/Users/wayneburgan/Documents/Academy/Courses/Facebook 2020/Videos/FB1-what.mp4, title_index=0
udfread ERROR: ECMA 167 Volume Recognition failed
disc.c:323: failed opening UDF image /Users/wayneburgan/Documents/Academy/Courses/Facebook 2020/Videos/FB1-what.mp4
disc.c:424: error opening file BDMV/index.bdmv
disc.c:424: error opening file BDMV/BACKUP/index.bdmv
[06:55:36] bd: not a bd - trying as a stream/file instead
libdvdnav: Using dvdnav version 6.0.0
libdvdread: Encrypted DVD support unavailable.
libdvdread:DVDOpenFileUDF:UDFFindFile /VIDEO_TS/VIDEO_TS.IFO failed
libdvdread:DVDOpenFileUDF:UDFFindFile /VIDEO_TS/VIDEO_TS.BUP failed
libdvdread: Can't open file VIDEO_TS.IFO.
libdvdnav: vm: failed to read VIDEO_TS.IFO
[06:55:36] dvd: not a dvd - trying as a stream/file instead
Input #0, mov,mp4,m4a,3gp,3g2,mj2, from '/Users/wayneburgan/Documents/Academy/Courses/Facebook 2020/Videos/FB1-what.mp4':
  Metadata:
    major_brand     : mp42
    minor_version   : 1
    compatible_brands: isommp41mp42
    creation_time   : 2020-07-19T08:32:32.000000Z
  Duration: 00:04:11.03, start: 0.000000, bitrate: 2354 kb/s
    Stream #0:0(und): Video: h264 (Main) (avc1 / 0x31637661), yuv420p(tv, smpte170m/smpte170m/bt709), 1280x720 [SAR 1:1 DAR 16:9], 2103 kb/s, 30 fps, 30 tbr, 600 tbn, 1200 tbc (default)
    Metadata:
      creation_time   : 2020-07-19T08:32:32.000000Z
      handler_name    : Core Media Video
    Stream #0:1(und): Audio: aac (LC) (mp4a / 0x6134706D), 44100 Hz, stereo, fltp, 247 kb/s (default)
    Metadata:
      creation_time   : 2020-07-19T08:32:32.000000Z
      handler_name    : Core Media Audio
[06:55:36] scan: decoding previews for title 1
[06:55:36] scan: audio 0x1: aac, rate=44100Hz, bitrate=247975 Unknown (AAC LC) (2.0 ch)
[06:55:36] scan: 10 previews, 1280x720, 30.000 fps, autocrop = 0/0/0/0, aspect 16:9, PAR 1:1
[06:55:36] libhb: scan thread found 1 valid title(s)
[06:55:36] macgui: ScanCore scan done
[06:56:03] macgui: QueueCore prevented sleep
[06:56:03] macgui: QueueCore scanning specifically for title: 1
[06:56:03] CPU: Intel(R) Core(TM) i7-4870HQ CPU @ 2.50GHz
[06:56:03]  - Intel microarchitecture Haswell
[06:56:03]  - logical processor count: 8
[06:56:03] hb_scan: path=/Users/wayneburgan/Documents/Academy/Courses/Facebook 2020/Videos/FB1-what.mp4, title_index=1
udfread ERROR: ECMA 167 Volume Recognition failed
disc.c:323: failed opening UDF image /Users/wayneburgan/Documents/Academy/Courses/Facebook 2020/Videos/FB1-what.mp4
disc.c:424: error opening file BDMV/index.bdmv
disc.c:424: error opening file BDMV/BACKUP/index.bdmv
[06:56:03] bd: not a bd - trying as a stream/file instead
libdvdnav: Using dvdnav version 6.0.0
libdvdread: Encrypted DVD support unavailable.
libdvdread:DVDOpenFileUDF:UDFFindFile /VIDEO_TS/VIDEO_TS.IFO failed
libdvdread:DVDOpenFileUDF:UDFFindFile /VIDEO_TS/VIDEO_TS.BUP failed
libdvdread: Can't open file VIDEO_TS.IFO.
libdvdnav: vm: failed to read VIDEO_TS.IFO
[06:56:03] dvd: not a dvd - trying as a stream/file instead
Input #0, mov,mp4,m4a,3gp,3g2,mj2, from '/Users/wayneburgan/Documents/Academy/Courses/Facebook 2020/Videos/FB1-what.mp4':
  Metadata:
    major_brand     : mp42
    minor_version   : 1
    compatible_brands: isommp41mp42
    creation_time   : 2020-07-19T08:32:32.000000Z
  Duration: 00:04:11.03, start: 0.000000, bitrate: 2354 kb/s
    Stream #0:0(und): Video: h264 (Main) (avc1 / 0x31637661), yuv420p(tv, smpte170m/smpte170m/bt709), 1280x720 [SAR 1:1 DAR 16:9], 2103 kb/s, 30 fps, 30 tbr, 600 tbn, 1200 tbc (default)
    Metadata:
      creation_time   : 2020-07-19T08:32:32.000000Z
      handler_name    : Core Media Video
    Stream #0:1(und): Audio: aac (LC) (mp4a / 0x6134706D), 44100 Hz, stereo, fltp, 247 kb/s (default)
    Metadata:
      creation_time   : 2020-07-19T08:32:32.000000Z
      handler_name    : Core Media Audio
[06:56:03] scan: decoding previews for title 1
[06:56:03] scan: audio 0x1: aac, rate=44100Hz, bitrate=247975 Unknown (AAC LC) (2.0 ch)
[06:56:03] scan: 10 previews, 1280x720, 30.000 fps, autocrop = 0/0/0/0, aspect 16:9, PAR 1:1
[06:56:03] libhb: scan thread found 1 valid title(s)
[06:56:03] macgui: QueueCore scan done
[06:56:03] 1 job(s) to process
[06:56:03] starting job
[06:56:03] macgui: QueueCore started encoding FB1-what.mp4
[06:56:03] macgui: QueueCore with preset Vimeo YouTube 720p30
[06:56:03] decomb filter thread started for segment 0
[06:56:03] decomb filter thread started for segment 1
[06:56:03] decomb filter thread started for segment 2
[06:56:03] decomb filter thread started for segment 3
[06:56:03] decomb filter thread started for segment 4
[06:56:03] decomb filter thread started for segment 5
[06:56:03] decomb filter thread started for segment 6
[06:56:03] decomb filter thread started for segment 7
[06:56:03] decomb check thread started for segment 0
[06:56:03] decomb check thread started for segment 1
[06:56:03] decomb check thread started for segment 2
[06:56:03] decomb check thread started for segment 3
[06:56:03] decomb check thread started for segment 4
[06:56:03] decomb check thread started for segment 5
[06:56:03] decomb check thread started for segment 6
[06:56:03] decomb check thread started for segment 7
[06:56:03] mask filter thread started for segment 1
[06:56:03] mask filter thread started for segment 2
[06:56:03] mask filter thread started for segment 0
[06:56:03] mask filter thread started for segment 3
[06:56:03] mask filter thread started for segment 5
[06:56:03] mask filter thread started for segment 6
[06:56:03] mask filter thread started for segment 4
[06:56:03] mask filter thread started for segment 7
[06:56:03] mask erode thread started for segment 0
[06:56:03] mask erode thread started for segment 2
[06:56:03] mask erode thread started for segment 1
[06:56:03] mask erode thread started for segment 3
[06:56:03] mask erode thread started for segment 4
[06:56:03] mask erode thread started for segment 5
[06:56:03] mask erode thread started for segment 7
[06:56:03] mask erode thread started for segment 6
[06:56:03] mask dilate thread started for segment 1
[06:56:03] mask dilate thread started for segment 2
[06:56:03] mask dilate thread started for segment 0
[06:56:03] mask dilate thread started for segment 3
[06:56:03] mask dilate thread started for segment 4
[06:56:03] mask dilate thread started for segment 5
[06:56:03] mask dilate thread started for segment 6
[06:56:03] mask dilate thread started for segment 7
[06:56:03] yadif thread started for segment 0
[06:56:03] yadif thread started for segment 1
[06:56:03] yadif thread started for segment 2
[06:56:03] yadif thread started for segment 4
[06:56:03] yadif thread started for segment 3
[06:56:03] yadif thread started for segment 5
[06:56:03] yadif thread started for segment 6
[06:56:03] yadif thread started for segment 7
[06:56:03] work: only 1 chapter, disabling chapter markers
[06:56:03] job configuration:
[06:56:03]  * source
[06:56:03]    + /Users/wayneburgan/Documents/Academy/Courses/Facebook 2020/Videos/FB1-what.mp4
[06:56:03]    + title 1, chapter(s) 1 to 1
[06:56:03]    + container: mov,mp4,m4a,3gp,3g2,mj2
[06:56:03]    + data rate: 2354 kbps
[06:56:03]  * destination
[06:56:03]    + /Users/wayneburgan/Documents/Academy/Courses/Facebook 2020/Videos/Handbrake/FB1-what.mp4
[06:56:03]    + container: MPEG-4 (libavformat)
[06:56:03]      + optimized for HTTP streaming (fast start)
[06:56:03]      + align initial A/V stream timestamps
[06:56:03]  * video track
[06:56:03]    + decoder: h264
[06:56:03]      + bitrate 2103 kbps
[06:56:03]    + filters
[06:56:03]      + Comb Detect (mode=3:spatial-metric=2:motion-thresh=1:spatial-thresh=1:filter-mode=2:block-thresh=40:block-width=16:block-height=16)
[06:56:03]      + Decomb (mode=39)
[06:56:03]      + Framerate Shaper (mode=2:rate=27000000/900000)
[06:56:03]        + frame rate: 30.000 fps -> peak rate limited to 30.000 fps
[06:56:03]      + Crop and Scale (width=1280:height=720:crop-top=0:crop-bottom=0:crop-left=0:crop-right=0)
[06:56:03]        + source: 1280 * 720, crop (0/0/0/0): 1280 * 720, scale: 1280 * 720
[06:56:03]    + Output geometry
[06:56:03]      + storage dimensions: 1280 x 720
[06:56:03]      + pixel aspect ratio: 1 : 1
[06:56:03]      + display dimensions: 1280 x 720
[06:56:03]    + encoder: H.264 (libx264)
[06:56:03]      + preset:  medium
[06:56:03]      + options: keyint=30:min-keyint=15:ref=1:bframes=2:b-pyramid=none
[06:56:03]      + profile: high
[06:56:03]      + level:   3.2
[06:56:03]      + quality: 22.00 (RF)
[06:56:03]      + color profile: 6-1-6
[06:56:03]  * audio track 1
[06:56:03]    + decoder: Unknown (AAC LC) (2.0 ch) (track 1, id 0x1)
[06:56:03]      + bitrate: 247 kbps, samplerate: 44100 Hz
[06:56:03]    + mixdown: Stereo
[06:56:03]    + dither: triangular
[06:56:03]    + encoder: AAC (Apple AudioToolbox)
[06:56:03]      + bitrate: 320 kbps, samplerate: 48000 Hz
[06:56:03] sync: expecting 7530 video frames
[06:56:03] encx264: min-keyint: 15, keyint: 30
[06:56:03] encx264: encoding at constant RF 22.000000
[06:56:03] encx264: unparsed options: keyint=30:keyint-min=15:ref=1:bframes=2:b-pyramid=none:level=3.2:vbv-bufsize=25000:vbv-maxrate=25000
x264 [info]: using SAR=1/1
x264 [info]: using cpu capabilities: MMX2 SSE2Fast SSSE3 SSE4.2 AVX FMA3 BMI2 AVX2
x264 [info]: profile High, level 3.2, 4:2:0, 8-bit
[06:56:03] sync: first pts video is 0
[06:56:03] sync: first pts audio 0x1 is 0
[06:56:03] sync: "Chapter 1" (1) at frame 2 time 4310
[06:56:44] reader: done. 1 scr changes
[06:56:45] work: average encoding speed for job is 180.704742 fps
[06:56:45] comb detect: heavy 12 | light 53 | uncombed 7467 | total 7532
[06:56:45] decomb: deinterlaced 12 | blended 53 | unfiltered 7467 | total 7532
[06:56:45] vfr: 7532 frames output, 0 dropped and 0 duped for CFR/PFR
[06:56:45] vfr: lost time: 0 (0 frames)
[06:56:45] vfr: gained time: 0 (0 frames) (0 not accounted for)
[06:56:45] aac-decoder done: 10814 frames, 0 decoder errors
[06:56:45] h264-decoder done: 7531 frames, 0 decoder errors
[06:56:45] sync: got 7532 frames, 7530 expected
[06:56:45] sync: framerate min 20.882 fps, max 30.000 fps, avg 29.998 fps
x264 [info]: frame I:253   Avg QP:16.29  size: 69829
x264 [info]: frame P:2721  Avg QP:14.90  size:  1316
x264 [info]: frame B:4558  Avg QP:13.51  size:   238
x264 [info]: consecutive B-frames:  7.3%  7.8% 85.0%
x264 [info]: mb I  I16..4: 28.0% 45.7% 26.3%
x264 [info]: mb P  I16..4:  0.7%  0.9%  0.4%  P16..4:  1.3%  0.4%  0.2%  0.0%  0.0%    skip:96.2%
x264 [info]: mb B  I16..4:  0.2%  0.1%  0.0%  B16..8:  0.8%  0.2%  0.0%  direct: 0.0%  skip:98.6%  L0:39.3% L1:50.9% BI: 9.8%
x264 [info]: 8x8 transform intra:45.0% inter:38.7%
x264 [info]: coded y,uvDC,uvAC intra: 27.8% 21.3% 18.5% inter: 0.4% 0.2% 0.0%
x264 [info]: i16 v,h,dc,p: 42% 44% 11%  3%
x264 [info]: i8 v,h,dc,ddl,ddr,vr,hd,vl,hu: 48% 34% 13%  1%  1%  0%  1%  1%  2%
x264 [info]: i4 v,h,dc,ddl,ddr,vr,hd,vl,hu: 33% 28% 11%  3%  5%  4%  6%  3%  7%
x264 [info]: i8c dc,h,v,p: 77% 17%  5%  2%
x264 [info]: Weighted P-Frames: Y:0.6% UV:0.2%
x264 [info]: kb/s:711.50
[06:56:45] mux: track 0, 7532 frames, 22319892 bytes, 711.01 kbps, fifo 4096
[06:56:45] mux: track 1, 11773 frames, 10316168 bytes, 328.63 kbps, fifo 8192
[06:56:45] libhb: work result = 0
[06:56:45] macgui: QueueCore work done
[06:56:45] macgui: Queue Done, there are no more pending encodes
[06:56:45] macgui: QueueCore stopped preventing sleep
[07:02:13] macgui: QueueCore prevented sleep
[07:02:13] macgui: QueueCore scanning specifically for title: 1
[07:02:13] CPU: Intel(R) Core(TM) i7-4870HQ CPU @ 2.50GHz
[07:02:13]  - Intel microarchitecture Haswell
[07:02:13]  - logical processor count: 8
[07:02:13] hb_scan: path=/Users/wayneburgan/Documents/Academy/Courses/Facebook 2020/Videos/FB1-what.mp4, title_index=1
udfread ERROR: ECMA 167 Volume Recognition failed
disc.c:323: failed opening UDF image /Users/wayneburgan/Documents/Academy/Courses/Facebook 2020/Videos/FB1-what.mp4
disc.c:424: error opening file BDMV/index.bdmv
disc.c:424: error opening file BDMV/BACKUP/index.bdmv
[07:02:13] bd: not a bd - trying as a stream/file instead
libdvdnav: Using dvdnav version 6.0.0
libdvdread: Encrypted DVD support unavailable.
libdvdread:DVDOpenFileUDF:UDFFindFile /VIDEO_TS/VIDEO_TS.IFO failed
libdvdread:DVDOpenFileUDF:UDFFindFile /VIDEO_TS/VIDEO_TS.BUP failed
libdvdread: Can't open file VIDEO_TS.IFO.
libdvdnav: vm: failed to read VIDEO_TS.IFO
[07:02:13] dvd: not a dvd - trying as a stream/file instead
Input #0, mov,mp4,m4a,3gp,3g2,mj2, from '/Users/wayneburgan/Documents/Academy/Courses/Facebook 2020/Videos/FB1-what.mp4':
  Metadata:
    major_brand     : mp42
    minor_version   : 1
    compatible_brands: isommp41mp42
    creation_time   : 2020-07-19T08:32:32.000000Z
  Duration: 00:04:11.03, start: 0.000000, bitrate: 2354 kb/s
    Stream #0:0(und): Video: h264 (Main) (avc1 / 0x31637661), yuv420p(tv, smpte170m/smpte170m/bt709), 1280x720 [SAR 1:1 DAR 16:9], 2103 kb/s, 30 fps, 30 tbr, 600 tbn, 1200 tbc (default)
    Metadata:
      creation_time   : 2020-07-19T08:32:32.000000Z
      handler_name    : Core Media Video
    Stream #0:1(und): Audio: aac (LC) (mp4a / 0x6134706D), 44100 Hz, stereo, fltp, 247 kb/s (default)
    Metadata:
      creation_time   : 2020-07-19T08:32:32.000000Z
      handler_name    : Core Media Audio
[07:02:13] scan: decoding previews for title 1
[07:02:13] scan: audio 0x1: aac, rate=44100Hz, bitrate=247975 Unknown (AAC LC) (2.0 ch)
[07:02:13] scan: 10 previews, 1280x720, 30.000 fps, autocrop = 0/0/0/0, aspect 16:9, PAR 1:1
[07:02:13] libhb: scan thread found 1 valid title(s)
[07:02:13] macgui: QueueCore scan done
[07:02:13] 1 job(s) to process
[07:02:13] starting job
[07:02:13] macgui: QueueCore started encoding FB1-what-f720.mp4
[07:02:13] macgui: QueueCore with preset Fast 720p30
[07:02:13] decomb filter thread started for segment 1
[07:02:13] decomb filter thread started for segment 0
[07:02:13] decomb filter thread started for segment 4
[07:02:13] decomb filter thread started for segment 3
[07:02:13] decomb filter thread started for segment 2
[07:02:13] decomb filter thread started for segment 5
[07:02:13] decomb filter thread started for segment 6
[07:02:13] decomb filter thread started for segment 7
[07:02:13] decomb check thread started for segment 0
[07:02:13] decomb check thread started for segment 1
[07:02:13] decomb check thread started for segment 2
[07:02:13] decomb check thread started for segment 4
[07:02:13] decomb check thread started for segment 3
[07:02:13] decomb check thread started for segment 5
[07:02:13] decomb check thread started for segment 6
[07:02:13] decomb check thread started for segment 7
[07:02:13] mask filter thread started for segment 0
[07:02:13] mask filter thread started for segment 1
[07:02:13] mask filter thread started for segment 2
[07:02:13] mask filter thread started for segment 3
[07:02:13] mask filter thread started for segment 4
[07:02:13] mask filter thread started for segment 5
[07:02:13] mask filter thread started for segment 6
[07:02:13] mask filter thread started for segment 7
[07:02:13] mask erode thread started for segment 0
[07:02:13] mask erode thread started for segment 1
[07:02:13] mask erode thread started for segment 3
[07:02:13] mask erode thread started for segment 2
[07:02:13] mask erode thread started for segment 4
[07:02:13] mask erode thread started for segment 5
[07:02:13] mask erode thread started for segment 6
[07:02:13] mask erode thread started for segment 7
[07:02:13] mask dilate thread started for segment 0
[07:02:13] mask dilate thread started for segment 1
[07:02:13] mask dilate thread started for segment 4
[07:02:13] mask dilate thread started for segment 3
[07:02:13] mask dilate thread started for segment 5
[07:02:13] mask dilate thread started for segment 2
[07:02:13] mask dilate thread started for segment 6
[07:02:13] yadif thread started for segment 0
[07:02:13] mask dilate thread started for segment 7
[07:02:13] yadif thread started for segment 1
[07:02:13] yadif thread started for segment 2
[07:02:13] yadif thread started for segment 3
[07:02:13] yadif thread started for segment 4
[07:02:13] yadif thread started for segment 5
[07:02:13] yadif thread started for segment 6
[07:02:13] yadif thread started for segment 7
[07:02:13] work: only 1 chapter, disabling chapter markers
[07:02:13] job configuration:
[07:02:13]  * source
[07:02:13]    + /Users/wayneburgan/Documents/Academy/Courses/Facebook 2020/Videos/FB1-what.mp4
[07:02:13]    + title 1, chapter(s) 1 to 1
[07:02:13]    + container: mov,mp4,m4a,3gp,3g2,mj2
[07:02:13]    + data rate: 2354 kbps
[07:02:13]  * destination
[07:02:13]    + /Users/wayneburgan/Documents/Academy/Courses/Facebook 2020/Videos/Handbrake/FB1-what-f720.mp4
[07:02:13]    + container: MPEG-4 (libavformat)
[07:02:13]      + align initial A/V stream timestamps
[07:02:13]  * video track
[07:02:13]    + decoder: h264
[07:02:13]      + bitrate 2103 kbps
[07:02:13]    + filters
[07:02:13]      + Comb Detect (mode=3:spatial-metric=2:motion-thresh=1:spatial-thresh=1:filter-mode=2:block-thresh=40:block-width=16:block-height=16)
[07:02:13]      + Decomb (mode=39)
[07:02:13]      + Framerate Shaper (mode=2:rate=27000000/900000)
[07:02:13]        + frame rate: 30.000 fps -> peak rate limited to 30.000 fps
[07:02:13]      + Crop and Scale (width=1280:height=720:crop-top=0:crop-bottom=0:crop-left=0:crop-right=0)
[07:02:13]        + source: 1280 * 720, crop (0/0/0/0): 1280 * 720, scale: 1280 * 720
[07:02:13]    + Output geometry
[07:02:13]      + storage dimensions: 1280 x 720
[07:02:13]      + pixel aspect ratio: 1 : 1
[07:02:13]      + display dimensions: 1280 x 720
[07:02:13]    + encoder: H.264 (libx264)
[07:02:13]      + preset:  fast
[07:02:13]      + profile: main
[07:02:13]      + level:   3.1
[07:02:13]      + quality: 21.00 (RF)
[07:02:13]      + color profile: 6-1-6
[07:02:13]  * audio track 1
[07:02:13]    + decoder: Unknown (AAC LC) (2.0 ch) (track 1, id 0x1)
[07:02:13]      + bitrate: 247 kbps, samplerate: 44100 Hz
[07:02:13]    + mixdown: Stereo
[07:02:13]    + dither: triangular
[07:02:13]    + encoder: AAC (Apple AudioToolbox)
[07:02:13]      + bitrate: 160 kbps, samplerate: 44100 Hz
[07:02:13] sync: expecting 7530 video frames
[07:02:13] encx264: min-keyint: 30, keyint: 300
[07:02:13] encx264: encoding at constant RF 21.000000
[07:02:13] encx264: unparsed options: level=3.1:ref=2:8x8dct=0:weightp=1:subme=6:vbv-bufsize=14000:vbv-maxrate=14000:rc-lookahead=30
x264 [info]: using SAR=1/1
x264 [info]: using cpu capabilities: MMX2 SSE2Fast SSSE3 SSE4.2 AVX FMA3 BMI2 AVX2
x264 [info]: profile Main, level 3.1, 4:2:0, 8-bit
[07:02:13] sync: first pts video is 0
[07:02:13] sync: first pts audio 0x1 is 0
[07:02:13] sync: "Chapter 1" (1) at frame 2 time 4310
[07:02:52] reader: done. 1 scr changes
[07:02:53] work: average encoding speed for job is 192.018524 fps
[07:02:53] comb detect: heavy 12 | light 53 | uncombed 7467 | total 7532
[07:02:53] decomb: deinterlaced 12 | blended 53 | unfiltered 7467 | total 7532
[07:02:53] vfr: 7532 frames output, 0 dropped and 0 duped for CFR/PFR
[07:02:53] vfr: lost time: 0 (0 frames)
[07:02:53] vfr: gained time: 0 (0 frames) (0 not accounted for)
[07:02:53] aac-decoder done: 10814 frames, 0 decoder errors
[07:02:53] h264-decoder done: 7531 frames, 0 decoder errors
[07:02:53] sync: got 7532 frames, 7530 expected
[07:02:53] sync: framerate min 20.882 fps, max 30.000 fps, avg 29.998 fps
x264 [info]: frame I:27    Avg QP:10.92  size: 69795
x264 [info]: frame P:2126  Avg QP:12.69  size:  1724
x264 [info]: frame B:5379  Avg QP:12.42  size:   289
x264 [info]: consecutive B-frames:  4.2%  1.3%  1.2% 93.3%
x264 [info]: mb I  I16..4: 70.6%  0.0% 29.4%
x264 [info]: mb P  I16..4:  1.5%  0.0%  0.7%  P16..4:  1.6%  0.5%  0.3%  0.0%  0.0%    skip:95.4%
x264 [info]: mb B  I16..4:  0.3%  0.0%  0.1%  B16..8:  0.6%  0.2%  0.0%  direct: 0.2%  skip:98.7%  L0:46.1% L1:41.2% BI:12.7%
x264 [info]: coded y,uvDC,uvAC intra: 25.2% 20.6% 14.9% inter: 0.4% 0.3% 0.0%
x264 [info]: i16 v,h,dc,p: 61% 29%  6%  3%
x264 [info]: i4 v,h,dc,ddl,ddr,vr,hd,vl,hu: 33% 29% 17%  3%  3%  3%  4%  3%  5%
x264 [info]: i8c dc,h,v,p: 77% 16%  5%  1%
x264 [info]: Weighted P-Frames: Y:0.6% UV:0.3%
x264 [info]: ref P L0: 82.9% 17.1%
x264 [info]: ref B L0: 83.1% 16.9%
x264 [info]: ref B L1: 95.2%  4.8%
x264 [info]: kb/s:226.39
[07:02:53] mux: track 0, 7532 frames, 7104368 bytes, 226.31 kbps, fifo 8192
[07:02:53] mux: track 1, 10817 frames, 4589021 bytes, 146.19 kbps, fifo 16384
[07:02:53] libhb: work result = 0
[07:02:53] macgui: QueueCore work done
[07:02:53] macgui: Queue Done, there are no more pending encodes
[07:02:53] macgui: QueueCore stopped preventing sleep

Post Reply