Apple ProRes 4444

HandBrake for Mac support
Forum rules
An Activity Log is required for support requests. Please read How-to get an activity log? for details on how and why this should be provided.
Post Reply
PhilippeLeCoutre
New User
Posts: 1
Joined: Fri Jul 03, 2020 11:57 pm

Apple ProRes 4444

Post by PhilippeLeCoutre »

Description of problem or question:
Is there a way to keep the Apple ProRes 4444 format when encoding with HandBrake?



Steps to reproduce the problem (If Applicable):




HandBrake version (e.g., 1.0.0):
Version 1.3.3 (2020061300)



Operating system and version (e.g., Ubuntu 16.04 LTS, macOS 10.13 High Sierra, Windows 10 Creators Update):
Mac OS 10.13.6 (17G13035)



HandBrake Activity Log ***required*** (see How-to get an activity log)

Code: Select all

[07:40:50] macgui: Handbrake Version: 1.3.3 (2020061300)
[07:40:50] hb_init: starting libhb thread
[07:40:50] Compile-time hardening features are enabled
[07:40:50] hb_init: starting libhb thread
[07:41:05] macgui: ScanCore scanning titles with a duration of 10 seconds or more
[07:41:05] CPU: Intel(R) Core(TM) i7-4870HQ CPU @ 2.50GHz
[07:41:05]  - Intel microarchitecture Haswell
[07:41:05]  - logical processor count: 8
[07:41:05] hb_scan: path=/Users/philippe/Messenger Platinum Dropbox/0- Images & Designs/OmniChannel Funnels Assets/Early Bird OCF Offer Disappears.mov, title_index=0
udfread ERROR: ECMA 167 Volume Recognition failed
disc.c:323: failed opening UDF image /Users/philippe/Messenger Platinum Dropbox/0- Images & Designs/OmniChannel Funnels Assets/Early Bird OCF Offer Disappears.mov
disc.c:424: error opening file BDMV/index.bdmv
disc.c:424: error opening file BDMV/BACKUP/index.bdmv
bluray.c:2585: nav_get_title_list(/Users/philippe/Messenger Platinum Dropbox/0- Images & Designs/OmniChannel Funnels Assets/Early Bird OCF Offer Disappears.mov/) failed
[07:41:05] bd: not a bd - trying as a stream/file instead
libdvdnav: Using dvdnav version 6.0.1
libdvdread: Encrypted DVD support unavailable.
libdvdread:DVDOpenFileUDF:UDFFindFile /VIDEO_TS/VIDEO_TS.IFO failed
libdvdread:DVDOpenFileUDF:UDFFindFile /VIDEO_TS/VIDEO_TS.BUP failed
libdvdread: Can't open file VIDEO_TS.IFO.
libdvdnav: vm: failed to read VIDEO_TS.IFO
[07:41:05] dvd: not a dvd - trying as a stream/file instead
Input #0, mov,mp4,m4a,3gp,3g2,mj2, from '/Users/philippe/Messenger Platinum Dropbox/0- Images & Designs/OmniChannel Funnels Assets/Early Bird OCF Offer Disappears.mov':
  Metadata:
    major_brand     : qt  
    minor_version   : 0
    compatible_brands: qt  
    creation_time   : 2020-07-03T23:38:42.000000Z
    com.apple.quicktime.software: Keynote 9.1 (6369)
  Duration: 00:00:39.73, start: 0.000000, bitrate: 60253 kb/s
    Stream #0:0(und): Video: prores (4444) (ap4h / 0x68347061), yuva444p12le(tv, bt709/unknown/unknown), 1920x1080, 60250 kb/s, 30 fps, 30 tbr, 600 tbn, 600 tbc (default)
    Metadata:
      creation_time   : 2020-07-03T23:38:42.000000Z
      handler_name    : Core Media Video
      encoder         : Apple ProRes 4444
    Stream #0:1(und): Audio: aac (LC) (mp4a / 0x6134706D), 44100 Hz, stereo, fltp, 8 kb/s (default)
    Metadata:
      creation_time   : 2020-07-03T23:38:42.000000Z
      handler_name    : Core Media Audio
[07:41:05] scan: decoding previews for title 1
[07:41:05] scan: audio 0x1: aac, rate=44100Hz, bitrate=8302 Unknown (AAC LC) (2.0 ch) (8 kbps)
[07:41:06] scan: 10 previews, 1920x1080, 30.000 fps, autocrop = 182/0/0/0, aspect 16:9, PAR 1:1
[07:41:06] libhb: scan thread found 1 valid title(s)
[07:41:06] macgui: ScanCore scan done
[07:41:50] macgui: QueueCore scanning specifically for title: 1
[07:41:50] CPU: Intel(R) Core(TM) i7-4870HQ CPU @ 2.50GHz
[07:41:50]  - Intel microarchitecture Haswell
[07:41:50]  - logical processor count: 8
[07:41:50] hb_scan: path=/Users/philippe/Messenger Platinum Dropbox/0- Images & Designs/OmniChannel Funnels Assets/Early Bird OCF Offer Disappears.mov, title_index=1
udfread ERROR: ECMA 167 Volume Recognition failed
disc.c:323: failed opening UDF image /Users/philippe/Messenger Platinum Dropbox/0- Images & Designs/OmniChannel Funnels Assets/Early Bird OCF Offer Disappears.mov
disc.c:424: error opening file BDMV/index.bdmv
disc.c:424: error opening file BDMV/BACKUP/index.bdmv
bluray.c:2585: nav_get_title_list(/Users/philippe/Messenger Platinum Dropbox/0- Images & Designs/OmniChannel Funnels Assets/Early Bird OCF Offer Disappears.mov/) failed
[07:41:50] bd: not a bd - trying as a stream/file instead
libdvdnav: Using dvdnav version 6.0.1
libdvdread: Encrypted DVD support unavailable.
libdvdread:DVDOpenFileUDF:UDFFindFile /VIDEO_TS/VIDEO_TS.IFO failed
libdvdread:DVDOpenFileUDF:UDFFindFile /VIDEO_TS/VIDEO_TS.BUP failed
libdvdread: Can't open file VIDEO_TS.IFO.
libdvdnav: vm: failed to read VIDEO_TS.IFO
[07:41:50] dvd: not a dvd - trying as a stream/file instead
Input #0, mov,mp4,m4a,3gp,3g2,mj2, from '/Users/philippe/Messenger Platinum Dropbox/0- Images & Designs/OmniChannel Funnels Assets/Early Bird OCF Offer Disappears.mov':
  Metadata:
    major_brand     : qt  
    minor_version   : 0
    compatible_brands: qt  
    creation_time   : 2020-07-03T23:38:42.000000Z
    com.apple.quicktime.software: Keynote 9.1 (6369)
  Duration: 00:00:39.73, start: 0.000000, bitrate: 60253 kb/s
    Stream #0:0(und): Video: prores (4444) (ap4h / 0x68347061), yuva444p12le(tv, bt709/unknown/unknown), 1920x1080, 60250 kb/s, 30 fps, 30 tbr, 600 tbn, 600 tbc (default)
    Metadata:
      creation_time   : 2020-07-03T23:38:42.000000Z
      handler_name    : Core Media Video
      encoder         : Apple ProRes 4444
    Stream #0:1(und): Audio: aac (LC) (mp4a / 0x6134706D), 44100 Hz, stereo, fltp, 8 kb/s (default)
    Metadata:
      creation_time   : 2020-07-03T23:38:42.000000Z
      handler_name    : Core Media Audio
[07:41:50] scan: decoding previews for title 1
[07:41:50] scan: audio 0x1: aac, rate=44100Hz, bitrate=8302 Unknown (AAC LC) (2.0 ch) (8 kbps)
[07:41:51] scan: 10 previews, 1920x1080, 30.000 fps, autocrop = 182/0/0/0, aspect 16:9, PAR 1:1
[07:41:51] libhb: scan thread found 1 valid title(s)
[07:41:52] macgui: QueueCore scan done
[07:41:52] macgui: QueueCore started encoding Early Bird OCF Offer Disappears.mp4
[07:41:52] macgui: QueueCore with preset Fast 1080p30 (Modifié)
[07:41:52] Starting work at: Sat Jul  4 07:41:52 2020

[07:41:52] 1 job(s) to process
[07:41:52] Starting Task: Encoding Pass
[07:41:52] work: only 1 chapter, disabling chapter markers
[07:41:52] job configuration:
[07:41:52]  * source
[07:41:52]    + /Users/philippe/Messenger Platinum Dropbox/0- Images & Designs/OmniChannel Funnels Assets/Early Bird OCF Offer Disappears.mov
[07:41:52]    + title 1, chapter(s) 1 to 1
[07:41:52]    + container: mov,mp4,m4a,3gp,3g2,mj2
[07:41:52]    + data rate: 60253 kbps
[07:41:52]  * destination
[07:41:52]    + /Users/philippe/Messenger Platinum Dropbox/0- Images & Designs/OmniChannel Funnels Assets/Early Bird OCF Offer Disappears.mp4
[07:41:52]    + container: MPEG-4 (libavformat)
[07:41:52]      + optimized for HTTP streaming (fast start)
[07:41:52]      + align initial A/V stream timestamps
[07:41:52]  * video track
[07:41:52]    + decoder: prores
[07:41:52]      + bitrate 60250 kbps
[07:41:52]    + filters
[07:41:52]      + Comb Detect (mode=3:spatial-metric=2:motion-thresh=1:spatial-thresh=1:filter-mode=2:block-thresh=40:block-width=16:block-height=16)
[07:41:52]      + Decomb (mode=39)
[07:41:52]      + Framerate Shaper (mode=2:rate=27000000/900000)
[07:41:52]        + frame rate: 30.000 fps -> peak rate limited to 30.000 fps
[07:41:52]      + Crop and Scale (width=1920:height=898:crop-top=182:crop-bottom=0:crop-left=0:crop-right=0)
[07:41:52]        + source: 1920 * 1080, crop (182/0/0/0): 1920 * 898, scale: 1920 * 898
[07:41:52]    + Output geometry
[07:41:52]      + storage dimensions: 1920 x 898
[07:41:52]      + pixel aspect ratio: 1 : 1
[07:41:52]      + display dimensions: 1920 x 898
[07:41:52]    + encoder: H.264 (libx264)
[07:41:52]      + preset:  fast
[07:41:52]      + profile: main
[07:41:52]      + level:   4.0
[07:41:52]      + quality: 22.00 (RF)
[07:41:52]      + color profile: 1-1-1
[07:41:52]  * audio track 1
[07:41:52]    + decoder: Unknown (AAC LC) (2.0 ch) (8 kbps) (track 1, id 0x1)
[07:41:52]      + bitrate: 8 kbps, samplerate: 44100 Hz
[07:41:52]    + mixdown: Stereo
[07:41:52]    + dither: triangular
[07:41:52]    + encoder: AAC (Apple AudioToolbox)
[07:41:52]      + bitrate: 160 kbps, samplerate: 44100 Hz
[07:41:52] sync: expecting 1191 video frames
[07:41:52] encx264: min-keyint: 30, keyint: 300
[07:41:52] encx264: encoding at constant RF 22.000000
[07:41:52] encx264: unparsed options: level=4.0:ref=2:8x8dct=0:weightp=1:subme=6:vbv-bufsize=25000:vbv-maxrate=20000:rc-lookahead=30
x264 [info]: using SAR=1/1
x264 [info]: using cpu capabilities: MMX2 SSE2Fast SSSE3 SSE4.2 AVX FMA3 BMI2 AVX2
x264 [info]: profile Main, level 4.0, 4:2:0, 8-bit
[07:41:52] sync: first pts video is 0
[07:41:52] sync: "Chapitre 1" (1) at frame 1 time 0
[07:41:52] sync: first pts audio 0x1 is 0
[07:42:35] reader: done. 1 scr changes
[07:42:37] work: average encoding speed for job is 26.202608 fps
[07:42:37] comb detect: heavy 17 | light 4 | uncombed 1171 | total 1192
[07:42:37] decomb: deinterlaced 17 | blended 4 | unfiltered 1171 | total 1192
[07:42:37] vfr: 1192 frames output, 0 dropped and 0 duped for CFR/PFR
[07:42:37] vfr: lost time: 0 (0 frames)
[07:42:37] vfr: gained time: 0 (0 frames) (0 not accounted for)
[07:42:37] aac-decoder done: 152 frames, 0 decoder errors
[07:42:37] prores-decoder done: 1192 frames, 0 decoder errors
[07:42:37] sync: got 1192 frames, 1191 expected
[07:42:37] sync: framerate min 30.000 fps, max 30.000 fps, avg 30.000 fps
x264 [info]: frame I:4     Avg QP: 8.41  size: 18386
x264 [info]: frame P:321   Avg QP:18.78  size:  1227
x264 [info]: frame B:867   Avg QP:18.19  size:   123
x264 [info]: consecutive B-frames:  2.0%  0.8%  6.5% 90.6%
x264 [info]: mb I  I16..4: 94.3%  0.0%  5.7%
x264 [info]: mb P  I16..4:  0.5%  0.0%  0.1%  P16..4:  1.5%  0.2%  0.1%  0.0%  0.0%    skip:97.6%
x264 [info]: mb B  I16..4:  0.1%  0.0%  0.0%  B16..8:  0.2%  0.0%  0.0%  direct: 0.1%  skip:99.6%  L0:46.9% L1:48.3% BI: 4.8%
x264 [info]: coded y,uvDC,uvAC intra: 5.8% 11.6% 8.8% inter: 0.2% 0.3% 0.2%
x264 [info]: i16 v,h,dc,p: 78% 17%  3%  2%
x264 [info]: i4 v,h,dc,ddl,ddr,vr,hd,vl,hu: 42% 21% 25%  2%  2%  3%  2%  2%  1%
x264 [info]: i8c dc,h,v,p: 72% 17% 10%  0%
x264 [info]: Weighted P-Frames: Y:0.0% UV:0.0%
x264 [info]: ref P L0: 83.2% 16.8%
x264 [info]: ref B L0: 75.0% 25.0%
x264 [info]: ref B L1: 90.7%  9.3%
x264 [info]: kb/s:115.54
[07:42:37] mux: track 0, 1192 frames, 573682 bytes, 115.41 kbps, fifo 2048
[07:42:37] mux: track 1, 155 frames, 3192 bytes, 0.64 kbps, fifo 256
[07:42:37] Finished work at: Sat Jul  4 07:42:37 2020

[07:42:37] libhb: work result = 0
[07:42:38] macgui: Queue Done, there are no more pending encodes
[07:42:38] macgui: QueueCore work done
[07:45:30] macgui: QueueCore scanning specifically for title: 1
[07:45:30] CPU: Intel(R) Core(TM) i7-4870HQ CPU @ 2.50GHz
[07:45:30]  - Intel microarchitecture Haswell
[07:45:30]  - logical processor count: 8
[07:45:30] hb_scan: path=/Users/philippe/Messenger Platinum Dropbox/0- Images & Designs/OmniChannel Funnels Assets/Early Bird OCF Offer Disappears.mov, title_index=1
udfread ERROR: ECMA 167 Volume Recognition failed
disc.c:323: failed opening UDF image /Users/philippe/Messenger Platinum Dropbox/0- Images & Designs/OmniChannel Funnels Assets/Early Bird OCF Offer Disappears.mov
disc.c:424: error opening file BDMV/index.bdmv
disc.c:424: error opening file BDMV/BACKUP/index.bdmv
bluray.c:2585: nav_get_title_list(/Users/philippe/Messenger Platinum Dropbox/0- Images & Designs/OmniChannel Funnels Assets/Early Bird OCF Offer Disappears.mov/) failed
[07:45:30] bd: not a bd - trying as a stream/file instead
libdvdnav: Using dvdnav version 6.0.1
libdvdread: Encrypted DVD support unavailable.
libdvdread:DVDOpenFileUDF:UDFFindFile /VIDEO_TS/VIDEO_TS.IFO failed
libdvdread:DVDOpenFileUDF:UDFFindFile /VIDEO_TS/VIDEO_TS.BUP failed
libdvdread: Can't open file VIDEO_TS.IFO.
libdvdnav: vm: failed to read VIDEO_TS.IFO
[07:45:30] dvd: not a dvd - trying as a stream/file instead
Input #0, mov,mp4,m4a,3gp,3g2,mj2, from '/Users/philippe/Messenger Platinum Dropbox/0- Images & Designs/OmniChannel Funnels Assets/Early Bird OCF Offer Disappears.mov':
  Metadata:
    major_brand     : qt  
    minor_version   : 0
    compatible_brands: qt  
    creation_time   : 2020-07-03T23:38:42.000000Z
    com.apple.quicktime.software: Keynote 9.1 (6369)
  Duration: 00:00:39.73, start: 0.000000, bitrate: 60253 kb/s
    Stream #0:0(und): Video: prores (4444) (ap4h / 0x68347061), yuva444p12le(tv, bt709/unknown/unknown), 1920x1080, 60250 kb/s, 30 fps, 30 tbr, 600 tbn, 600 tbc (default)
    Metadata:
      creation_time   : 2020-07-03T23:38:42.000000Z
      handler_name    : Core Media Video
      encoder         : Apple ProRes 4444
    Stream #0:1(und): Audio: aac (LC) (mp4a / 0x6134706D), 44100 Hz, stereo, fltp, 8 kb/s (default)
    Metadata:
      creation_time   : 2020-07-03T23:38:42.000000Z
      handler_name    : Core Media Audio
[07:45:30] scan: decoding previews for title 1
[07:45:30] scan: audio 0x1: aac, rate=44100Hz, bitrate=8302 Unknown (AAC LC) (2.0 ch) (8 kbps)
[07:45:31] scan: 10 previews, 1920x1080, 30.000 fps, autocrop = 182/0/0/0, aspect 16:9, PAR 1:1
[07:45:31] libhb: scan thread found 1 valid title(s)
[07:45:31] macgui: QueueCore scan done
[07:45:31] Starting work at: Sat Jul  4 07:45:31 2020

[07:45:31] macgui: QueueCore started encoding Early Bird OCF Offer Disappears.mp4
[07:45:31] 1 job(s) to process
[07:45:31] macgui: QueueCore with preset Fast 1080p30 (Modifié)
[07:45:31] Starting Task: Encoding Pass
[07:45:31] Skipping crop/scale filter
[07:45:31] work: only 1 chapter, disabling chapter markers
[07:45:31] job configuration:
[07:45:31]  * source
[07:45:31]    + /Users/philippe/Messenger Platinum Dropbox/0- Images & Designs/OmniChannel Funnels Assets/Early Bird OCF Offer Disappears.mov
[07:45:31]    + title 1, chapter(s) 1 to 1
[07:45:31]    + container: mov,mp4,m4a,3gp,3g2,mj2
[07:45:31]    + data rate: 60253 kbps
[07:45:31]  * destination
[07:45:31]    + /Users/philippe/Messenger Platinum Dropbox/0- Images & Designs/OmniChannel Funnels Assets/Early Bird OCF Offer Disappears.mp4
[07:45:31]    + container: MPEG-4 (libavformat)
[07:45:31]      + optimized for HTTP streaming (fast start)
[07:45:31]      + align initial A/V stream timestamps
[07:45:31]  * video track
[07:45:31]    + decoder: prores
[07:45:31]      + bitrate 60250 kbps
[07:45:31]    + filters
[07:45:31]      + Comb Detect (mode=3:spatial-metric=2:motion-thresh=1:spatial-thresh=1:filter-mode=2:block-thresh=40:block-width=16:block-height=16)
[07:45:31]      + Decomb (mode=39)
[07:45:31]      + Framerate Shaper (mode=2:rate=27000000/900000)
[07:45:31]        + frame rate: 30.000 fps -> peak rate limited to 30.000 fps
[07:45:31]    + Output geometry
[07:45:31]      + storage dimensions: 1920 x 1080
[07:45:31]      + pixel aspect ratio: 1 : 1
[07:45:31]      + display dimensions: 1920 x 1080
[07:45:31]    + encoder: H.264 (libx264)
[07:45:31]      + preset:  fast
[07:45:31]      + profile: main
[07:45:31]      + level:   4.0
[07:45:31]      + quality: 22.00 (RF)
[07:45:31]      + color profile: 1-1-1
[07:45:31]  * audio track 1
[07:45:31]    + decoder: Unknown (AAC LC) (2.0 ch) (8 kbps) (track 1, id 0x1)
[07:45:31]      + bitrate: 8 kbps, samplerate: 44100 Hz
[07:45:31]    + mixdown: Stereo
[07:45:31]    + dither: triangular
[07:45:31]    + encoder: AAC (Apple AudioToolbox)
[07:45:31]      + bitrate: 160 kbps, samplerate: 44100 Hz
[07:45:31] sync: expecting 1191 video frames
[07:45:31] encx264: min-keyint: 30, keyint: 300
[07:45:31] encx264: encoding at constant RF 22.000000
[07:45:31] encx264: unparsed options: level=4.0:ref=2:8x8dct=0:weightp=1:subme=6:vbv-bufsize=25000:vbv-maxrate=20000:rc-lookahead=30
x264 [info]: using SAR=1/1
x264 [info]: using cpu capabilities: MMX2 SSE2Fast SSSE3 SSE4.2 AVX FMA3 BMI2 AVX2
x264 [info]: profile Main, level 4.0, 4:2:0, 8-bit
[07:45:32] sync: first pts video is 0
[07:45:32] sync: "Chapitre 1" (1) at frame 1 time 0
[07:45:32] sync: first pts audio 0x1 is 0
[07:46:11] reader: done. 1 scr changes
[07:46:13] work: average encoding speed for job is 29.025553 fps
[07:46:13] comb detect: heavy 17 | light 4 | uncombed 1171 | total 1192
[07:46:13] decomb: deinterlaced 17 | blended 4 | unfiltered 1171 | total 1192
[07:46:13] vfr: 1192 frames output, 0 dropped and 0 duped for CFR/PFR
[07:46:13] vfr: lost time: 0 (0 frames)
[07:46:13] vfr: gained time: 0 (0 frames) (0 not accounted for)
[07:46:13] aac-decoder done: 152 frames, 0 decoder errors
[07:46:13] prores-decoder done: 1192 frames, 0 decoder errors
[07:46:13] sync: got 1192 frames, 1191 expected
[07:46:13] sync: framerate min 30.000 fps, max 30.000 fps, avg 30.000 fps
x264 [info]: frame I:4     Avg QP: 8.26  size: 18990
x264 [info]: frame P:314   Avg QP:18.00  size:  1213
x264 [info]: frame B:874   Avg QP:18.28  size:   156
x264 [info]: consecutive B-frames:  1.1%  1.0%  7.3% 90.6%
x264 [info]: mb I  I16..4: 95.5%  0.0%  4.5%
x264 [info]: mb P  I16..4:  0.6%  0.0%  0.1%  P16..4:  1.0%  0.1%  0.1%  0.0%  0.0%    skip:98.1%
x264 [info]: mb B  I16..4:  0.1%  0.0%  0.0%  B16..8:  0.2%  0.0%  0.0%  direct: 0.0%  skip:99.6%  L0:45.5% L1:49.8% BI: 4.7%
x264 [info]: coded y,uvDC,uvAC intra: 5.9% 11.3% 7.7% inter: 0.1% 0.2% 0.1%
x264 [info]: i16 v,h,dc,p: 74% 21%  3%  2%
x264 [info]: i4 v,h,dc,ddl,ddr,vr,hd,vl,hu: 41% 20% 25%  2%  2%  3%  2%  3%  1%
x264 [info]: i8c dc,h,v,p: 71% 20% 10%  0%
x264 [info]: Weighted P-Frames: Y:0.0% UV:0.0%
x264 [info]: ref P L0: 79.7% 20.3%
x264 [info]: ref B L0: 76.5% 23.5%
x264 [info]: ref B L1: 92.7%  7.3%
x264 [info]: kb/s:119.48
[07:46:13] mux: track 0, 1192 frames, 593256 bytes, 119.35 kbps, fifo 2048
[07:46:13] mux: track 1, 155 frames, 3192 bytes, 0.64 kbps, fifo 256
[07:46:13] Finished work at: Sat Jul  4 07:46:13 2020

[07:46:13] libhb: work result = 0
[07:46:13] macgui: Queue Done, there are no more pending encodes
[07:46:13] macgui: QueueCore work done


musicvid
Veteran User
Posts: 3610
Joined: Sat Jun 27, 2009 1:19 am

Re: Apple ProRes 4444

Post by musicvid »

No, sorry.

Post Reply