'Save As' problem

HandBrake for Mac support
Forum rules
An Activity Log is required for support requests. Please read How-to get an activity log? for details on how and why this should be provided.
Locked
ExRobotGuy47
New User
Posts: 1
Joined: Mon Jun 15, 2020 3:32 pm

'Save As' problem

Post by ExRobotGuy47 »

Description of problem or question:

The 'Save As' output identifier on my HB always shows a '1' instead of the actual title of the source file.


Steps to reproduce the problem (If Applicable):

It happens every time I load a source file


HandBrake version (e.g., 1.0.0):
.
I'm using 1.3.3 but it has been happening through a few up-dates.


Operating system and version (e.g., Ubuntu 16.04 LTS, macOS 10.13 High Sierra, Windows 10 Creators Update):

Mac OS 10.15.5


HandBrake Activity Log ***required*** (see How-to get an activity log)

Code: Select all

[09:42:28] macgui: Handbrake Version: 1.3.3 (2020061300)
[09:42:29] hb_init: starting libhb thread
[09:42:29] Compile-time hardening features are enabled
[09:42:29] hb_init: starting libhb thread
[09:42:49] macgui: ScanCore scanning titles with a duration of 10 seconds or more
[09:42:49] CPU: Intel(R) Core(TM) i3-8100 CPU @ 3.60GHz
[09:42:49]  - Intel microarchitecture Kaby Lake
[09:42:49]  - logical processor count: 4
[09:42:49] hb_scan: path=/Applications/ 3RD PARTY APPs/Pirate Downloads/Days.Of.The.Bagnold.Summer.2020.HDRip.XviD.AC3-EVO[TGx]/Days.Of.The.Bagnold.Summer.2020.HDRip.XviD.AC3-EVO.avi, title_index=0
udfread ERROR: ECMA 167 Volume Recognition failed
disc.c:323: failed opening UDF image /Applications/ 3RD PARTY APPs/Pirate Downloads/Days.Of.The.Bagnold.Summer.2020.HDRip.XviD.AC3-EVO[TGx]/Days.Of.The.Bagnold.Summer.2020.HDRip.XviD.AC3-EVO.avi
disc.c:424: error opening file BDMV/index.bdmv
disc.c:424: error opening file BDMV/BACKUP/index.bdmv
bluray.c:2585: nav_get_title_list(/Applications/ 3RD PARTY APPs/Pirate Downloads/Days.Of.The.Bagnold.Summer.2020.HDRip.XviD.AC3-EVO[TGx]/Days.Of.The.Bagnold.Summer.2020.HDRip.XviD.AC3-EVO.avi/) failed
[09:42:49] bd: not a bd - trying as a stream/file instead
libdvdnav: Using dvdnav version 6.0.1
libdvdread: Encrypted DVD support unavailable.
libdvdread:DVDOpenFileUDF:UDFFindFile /VIDEO_TS/VIDEO_TS.IFO failed
libdvdread:DVDOpenFileUDF:UDFFindFile /VIDEO_TS/VIDEO_TS.BUP failed
libdvdread: Can't open file VIDEO_TS.IFO.
libdvdnav: vm: failed to read VIDEO_TS.IFO
[09:42:49] dvd: not a dvd - trying as a stream/file instead
Input #0, matroska,webm, from '/Applications/ 3RD PARTY APPs/Pirate Downloads/Days.Of.The.Bagnold.Summer.2020.HDRip.XviD.AC3-EVO[TGx]/Days.Of.The.Bagnold.Summer.2020.HDRip.XviD.AC3-EVO.avi':
  Metadata:
    encoder         : libebml v1.3.9 + libmatroska v1.5.2
    creation_time   : 2020-06-07T23:19:53.000000Z
  Duration: 01:25:40.80, start: 0.000000, bitrate: 2207 kb/s
    Stream #0:0(eng): Video: h264 (High), yuv420p(progressive), 720x300 [SAR 1595:1596 DAR 319:133], SAR 1:1 DAR 12:5, 24 fps, 24 tbr, 1k tbn, 48 tbc (default)
    Metadata:
      BPS-eng         : 1822031
      DURATION-eng    : 01:25:40.792000000
      NUMBER_OF_FRAMES-eng: 123379
      NUMBER_OF_BYTES-eng: 1170835740
      _STATISTICS_WRITING_APP-eng: mkvmerge v35.0.0 ('All The Love In The World') 64-bit
      _STATISTICS_WRITING_DATE_UTC-eng: 2020-06-07 23:19:53
      _STATISTICS_TAGS-eng: BPS DURATION NUMBER_OF_FRAMES NUMBER_OF_BYTES
    Stream #0:1(eng): Audio: ac3, 48000 Hz, 5.1(side), fltp, 384 kb/s (default)
    Metadata:
      BPS-eng         : 384000
      DURATION-eng    : 01:25:40.800000000
      NUMBER_OF_FRAMES-eng: 160650
      NUMBER_OF_BYTES-eng: 246758400
      _STATISTICS_WRITING_APP-eng: mkvmerge v35.0.0 ('All The Love In The World') 64-bit
      _STATISTICS_WRITING_DATE_UTC-eng: 2020-06-07 23:19:53
      _STATISTICS_TAGS-eng: BPS DURATION NUMBER_OF_FRAMES NUMBER_OF_BYTES
[09:42:49] scan: decoding previews for title 1
[09:42:49] scan: audio 0x1: ac3, rate=48000Hz, bitrate=384000 English (AC3) (5.1 ch) (384 kbps)
[09:42:49] WARNING: Video PAR 1595:1596 != container PAR 1:1
[09:42:49] scan: 10 previews, 720x300, 24.000 fps, autocrop = 0/0/0/0, aspect 2.40:1, PAR 1595:1596
[09:42:49] libhb: scan thread found 1 valid title(s)
[09:42:49] macgui: ScanCore scan done
XPC: Service did crash
[11:41:56] Compile-time hardening features are enabled
[11:41:56] hb_init: starting libhb thread
User avatar
Ritsuka
HandBrake Team
Posts: 1160
Joined: Fri Jan 12, 2007 11:29 am

Re: 'Save As' problem

Post by Ritsuka »

Open the preferences window and set your preferred name format, or disable that feature.
User avatar
BradleyS
Moderator
Posts: 1859
Joined: Thu Aug 09, 2007 12:16 pm

Re: 'Save As' problem

Post by BradleyS »

Locked for rule violations. Piracy will not be tolerated here.
Locked