presets changes storage size

HandBrake for Mac support
Forum rules
An Activity Log is required for support requests. Please read How-to get an activity log? for details on how and why this should be provided.
Post Reply
G0ttaRun
Posts: 2
Joined: Mon Feb 10, 2020 11:07 pm

presets changes storage size

Post by G0ttaRun »

Description of problem or question:

my source file is 1920x1080 .mov When I apply the preset fast1080p30, the storage size becomes 1484x1048. I can't change to 1920x1080. What am I missing? I'm running v1.3.1


Steps to reproduce the problem (If Applicable):




HandBrake version (e.g., 1.0.0):

1.3.1


Operating system and version (e.g., Ubuntu 16.04 LTS, macOS 10.13 High Sierra, Windows 10 Creators Update):

Mac OS Mojave 10.14.6


HandBrake Activity Log ***required*** (see How-to get an activity log)

Code: Select all

[15:18:02] macgui: Handbrake Version: 1.3.1 (2020010400)
[15:18:02] macgui: built-in presets updated
[15:18:02] hb_init: starting libhb thread
[15:18:02] Compile-time hardening features are enabled
[15:18:02] hb_init: starting libhb thread
[15:18:12] macgui: ScanCore scanning titles with a duration of 10 seconds or more
[15:18:12] CPU: Intel(R) Core(TM) i9-9900K CPU @ 3.60GHz
[15:18:12]  - Intel microarchitecture Kaby Lake
[15:18:12]  - logical processor count: 16
[15:18:12] hb_scan: path=/Volumes/CalDigit T4_2018/2Vimeo_Witold720p.mov, title_index=0
udfread ERROR: ECMA 167 Volume Recognition failed
disc.c:323: failed opening UDF image /Volumes/CalDigit T4_2018/2Vimeo_Witold720p.mov
disc.c:424: error opening file BDMV/index.bdmv
disc.c:424: error opening file BDMV/BACKUP/index.bdmv
bluray.c:2585: nav_get_title_list(/Volumes/CalDigit T4_2018/2Vimeo_Witold720p.mov/) failed
[15:18:12] bd: not a bd - trying as a stream/file instead
libdvdnav: Using dvdnav version 6.0.1
libdvdread: Encrypted DVD support unavailable.
libdvdread:DVDOpenFileUDF:UDFFindFile /VIDEO_TS/VIDEO_TS.IFO failed
libdvdread:DVDOpenFileUDF:UDFFindFile /VIDEO_TS/VIDEO_TS.BUP failed
libdvdread: Can't open file VIDEO_TS.IFO.
libdvdnav: vm: failed to read VIDEO_TS.IFO
[15:18:12] dvd: not a dvd - trying as a stream/file instead
Input #0, mov,mp4,m4a,3gp,3g2,mj2, from '/Volumes/CalDigit T4_2018/2Vimeo_Witold720p.mov':
  Metadata:
    major_brand     : qt  
    minor_version   : 0
    compatible_brands: qt  
    creation_time   : 2020-02-09T19:55:26.000000Z
    com.apple.quicktime.keywords: GR-WitoldUrszula
    com.apple.quicktime.description: This video is about GR_WitoldUrszulaBialokur2Cut
    com.apple.quicktime.author: Will Sanchez
    com.apple.quicktime.displayname: GR_WitoldUrszula
    com.apple.quicktime.title: GR_WitoldUrszula
  Duration: 00:58:59.40, start: 0.000000, bitrate: 15612 kb/s
    Stream #0:0(und): Audio: aac (LC) (mp4a / 0x6134706D), 48000 Hz, stereo, fltp, 109 kb/s (default)
    Metadata:
      creation_time   : 2020-02-09T19:55:26.000000Z
      handler_name    : Core Media Audio
    Stream #0:1(und): Video: h264 (High) (avc1 / 0x31637661), yuv420p(tv, bt709, progressive), 1920x1080 [SAR 1:1 DAR 16:9], 15452 kb/s, 29.97 fps, 29.97 tbr, 30k tbn, 60k tbc (default)
    Metadata:
      creation_time   : 2020-02-09T19:55:26.000000Z
      handler_name    : Core Media Video
      encoder         : H.264
      timecode        : 00:00:00;00
    Stream #0:2(und): Data: none (tmcd / 0x64636D74) (default)
    Metadata:
      creation_time   : 2020-02-09T19:55:26.000000Z
      handler_name    : Core Media Time Code
      timecode        : 00:00:00;00
[15:18:12] scan: decoding previews for title 1
[15:18:12] scan: audio 0x0: aac, rate=48000Hz, bitrate=109724 Unknown (AAC LC) (2.0 ch) (109 kbps)
[15:18:12] scan: 10 previews, 1920x1080, 29.970 fps, autocrop = 34/0/228/106, aspect 16:9, PAR 1:1
[15:18:13] libhb: scan thread found 1 valid title(s)
[15:18:13] macgui: ScanCore scan done
[15:21:14] macgui: QueueCore scanning specifically for title: 1
[15:21:14] CPU: Intel(R) Core(TM) i9-9900K CPU @ 3.60GHz
[15:21:14]  - Intel microarchitecture Kaby Lake
[15:21:14]  - logical processor count: 16
[15:21:14] hb_scan: path=/Volumes/CalDigit T4_2018/2Vimeo_Witold720p.mov, title_index=1
udfread ERROR: ECMA 167 Volume Recognition failed
disc.c:323: failed opening UDF image /Volumes/CalDigit T4_2018/2Vimeo_Witold720p.mov
disc.c:424: error opening file BDMV/index.bdmv
disc.c:424: error opening file BDMV/BACKUP/index.bdmv
bluray.c:2585: nav_get_title_list(/Volumes/CalDigit T4_2018/2Vimeo_Witold720p.mov/) failed
[15:21:14] bd: not a bd - trying as a stream/file instead
libdvdnav: Using dvdnav version 6.0.1
libdvdread: Encrypted DVD support unavailable.
libdvdread:DVDOpenFileUDF:UDFFindFile /VIDEO_TS/VIDEO_TS.IFO failed
libdvdread:DVDOpenFileUDF:UDFFindFile /VIDEO_TS/VIDEO_TS.BUP failed
libdvdread: Can't open file VIDEO_TS.IFO.
libdvdnav: vm: failed to read VIDEO_TS.IFO
[15:21:14] dvd: not a dvd - trying as a stream/file instead
Input #0, mov,mp4,m4a,3gp,3g2,mj2, from '/Volumes/CalDigit T4_2018/2Vimeo_Witold720p.mov':
  Metadata:
    major_brand     : qt  
    minor_version   : 0
    compatible_brands: qt  
    creation_time   : 2020-02-09T19:55:26.000000Z
    com.apple.quicktime.keywords: GR-WitoldUrszula
    com.apple.quicktime.description: This video is about GR_WitoldUrszulaBialokur2Cut
    com.apple.quicktime.author: Will Sanchez
    com.apple.quicktime.displayname: GR_WitoldUrszula
    com.apple.quicktime.title: GR_WitoldUrszula
  Duration: 00:58:59.40, start: 0.000000, bitrate: 15612 kb/s
    Stream #0:0(und): Audio: aac (LC) (mp4a / 0x6134706D), 48000 Hz, stereo, fltp, 109 kb/s (default)
    Metadata:
      creation_time   : 2020-02-09T19:55:26.000000Z
      handler_name    : Core Media Audio
    Stream #0:1(und): Video: h264 (High) (avc1 / 0x31637661), yuv420p(tv, bt709, progressive), 1920x1080 [SAR 1:1 DAR 16:9], 15452 kb/s, 29.97 fps, 29.97 tbr, 30k tbn, 60k tbc (default)
    Metadata:
      creation_time   : 2020-02-09T19:55:26.000000Z
      handler_name    : Core Media Video
      encoder         : H.264
      timecode        : 00:00:00;00
    Stream #0:2(und): Data: none (tmcd / 0x64636D74) (default)
    Metadata:
      creation_time   : 2020-02-09T19:55:26.000000Z
      handler_name    : Core Media Time Code
      timecode        : 00:00:00;00
[15:21:14] scan: decoding previews for title 1
[15:21:14] scan: audio 0x0: aac, rate=48000Hz, bitrate=109724 Unknown (AAC LC) (2.0 ch) (109 kbps)
[15:21:14] scan: 10 previews, 1920x1080, 29.970 fps, autocrop = 34/0/228/106, aspect 16:9, PAR 1:1
[15:21:14] libhb: scan thread found 1 valid title(s)
[15:21:14] macgui: QueueCore scan done
[15:21:14] macgui: QueueCore started encoding 2Vimeo_Witold720p.mp4
[15:21:14] macgui: QueueCore with preset Very Fast 1080p30 (Modified)
[15:21:14] Starting work at: Sun Feb  9 15:21:14 2020

[15:21:14] 1 job(s) to process
[15:21:14] Starting Task: Encoding Pass
[15:21:14] Skipping vfr filter
[15:21:14] work: only 1 chapter, disabling chapter markers
[15:21:14] job configuration:
[15:21:14]  * source
[15:21:14]    + /Volumes/CalDigit T4_2018/2Vimeo_Witold720p.mov
[15:21:14]    + title 1, chapter(s) 1 to 1
[15:21:14]    + container: mov,mp4,m4a,3gp,3g2,mj2
[15:21:14]    + data rate: 15612 kbps
[15:21:14]  * destination
[15:21:14]    + /Volumes/CalDigit T3 12TB/ ProMedia_EditDetect/Compressed_Handbrake/2Vimeo_Witold720p.mp4
[15:21:14]    + container: MPEG-4 (libavformat)
[15:21:14]      + optimized for HTTP streaming (fast start)
[15:21:14]      + align initial A/V stream timestamps
[15:21:14]  * video track
[15:21:14]    + decoder: h264
[15:21:14]      + bitrate 15452 kbps
[15:21:14]    + filters
[15:21:14]      + Comb Detect (mode=0:spatial-metric=2:motion-thresh=2:spatial-thresh=3:filter-mode=1:block-thresh=80:block-width=16:block-height=16)
[15:21:14]      + Decomb (mode=39)
[15:21:14]      + Crop and Scale (width=1586:height=1046:crop-top=34:crop-bottom=0:crop-left=228:crop-right=106)
[15:21:14]        + source: 1920 * 1080, crop (34/0/228/106): 1586 * 1046, scale: 1586 * 1046
[15:21:14]    + Output geometry
[15:21:14]      + storage dimensions: 1586 x 1046
[15:21:14]      + pixel aspect ratio: 1 : 1
[15:21:14]      + display dimensions: 1586 x 1046
[15:21:14]    + encoder: H.265 (libx265)
[15:21:14]      + preset:  veryfast
[15:21:14]      + profile: main
[15:21:14]      + level:   4.0
[15:21:14]      + quality: 24.00 (RF)
[15:21:14]      + color profile: 1-1-1
[15:21:14]  * audio track 1
[15:21:14]    + decoder: Unknown (AAC LC) (2.0 ch) (109 kbps) (track 1, id 0x0)
[15:21:14]      + bitrate: 109 kbps, samplerate: 48000 Hz
[15:21:14]    + mixdown: Stereo
[15:21:14]    + dither: triangular
[15:21:14]    + encoder: AAC (Apple AudioToolbox)
[15:21:14]      + bitrate: 160 kbps, samplerate: 48000 Hz
[15:21:14] sync: expecting 106075 video frames
x265 [info]: HEVC encoder version 3.2.1+1-b5c86a64bbbe
x265 [info]: build info [Mac OS X][clang 11.0.0][64 bit] 8bit+10bit+12bit
x265 [info]: using cpu capabilities: MMX2 SSE2Fast LZCNT SSSE3 SSE4.2 AVX FMA3 BMI2 AVX2
x265 [warning]: Specifying a decoder level with constant rate factor rate-control requires
x265 [warning]: enabling VBV with vbv-bufsize=30000kb vbv-maxrate=30000kbps. VBV outputs are non-deterministic!
x265 [info]: Main profile, Level-4 (High tier)
x265 [info]: Thread pool created using 16 threads
x265 [info]: Slices                              : 1
x265 [info]: frame threads / pool features       : 4 / wpp(17 rows)
x265 [info]: Coding QT: max CU size, min CU size : 64 / 8
x265 [info]: Residual QT: max TU size, max depth : 32 / 1 inter / 1 intra
x265 [info]: ME / range / subpel / merge         : hex / 57 / 1 / 2
x265 [info]: Keyframe min / max / scenecut / bias: 30 / 300 / 40 / 5.00
x265 [info]: Lookahead / bframes / badapt        : 15 / 4 / 0
x265 [info]: b-pyramid / weightp / weightb       : 1 / 1 / 0
x265 [info]: References / ref-limit  cu / depth  : 2 / on / on
x265 [info]: AQ: mode / str / qg-size / cu-tree  : 2 / 1.0 / 32 / 1
x265 [info]: Rate Control / qCompress            : CRF-24.0 / 0.60
x265 [info]: VBV/HRD buffer / max-rate / init    : 30000 / 30000 / 0.900
x265 [info]: tools: rd=2 psy-rd=2.00 early-skip rskip signhide tmvp fast-intra
x265 [info]: tools: strong-intra-smoothing lslices=6 deblock sao
[15:21:14] sync: first pts video is 0
[15:21:14] sync: "Chapter 1" (1) at frame 1 time 0
[15:21:14] sync: first pts audio 0x0 is 0
[15:42:01] reader: done. 1 scr changes
[15:42:01] work: average encoding speed for job is 85.045502 fps
[15:42:02] comb detect: heavy 0 | light 758 | uncombed 105318 | total 106076
[15:42:02] decomb: deinterlaced 0 | blended 758 | unfiltered 105318 | total 106076
[15:42:02] aac-decoder done: 165910 frames, 0 decoder errors
[15:42:02] h264-decoder done: 106076 frames, 0 decoder errors
[15:42:02] sync: got 106076 frames, 106075 expected
[15:42:02] sync: framerate min 29.970 fps, max 29.970 fps, avg 29.970 fps
x265 [info]: frame I:    507, Avg QP:23.66  kb/s: 16960.50
x265 [info]: frame P:  21015, Avg QP:25.82  kb/s: 5413.16 
x265 [info]: frame B:  84554, Avg QP:31.01  kb/s: 622.11  
x265 [info]: Weighted P-Frames: Y:0.6% UV:0.5%
x265 [info]: consecutive B-frames: 1.4% 0.3% 0.3% 0.3% 97.8% 

encoded 106076 frames in 1247.10s (85.06 fps), 1649.37 kb/s, Avg QP:29.94
[15:42:05] mux: track 0, 106076 frames, 730146744 bytes, 1650.30 kbps, fifo 4096
[15:42:05] mux: track 1, 165913 frames, 59790396 bytes, 135.14 kbps, fifo 8192
[15:42:05] Finished work at: Sun Feb  9 15:42:05 2020

[15:42:05] libhb: work result = 0
[15:42:05] macgui: Queue Done, there are no more pending encodes
[15:42:05] macgui: QueueCore work done
[17:47:04] macgui: ScanCore scanning titles with a duration of 10 seconds or more
[17:47:04] CPU: Intel(R) Core(TM) i9-9900K CPU @ 3.60GHz
[17:47:04]  - Intel microarchitecture Kaby Lake
[17:47:04]  - logical processor count: 16
[17:47:04] hb_scan: path=/Volumes/CalDigit T4_2018/2Vimeo_Witold720p.mov, title_index=0
udfread ERROR: ECMA 167 Volume Recognition failed
disc.c:323: failed opening UDF image /Volumes/CalDigit T4_2018/2Vimeo_Witold720p.mov
disc.c:424: error opening file BDMV/index.bdmv
disc.c:424: error opening file BDMV/BACKUP/index.bdmv
bluray.c:2585: nav_get_title_list(/Volumes/CalDigit T4_2018/2Vimeo_Witold720p.mov/) failed
[17:47:04] bd: not a bd - trying as a stream/file instead
libdvdnav: Using dvdnav version 6.0.1
libdvdread: Encrypted DVD support unavailable.
libdvdread:DVDOpenFileUDF:UDFFindFile /VIDEO_TS/VIDEO_TS.IFO failed
libdvdread:DVDOpenFileUDF:UDFFindFile /VIDEO_TS/VIDEO_TS.BUP failed
libdvdread: Can't open file VIDEO_TS.IFO.
libdvdnav: vm: failed to read VIDEO_TS.IFO
[17:47:04] dvd: not a dvd - trying as a stream/file instead
Input #0, mov,mp4,m4a,3gp,3g2,mj2, from '/Volumes/CalDigit T4_2018/2Vimeo_Witold720p.mov':
  Metadata:
    major_brand     : qt  
    minor_version   : 0
    compatible_brands: qt  
    creation_time   : 2020-02-09T19:55:26.000000Z
    com.apple.quicktime.keywords: GR-WitoldUrszula
    com.apple.quicktime.description: This video is about GR_WitoldUrszulaBialokur2Cut
    com.apple.quicktime.author: Will Sanchez
    com.apple.quicktime.displayname: GR_WitoldUrszula
    com.apple.quicktime.title: GR_WitoldUrszula
  Duration: 00:58:59.40, start: 0.000000, bitrate: 15612 kb/s
    Stream #0:0(und): Audio: aac (LC) (mp4a / 0x6134706D), 48000 Hz, stereo, fltp, 109 kb/s (default)
    Metadata:
      creation_time   : 2020-02-09T19:55:26.000000Z
      handler_name    : Core Media Audio
    Stream #0:1(und): Video: h264 (High) (avc1 / 0x31637661), yuv420p(tv, bt709, progressive), 1920x1080 [SAR 1:1 DAR 16:9], 15452 kb/s, 29.97 fps, 29.97 tbr, 30k tbn, 60k tbc (default)
    Metadata:
      creation_time   : 2020-02-09T19:55:26.000000Z
      handler_name    : Core Media Video
      encoder         : H.264
      timecode        : 00:00:00;00
    Stream #0:2(und): Data: none (tmcd / 0x64636D74) (default)
    Metadata:
      creation_time   : 2020-02-09T19:55:26.000000Z
      handler_name    : Core Media Time Code
      timecode        : 00:00:00;00
[17:47:04] scan: decoding previews for title 1
[17:47:04] scan: audio 0x0: aac, rate=48000Hz, bitrate=109724 Unknown (AAC LC) (2.0 ch) (109 kbps)
[17:47:05] scan: 10 previews, 1920x1080, 29.970 fps, autocrop = 34/0/228/106, aspect 16:9, PAR 1:1
[17:47:05] libhb: scan thread found 1 valid title(s)
[17:47:05] macgui: ScanCore scan done
[17:47:52] macgui: ScanCore scanning titles with a duration of 10 seconds or more
[17:47:52] CPU: Intel(R) Core(TM) i9-9900K CPU @ 3.60GHz
[17:47:52]  - Intel microarchitecture Kaby Lake
[17:47:52]  - logical processor count: 16
[17:47:52] hb_scan: path=/Volumes/CalDigit T3 12TB/ ProMedia_EditDetect/2018-WitoldUrszula/GR_WitoldUrszula2HandBr.m4v, title_index=0
udfread ERROR: ECMA 167 Volume Recognition failed
disc.c:323: failed opening UDF image /Volumes/CalDigit T3 12TB/ ProMedia_EditDetect/2018-WitoldUrszula/GR_WitoldUrszula2HandBr.m4v
disc.c:424: error opening file BDMV/index.bdmv
disc.c:424: error opening file BDMV/BACKUP/index.bdmv
bluray.c:2585: nav_get_title_list(/Volumes/CalDigit T3 12TB/ ProMedia_EditDetect/2018-WitoldUrszula/GR_WitoldUrszula2HandBr.m4v/) failed
[17:47:52] bd: not a bd - trying as a stream/file instead
libdvdnav: Using dvdnav version 6.0.1
libdvdread: Encrypted DVD support unavailable.
libdvdread:DVDOpenFileUDF:UDFFindFile /VIDEO_TS/VIDEO_TS.IFO failed
libdvdread:DVDOpenFileUDF:UDFFindFile /VIDEO_TS/VIDEO_TS.BUP failed
libdvdread: Can't open file VIDEO_TS.IFO.
libdvdnav: vm: failed to read VIDEO_TS.IFO
[17:47:52] dvd: not a dvd - trying as a stream/file instead
Input #0, mov,mp4,m4a,3gp,3g2,mj2, from '/Volumes/CalDigit T3 12TB/ ProMedia_EditDetect/2018-WitoldUrszula/GR_WitoldUrszula2HandBr.m4v':
  Metadata:
    major_brand     : M4V 
    minor_version   : 1
    compatible_brands: M4V M4A mp42isom
    creation_time   : 2020-02-10T22:36:32.000000Z
    title           : GR_WitoldUrszula
    keywords        : GR-WitoldUrszula
    artist          : Will Sanchez
  Duration: 00:58:59.40, start: 0.000000, bitrate: 10076 kb/s
    Stream #0:0(eng): Audio: aac (LC) (mp4a / 0x6134706D), 48000 Hz, stereo, fltp, 109 kb/s (default)
    Metadata:
      creation_time   : 2020-02-10T22:36:32.000000Z
      handler_name    : Core Media Audio
    Stream #0:1(und): Video: h264 (High) (avc1 / 0x31637661), yuv420p(tv, bt709, progressive), 1920x1080 [SAR 1:1 DAR 16:9], 9961 kb/s, 29.97 fps, 29.97 tbr, 30k tbn, 60k tbc (default)
    Metadata:
      creation_time   : 2020-02-10T22:36:32.000000Z
      handler_name    : Core Media Video
    Stream #0:2: Video: mjpeg (Baseline), yuvj420p(pc, bt470bg/unknown/unknown), 1920x1080 [SAR 72:72 DAR 16:9], 90k tbr, 90k tbn, 90k tbc (attached pic)
[17:47:52] scan: decoding previews for title 1
[17:47:52] scan: audio 0x0: aac, rate=48000Hz, bitrate=109722 English (AAC LC) (2.0 ch) (109 kbps)
[17:47:52] scan: 10 previews, 1920x1080, 29.970 fps, autocrop = 32/0/228/208, aspect 16:9, PAR 1:1
[17:47:53] libhb: scan thread found 1 valid title(s)
[17:47:53] macgui: ScanCore scan done
[17:47:55] macgui: QueueCore scanning specifically for title: 1
[17:47:55] CPU: Intel(R) Core(TM) i9-9900K CPU @ 3.60GHz
[17:47:55]  - Intel microarchitecture Kaby Lake
[17:47:55]  - logical processor count: 16
[17:47:55] hb_scan: path=/Volumes/CalDigit T3 12TB/ ProMedia_EditDetect/2018-WitoldUrszula/GR_WitoldUrszula2HandBr.m4v, title_index=1
udfread ERROR: ECMA 167 Volume Recognition failed
disc.c:323: failed opening UDF image /Volumes/CalDigit T3 12TB/ ProMedia_EditDetect/2018-WitoldUrszula/GR_WitoldUrszula2HandBr.m4v
disc.c:424: error opening file BDMV/index.bdmv
disc.c:424: error opening file BDMV/BACKUP/index.bdmv
bluray.c:2585: nav_get_title_list(/Volumes/CalDigit T3 12TB/ ProMedia_EditDetect/2018-WitoldUrszula/GR_WitoldUrszula2HandBr.m4v/) failed
[17:47:55] bd: not a bd - trying as a stream/file instead
libdvdnav: Using dvdnav version 6.0.1
libdvdread: Encrypted DVD support unavailable.
libdvdread:DVDOpenFileUDF:UDFFindFile /VIDEO_TS/VIDEO_TS.IFO failed
libdvdread:DVDOpenFileUDF:UDFFindFile /VIDEO_TS/VIDEO_TS.BUP failed
libdvdread: Can't open file VIDEO_TS.IFO.
libdvdnav: vm: failed to read VIDEO_TS.IFO
[17:47:55] dvd: not a dvd - trying as a stream/file instead
Input #0, mov,mp4,m4a,3gp,3g2,mj2, from '/Volumes/CalDigit T3 12TB/ ProMedia_EditDetect/2018-WitoldUrszula/GR_WitoldUrszula2HandBr.m4v':
  Metadata:
    major_brand     : M4V 
    minor_version   : 1
    compatible_brands: M4V M4A mp42isom
    creation_time   : 2020-02-10T22:36:32.000000Z
    title           : GR_WitoldUrszula
    keywords        : GR-WitoldUrszula
    artist          : Will Sanchez
  Duration: 00:58:59.40, start: 0.000000, bitrate: 10076 kb/s
    Stream #0:0(eng): Audio: aac (LC) (mp4a / 0x6134706D), 48000 Hz, stereo, fltp, 109 kb/s (default)
    Metadata:
      creation_time   : 2020-02-10T22:36:32.000000Z
      handler_name    : Core Media Audio
    Stream #0:1(und): Video: h264 (High) (avc1 / 0x31637661), yuv420p(tv, bt709, progressive), 1920x1080 [SAR 1:1 DAR 16:9], 9961 kb/s, 29.97 fps, 29.97 tbr, 30k tbn, 60k tbc (default)
    Metadata:
      creation_time   : 2020-02-10T22:36:32.000000Z
      handler_name    : Core Media Video
    Stream #0:2: Video: mjpeg (Baseline), yuvj420p(pc, bt470bg/unknown/unknown), 1920x1080 [SAR 72:72 DAR 16:9], 90k tbr, 90k tbn, 90k tbc (attached pic)
[17:47:55] scan: decoding previews for title 1
[17:47:55] scan: audio 0x0: aac, rate=48000Hz, bitrate=109722 English (AAC LC) (2.0 ch) (109 kbps)
[17:47:55] scan: 10 previews, 1920x1080, 29.970 fps, autocrop = 32/0/228/208, aspect 16:9, PAR 1:1
[17:47:55] libhb: scan thread found 1 valid title(s)
[17:47:55] macgui: QueueCore scan done
[17:47:55] macgui: QueueCore started encoding GR_WitoldUrszula2HandBr.mp4
[17:47:55] macgui: QueueCore with preset herFLiX
[17:47:55] Starting work at: Mon Feb 10 17:47:55 2020

[17:47:55] 1 job(s) to process
[17:47:55] Starting Task: Encoding Pass
[17:47:55] Skipping vfr filter
[17:47:55] work: only 1 chapter, disabling chapter markers
[17:47:55] job configuration:
[17:47:55]  * source
[17:47:55]    + /Volumes/CalDigit T3 12TB/ ProMedia_EditDetect/2018-WitoldUrszula/GR_WitoldUrszula2HandBr.m4v
[17:47:55]    + title 1, chapter(s) 1 to 1
[17:47:55]    + container: mov,mp4,m4a,3gp,3g2,mj2
[17:47:55]    + data rate: 10076 kbps
[17:47:55]  * destination
[17:47:55]    + /Volumes/CalDigit T3 12TB/ ProMedia_EditDetect/Compressed_Handbrake/GR_WitoldUrszula2HandBr.mp4
[17:47:55]    + container: MPEG-4 (libavformat)
[17:47:55]      + optimized for HTTP streaming (fast start)
[17:47:55]      + align initial A/V stream timestamps
[17:47:55]  * video track
[17:47:55]    + decoder: h264
[17:47:55]      + bitrate 9961 kbps
[17:47:55]    + filters
[17:47:55]      + Comb Detect (mode=0:spatial-metric=2:motion-thresh=2:spatial-thresh=3:filter-mode=1:block-thresh=80:block-width=16:block-height=16)
[17:47:55]      + Decomb (mode=39)
[17:47:55]      + Crop and Scale (width=1484:height=1048:crop-top=32:crop-bottom=0:crop-left=228:crop-right=208)
[17:47:55]        + source: 1920 * 1080, crop (32/0/228/208): 1484 * 1048, scale: 1484 * 1048
[17:47:55]    + Output geometry
[17:47:55]      + storage dimensions: 1484 x 1048
[17:47:55]      + pixel aspect ratio: 1 : 1
[17:47:55]      + display dimensions: 1484 x 1048
[17:47:55]    + encoder: H.264 (libx264)
[17:47:55]      + preset:  veryfast
[17:47:55]      + tune:    fastdecode
[17:47:55]      + profile: main
[17:47:55]      + level:   4.0
[17:47:55]      + quality: 24.00 (RF)
[17:47:55]      + color profile: 1-1-1
[17:47:55]  * audio track 1
[17:47:55]    + decoder: English (AAC LC) (2.0 ch) (109 kbps) (track 1, id 0x0)
[17:47:55]      + bitrate: 109 kbps, samplerate: 48000 Hz
[17:47:55]    + mixdown: Stereo
[17:47:55]    + dither: triangular
[17:47:55]    + encoder: AAC (Apple AudioToolbox)
[17:47:55]      + bitrate: 160 kbps, samplerate: 48000 Hz
[17:47:55] sync: expecting 106075 video frames
[17:47:55] encx264: min-keyint: 30, keyint: 300
[17:47:55] encx264: encoding at constant RF 24.000000
[17:47:55] encx264: unparsed options: level=4.0:ref=1:weightb=0:no-deblock=1:cabac=0:8x8dct=0:weightp=0:subme=2:mixed-refs=0:trellis=0:vbv-bufsize=25000:vbv-maxrate=20000:rc-lookahead=10
x264 [info]: using SAR=1/1
x264 [info]: using cpu capabilities: MMX2 SSE2Fast SSSE3 SSE4.2 AVX FMA3 BMI2 AVX2
x264 [info]: profile Main, level 4.0, 4:2:0, 8-bit
[17:47:55] sync: first pts video is 0
[17:47:55] sync: "Chapter 1" (1) at frame 1 time 0
[17:47:55] sync: first pts audio 0x0 is 0
[17:48:48] macgui: QueueCore encode canceled
[17:48:48] work: average encoding speed for job is 230.588638 fps
[17:48:48] comb detect: heavy 0 | light 70 | uncombed 11999 | total 12069
[17:48:48] decomb: deinterlaced 0 | blended 70 | unfiltered 11994 | total 12064
[17:48:48] aac-decoder done: 19032 frames, 0 decoder errors
[17:48:48] h264-decoder done: 12131 frames, 0 decoder errors
[17:48:48] sync: got 12087 frames, 106075 expected
[17:48:48] sync: framerate min 29.970 fps, max 29.970 fps, avg 29.970 fps
x264 [info]: frame I:56    Avg QP:20.14  size: 85604
x264 [info]: frame P:3129  Avg QP:22.46  size: 17868
x264 [info]: frame B:8839  Avg QP:23.05  size:  3321
x264 [info]: consecutive B-frames:  1.2%  1.9%  0.9% 96.0%
x264 [info]: mb I  I16..4: 61.6%  0.0% 38.4%
x264 [info]: mb P  I16..4: 13.9%  0.0%  2.0%  P16..4: 26.5%  6.4%  1.7%  0.0%  0.0%    skip:49.5%
x264 [info]: mb B  I16..4:  1.2%  0.0%  0.1%  B16..8:  4.4%  1.1%  0.1%  direct: 8.6%  skip:84.4%  L0:34.0% L1:42.3% BI:23.7%
x264 [info]: coded y,uvDC,uvAC intra: 19.4% 34.3% 4.8% inter: 4.2% 7.6% 0.0%
x264 [info]: i16 v,h,dc,p: 57% 19% 13% 11%
x264 [info]: i4 v,h,dc,ddl,ddr,vr,hd,vl,hu: 22% 18% 21%  6%  8%  7%  7%  5%  5%
x264 [info]: i8c dc,h,v,p: 61% 17% 19%  3%
x264 [info]: kb/s:1795.84
[17:48:48] mux: track 0, 12023 frames, 90058221 bytes, 1786.56 kbps, fifo 2048
[17:48:48] mux: track 1, 18904 frames, 6613522 bytes, 131.20 kbps, fifo 4096
[17:48:48] Finished work at: Mon Feb 10 17:48:48 2020

[17:48:48] libhb: work result = 1
[17:48:49] macgui: Queue manually stopped
[17:48:49] macgui: QueueCore work canceled


mduell
Veteran User
Posts: 7116
Joined: Sat Apr 21, 2007 8:54 pm

Re: presets changes storage size

Post by mduell »

Code: Select all

[15:18:12] scan: 10 previews, 1920x1080, 29.970 fps, autocrop = 34/0/228/106, aspect 16:9, PAR 1:1
HB found black or grey bars on the sides of your image and is cropping them off. If it's wrong, try increasing the number of autocrop samples in preferences. If you'd like to keep them (or they're actual content), you can manually set the cropping to 0 on the Picture tab.

G0ttaRun
Posts: 2
Joined: Mon Feb 10, 2020 11:07 pm

Re: presets changes storage size

Post by G0ttaRun »

Thank you for the insight.

Post Reply