Encode failing immediately on 1.2.2

HandBrake for Mac support
Forum rules
An Activity Log is required for support requests. Please read How-to get an activity log? for details on how and why this should be provided.
Post Reply
beerboyuk
New User
Posts: 1
Joined: Sun Oct 27, 2019 8:49 pm

Encode failing immediately on 1.2.2

Post by beerboyuk »

Immediate Encode Failed message when transcoding any video in Catalina :

Drag and drop or using finder to select video. Add To Queue and Start:

I have granted full disk access to the application.
Looking at the activity log, there appears to be a problem with the file reader/writer but I could be wrong :? .
I don't know how to resolve this issue.

HandBrake version (1.2.2):
Operating system and version (macOS 10.15 Catalina):


HandBrake Activity Log ***required*** (see How-to get an activity log)

Code: Select all

[21:44:39] macgui: Handbrake Version: 1.2.2  (2019022300)
[21:44:39] macgui: built-in presets updated
[21:44:39] hb_init: starting libhb thread
[21:44:39] hb_init: starting libhb thread
[21:45:08] macgui: trying to open a folder or file
[21:45:08] macgui: ScanCore scanning titles with a duration of 10 seconds or more
[21:45:08] CPU: Intel(R) Xeon(R) CPU           X5690  @ 3.47GHz
[21:45:08]  - logical processor count: 12
[21:45:08] hb_scan: path=/Volumes/Master/mark/Downloads/295e5859c248468c8a7bc4db0cbd6f70.mkv, title_index=0
udfread ERROR: ECMA 167 Volume Recognition failed
disc.c:323: failed opening UDF image /Volumes/Master/mark/Downloads/295e5859c248468c8a7bc4db0cbd6f70.mkv
disc.c:424: error opening file BDMV/index.bdmv
disc.c:424: error opening file BDMV/BACKUP/index.bdmv
[21:45:08] bd: not a bd - trying as a stream/file instead
libdvdnav: Using dvdnav version 6.0.0
libdvdread: Encrypted DVD support unavailable.
libdvdread:DVDOpenFileUDF:UDFFindFile /VIDEO_TS/VIDEO_TS.IFO failed
libdvdread:DVDOpenFileUDF:UDFFindFile /VIDEO_TS/VIDEO_TS.BUP failed
libdvdread: Can't open file VIDEO_TS.IFO.
libdvdnav: vm: failed to read VIDEO_TS.IFO
[21:45:08] dvd: not a dvd - trying as a stream/file instead
Input #0, matroska,webm, from '/Volumes/Master/mark/Downloads/295e5859c248468c8a7bc4db0cbd6f70.mkv':
  Metadata:
    encoder         : libebml v1.3.5 + libmatroska v1.4.8
    creation_time   : 2019-10-26T16:51:45.000000Z
  Duration: 00:48:33.18, start: 0.000000, bitrate: 5620 kb/s
    Stream #0:0: Video: h264 (Constrained Baseline), yuv420p(tv, bt709, progressive), 1920x1080 [SAR 1:1 DAR 16:9], 23.98 fps, 23.98 tbr, 1k tbn, 47.95 tbc (default)
    Metadata:
      BPS             : 4978114
      BPS-eng         : 4978114
      DURATION        : 00:48:33.161000000
      DURATION-eng    : 00:48:33.161000000
      NUMBER_OF_FRAMES: 69846
      NUMBER_OF_FRAMES-eng: 69846
      NUMBER_OF_BYTES : 1812756146
      NUMBER_OF_BYTES-eng: 1812756146
      _STATISTICS_WRITING_APP: mkvmerge v19.0.0 ('Brave Captain') 64-bit
      _STATISTICS_WRITING_APP-eng: mkvmerge v19.0.0 ('Brave Captain') 64-bit
      _STATISTICS_WRITING_DATE_UTC: 2019-10-26 16:51:45
      _STATISTICS_WRITING_DATE_UTC-eng: 2019-10-26 16:51:45
      _STATISTICS_TAGS: BPS DURATION NUMBER_OF_FRAMES NUMBER_OF_BYTES
      _STATISTICS_TAGS-eng: BPS DURATION NUMBER_OF_FRAMES NUMBER_OF_BYTES
    Stream #0:1(eng): Audio: ac3, 48000 Hz, 5.1(side), fltp, 640 kb/s (default)
    Metadata:
      BPS             : 640000
      BPS-eng         : 640000
      DURATION        : 00:48:33.184000000
      DURATION-eng    : 00:48:33.184000000
      NUMBER_OF_FRAMES: 91037
      NUMBER_OF_FRAMES-eng: 91037
      NUMBER_OF_BYTES : 233054720
      NUMBER_OF_BYTES-eng: 233054720
      _STATISTICS_WRITING_APP: mkvmerge v19.0.0 ('Brave Captain') 64-bit
      _STATISTICS_WRITING_APP-eng: mkvmerge v19.0.0 ('Brave Captain') 64-bit
      _STATISTICS_WRITING_DATE_UTC: 2019-10-26 16:51:45
      _STATISTICS_WRITING_DATE_UTC-eng: 2019-10-26 16:51:45
      _STATISTICS_TAGS: BPS DURATION NUMBER_OF_FRAMES NUMBER_OF_BYTES
      _STATISTICS_TAGS-eng: BPS DURATION NUMBER_OF_FRAMES NUMBER_OF_BYTES
    Stream #0:2(eng): Subtitle: subrip
    Metadata:
      title           : English (SDH)
      BPS             : 47
      BPS-eng         : 47
      DURATION        : 00:46:02.294000000
      DURATION-eng    : 00:46:02.294000000
      NUMBER_OF_FRAMES: 589
      NUMBER_OF_FRAMES-eng: 589
      NUMBER_OF_BYTES : 16274
      NUMBER_OF_BYTES-eng: 16274
      _STATISTICS_WRITING_APP: mkvmerge v19.0.0 ('Brave Captain') 64-bit
      _STATISTICS_WRITING_APP-eng: mkvmerge v19.0.0 ('Brave Captain') 64-bit
      _STATISTICS_WRITING_DATE_UTC: 2019-10-26 16:51:45
      _STATISTICS_WRITING_DATE_UTC-eng: 2019-10-26 16:51:45
      _STATISTICS_TAGS: BPS DURATION NUMBER_OF_FRAMES NUMBER_OF_BYTES
      _STATISTICS_TAGS-eng: BPS DURATION NUMBER_OF_FRAMES NUMBER_OF_BYTES
[21:45:08] scan: decoding previews for title 1
[21:45:08] scan: audio 0x1: ac3, rate=48000Hz, bitrate=640000 English (AC3) (5.1 ch)
[21:45:09] scan: 10 previews, 1920x1080, 23.976 fps, autocrop = 104/104/0/6, aspect 16:9, PAR 1:1
[21:45:09] libhb: scan thread found 1 valid title(s)
[21:45:09] macgui: ScanCore scan done
[21:45:43] macgui: QueueCore prevented sleep
[21:45:43] macgui: QueueCore scanning specifically for title: 1
[21:45:43] CPU: Intel(R) Xeon(R) CPU           X5690  @ 3.47GHz
[21:45:43]  - logical processor count: 12
[21:45:43] hb_scan: path=/Volumes/Master/mark/Downloads/295e5859c248468c8a7bc4db0cbd6f70.mkv, title_index=1
udfread ERROR: ECMA 167 Volume Recognition failed
disc.c:323: failed opening UDF image /Volumes/Master/mark/Downloads/295e5859c248468c8a7bc4db0cbd6f70.mkv
disc.c:424: error opening file BDMV/index.bdmv
disc.c:424: error opening file BDMV/BACKUP/index.bdmv
[21:45:43] bd: not a bd - trying as a stream/file instead
libdvdnav: Using dvdnav version 6.0.0
libdvdread: Encrypted DVD support unavailable.
libdvdread:DVDOpenFileUDF:UDFFindFile /VIDEO_TS/VIDEO_TS.IFO failed
libdvdread:DVDOpenFileUDF:UDFFindFile /VIDEO_TS/VIDEO_TS.BUP failed
libdvdread: Can't open file VIDEO_TS.IFO.
libdvdnav: vm: failed to read VIDEO_TS.IFO
[21:45:43] dvd: not a dvd - trying as a stream/file instead
Input #0, matroska,webm, from '/Volumes/Master/mark/Downloads/295e5859c248468c8a7bc4db0cbd6f70.mkv':
  Metadata:
    encoder         : libebml v1.3.5 + libmatroska v1.4.8
    creation_time   : 2019-10-26T16:51:45.000000Z
  Duration: 00:48:33.18, start: 0.000000, bitrate: 5620 kb/s
    Stream #0:0: Video: h264 (Constrained Baseline), yuv420p(tv, bt709, progressive), 1920x1080 [SAR 1:1 DAR 16:9], 23.98 fps, 23.98 tbr, 1k tbn, 47.95 tbc (default)
    Metadata:
      BPS             : 4978114
      BPS-eng         : 4978114
      DURATION        : 00:48:33.161000000
      DURATION-eng    : 00:48:33.161000000
      NUMBER_OF_FRAMES: 69846
      NUMBER_OF_FRAMES-eng: 69846
      NUMBER_OF_BYTES : 1812756146
      NUMBER_OF_BYTES-eng: 1812756146
      _STATISTICS_WRITING_APP: mkvmerge v19.0.0 ('Brave Captain') 64-bit
      _STATISTICS_WRITING_APP-eng: mkvmerge v19.0.0 ('Brave Captain') 64-bit
      _STATISTICS_WRITING_DATE_UTC: 2019-10-26 16:51:45
      _STATISTICS_WRITING_DATE_UTC-eng: 2019-10-26 16:51:45
      _STATISTICS_TAGS: BPS DURATION NUMBER_OF_FRAMES NUMBER_OF_BYTES
      _STATISTICS_TAGS-eng: BPS DURATION NUMBER_OF_FRAMES NUMBER_OF_BYTES
    Stream #0:1(eng): Audio: ac3, 48000 Hz, 5.1(side), fltp, 640 kb/s (default)
    Metadata:
      BPS             : 640000
      BPS-eng         : 640000
      DURATION        : 00:48:33.184000000
      DURATION-eng    : 00:48:33.184000000
      NUMBER_OF_FRAMES: 91037
      NUMBER_OF_FRAMES-eng: 91037
      NUMBER_OF_BYTES : 233054720
      NUMBER_OF_BYTES-eng: 233054720
      _STATISTICS_WRITING_APP: mkvmerge v19.0.0 ('Brave Captain') 64-bit
      _STATISTICS_WRITING_APP-eng: mkvmerge v19.0.0 ('Brave Captain') 64-bit
      _STATISTICS_WRITING_DATE_UTC: 2019-10-26 16:51:45
      _STATISTICS_WRITING_DATE_UTC-eng: 2019-10-26 16:51:45
      _STATISTICS_TAGS: BPS DURATION NUMBER_OF_FRAMES NUMBER_OF_BYTES
      _STATISTICS_TAGS-eng: BPS DURATION NUMBER_OF_FRAMES NUMBER_OF_BYTES
    Stream #0:2(eng): Subtitle: subrip
    Metadata:
      title           : English (SDH)
      BPS             : 47
      BPS-eng         : 47
      DURATION        : 00:46:02.294000000
      DURATION-eng    : 00:46:02.294000000
      NUMBER_OF_FRAMES: 589
      NUMBER_OF_FRAMES-eng: 589
      NUMBER_OF_BYTES : 16274
      NUMBER_OF_BYTES-eng: 16274
      _STATISTICS_WRITING_APP: mkvmerge v19.0.0 ('Brave Captain') 64-bit
      _STATISTICS_WRITING_APP-eng: mkvmerge v19.0.0 ('Brave Captain') 64-bit
      _STATISTICS_WRITING_DATE_UTC: 2019-10-26 16:51:45
      _STATISTICS_WRITING_DATE_UTC-eng: 2019-10-26 16:51:45
      _STATISTICS_TAGS: BPS DURATION NUMBER_OF_FRAMES NUMBER_OF_BYTES
      _STATISTICS_TAGS-eng: BPS DURATION NUMBER_OF_FRAMES NUMBER_OF_BYTES
[21:45:43] scan: decoding previews for title 1
[21:45:43] scan: audio 0x1: ac3, rate=48000Hz, bitrate=640000 English (AC3) (5.1 ch)
[21:45:43] scan: 10 previews, 1920x1080, 23.976 fps, autocrop = 104/104/0/6, aspect 16:9, PAR 1:1
[21:45:43] libhb: scan thread found 1 valid title(s)
[21:45:43] macgui: QueueCore scan done
[21:45:43] 1 job(s) to process
[21:45:43] Skipping subtitle scan.  No suitable subtitle tracks.
[21:45:43] starting job
[21:45:43] macgui: QueueCore started encoding 295e5859c248468c8a7bc4db0cbd6f70.mp4
[21:45:43] macgui: QueueCore with preset Fast 1080p30
[21:45:43] decomb filter thread started for segment 0
[21:45:43] decomb filter thread started for segment 2
[21:45:43] decomb filter thread started for segment 1
[21:45:43] decomb filter thread started for segment 3
[21:45:43] decomb filter thread started for segment 4
[21:45:43] decomb filter thread started for segment 5
[21:45:43] decomb filter thread started for segment 6
[21:45:43] decomb filter thread started for segment 7
[21:45:43] decomb filter thread started for segment 8
[21:45:43] decomb filter thread started for segment 9
[21:45:43] decomb filter thread started for segment 10
[21:45:43] decomb filter thread started for segment 11
[21:45:43] decomb check thread started for segment 0
[21:45:43] decomb check thread started for segment 1
[21:45:43] decomb check thread started for segment 2
[21:45:43] decomb check thread started for segment 3
[21:45:43] decomb check thread started for segment 5
[21:45:43] decomb check thread started for segment 4
[21:45:43] decomb check thread started for segment 6
[21:45:43] decomb check thread started for segment 7
[21:45:43] decomb check thread started for segment 8
[21:45:43] decomb check thread started for segment 9
[21:45:43] decomb check thread started for segment 10
[21:45:43] decomb check thread started for segment 11
[21:45:43] mask filter thread started for segment 0
[21:45:43] mask filter thread started for segment 1
[21:45:43] mask filter thread started for segment 2
[21:45:43] mask filter thread started for segment 3
[21:45:43] mask filter thread started for segment 4
[21:45:43] mask filter thread started for segment 5
[21:45:43] mask filter thread started for segment 6
[21:45:43] mask filter thread started for segment 7
[21:45:43] mask filter thread started for segment 8
[21:45:43] mask filter thread started for segment 9
[21:45:43] mask filter thread started for segment 10
[21:45:43] mask filter thread started for segment 11
[21:45:43] mask erode thread started for segment 0
[21:45:43] mask erode thread started for segment 1
[21:45:43] mask erode thread started for segment 2
[21:45:43] mask erode thread started for segment 3
[21:45:43] mask erode thread started for segment 4
[21:45:43] mask erode thread started for segment 5
[21:45:43] mask erode thread started for segment 6
[21:45:43] mask erode thread started for segment 7
[21:45:43] mask erode thread started for segment 8
[21:45:43] mask erode thread started for segment 9
[21:45:43] mask erode thread started for segment 10
[21:45:43] mask erode thread started for segment 11
[21:45:43] mask dilate thread started for segment 0
[21:45:43] mask dilate thread started for segment 1
[21:45:43] mask dilate thread started for segment 2
[21:45:43] mask dilate thread started for segment 3
[21:45:43] mask dilate thread started for segment 4
[21:45:43] mask dilate thread started for segment 5
[21:45:43] mask dilate thread started for segment 6
[21:45:43] mask dilate thread started for segment 7
[21:45:43] mask dilate thread started for segment 8
[21:45:43] mask dilate thread started for segment 9
[21:45:43] mask dilate thread started for segment 10
[21:45:43] mask dilate thread started for segment 11
[21:45:43] yadif thread started for segment 0
[21:45:43] yadif thread started for segment 1
[21:45:43] yadif thread started for segment 2
[21:45:43] yadif thread started for segment 3
[21:45:43] yadif thread started for segment 4
[21:45:43] yadif thread started for segment 5
[21:45:43] yadif thread started for segment 6
[21:45:43] yadif thread started for segment 7
[21:45:43] yadif thread started for segment 8
[21:45:43] yadif thread started for segment 9
[21:45:43] yadif thread started for segment 10
[21:45:43] yadif thread started for segment 11
[21:45:43] work: only 1 chapter, disabling chapter markers
[21:45:43] job configuration:
[21:45:43]  * source
[21:45:43]    + /Volumes/Master/mark/Downloads/295e5859c248468c8a7bc4db0cbd6f70.mkv
[21:45:43]    + title 1, chapter(s) 1 to 1
[21:45:43]    + container: matroska,webm
[21:45:43]    + data rate: 5620 kbps
[21:45:43]  * destination
[21:45:43]    + /Volumes/Master/mark/Movies/OUT/295e5859c248468c8a7bc4db0cbd6f70.mp4
[21:45:43]    + container: MPEG-4 (libavformat)
[21:45:43]      + align initial A/V stream timestamps
[21:45:43]  * video track
[21:45:43]    + decoder: h264
[21:45:43]    + filters
[21:45:43]      + Comb Detect (mode=3:spatial-metric=2:motion-thresh=1:spatial-thresh=1:filter-mode=2:block-thresh=40:block-width=16:block-height=16)
[21:45:43]      + Decomb (mode=39)
[21:45:43]      + Framerate Shaper (mode=2:rate=27000000/900000)
[21:45:43]        + frame rate: 23.976 fps -> peak rate limited to 30.000 fps
[21:45:43]      + Crop and Scale (width=1914:height=872:crop-top=104:crop-bottom=104:crop-left=0:crop-right=6)
[21:45:43]        + source: 1920 * 1080, crop (104/104/0/6): 1914 * 872, scale: 1914 * 872
[21:45:43]    + Output geometry
[21:45:43]      + storage dimensions: 1914 x 872
[21:45:43]      + pixel aspect ratio: 1 : 1
[21:45:43]      + display dimensions: 1914 x 872
[21:45:43]    + encoder: H.264 (libx264)
[21:45:43]      + preset:  fast
[21:45:43]      + profile: main
[21:45:43]      + level:   4.0
[21:45:43]      + quality: 22.00 (RF)
[21:45:43]      + color profile: 1-1-1
[21:45:43]  * audio track 1
[21:45:43]    + decoder: English (AC3) (5.1 ch) (track 1, id 0x1)
[21:45:43]      + bitrate: 640 kbps, samplerate: 48000 Hz
[21:45:43]    + mixdown: Stereo
[21:45:43]    + dither: triangular
[21:45:43]    + encoder: AAC (Apple AudioToolbox)
[21:45:43]      + bitrate: 160 kbps, samplerate: 48000 Hz
[21:45:43] sync: expecting 69846 video frames
[21:45:43] encx264: min-keyint: 24, keyint: 240
[21:45:43] encx264: encoding at constant RF 22.000000
[21:45:43] encx264: unparsed options: level=4.0:ref=2:8x8dct=0:weightp=1:subme=6:vbv-bufsize=25000:vbv-maxrate=20000:rc-lookahead=30
x264 [info]: using SAR=1/1
x264 [info]: using cpu capabilities: MMX2 SSE2Fast SSSE3 SSE4.2
x264 [info]: profile Main, level 4.0, 4:2:0, 8-bit
error: avio_open2 failed, errno -13
[21:45:44] work: average encoding speed for job is 0.000000 fps
[21:45:44] comb detect: heavy 0 | light 0 | uncombed 0 | total 0
[21:45:44] decomb: deinterlaced 0 | blended 0 | unfiltered 0 | total 0
[21:45:44] vfr: 0 frames output, 0 dropped and 0 duped for CFR/PFR
[21:45:44] vfr: lost time: 0 (0 frames)
[21:45:44] vfr: gained time: 0 (0 frames) (0 not accounted for)
[21:45:44] ac3-decoder done: 0 frames, 0 decoder errors
[21:45:44] h264-decoder done: 0 frames, 0 decoder errors
[21:45:44] sync: got 0 frames, 69846 expected
[21:45:44] libhb: work result = 3
[21:45:44] macgui: QueueCore work failed
[21:45:44] macgui: Queue Done, there are no more pending encodes
[21:45:44] macgui: QueueCore stopped preventing sleep


User avatar
Rodeo
HandBrake Team
Posts: 12400
Joined: Tue Mar 03, 2009 8:55 pm

Re: Encode failing immediately on 1.2.2

Post by Rodeo »

Scanning worked so my best guess is either /Volumes/Master/mark/Movies/OUT/ doesn't exist or there are permissions issues writing to that folder.

Post Reply