Can't burn with subtitles

HandBrake for Mac support
Forum rules
An Activity Log is required for support requests. Please read How-to get an activity log? for details on how and why this should be provided.
Post Reply
DennisXL
New User
Posts: 1
Joined: Fri Aug 23, 2019 1:28 am

Can't burn with subtitles

Post by DennisXL » Fri Aug 23, 2019 1:35 am

Description of problem or question:

I'am trying to rip videos with subtitles .srt but selection behavior is ignoring to load the subtitles , in the activity log I can read this when I load the folder where the video is located , I have tried everything with selection behavior .

I can do it manually but I have a lot of videos to rip .

[19:26:07] hb_stream_open: open /Users/myuser/LocalDesktop/Learning Cloud Computing/01 - Introduction/03 - Learning supports.srt failed

.srt :

1
0:00:00,50 --> 0:00:02,30
- [Instructor] This course is part of a series

2
0:00:02,30 --> 0:00:04,80


Steps to reproduce the problem (If Applicable):




HandBrake version (e.g., 1.0.0):

Version is 1.2.2 (2019022300)


Operating system and version (e.g., Ubuntu 16.04 LTS, macOS 10.13 High Sierra, Windows 10 Creators Update):




HandBrake Activity Log ***required*** (see How-to get an activity log)

Code: Select all

[19:34:10] macgui: Handbrake Version: 1.2.2  (2019022300)
[19:34:10] hb_init: starting libhb thread
[19:34:10] thread 700010262000 started ("libhb")
[19:34:11] hb_init: starting libhb thread
[19:34:11] thread 7000102e5000 started ("libhb")
[19:34:19] macgui: trying to open a folder or file
[19:34:19] macgui: ScanCore scanning titles with a duration of 10 seconds or more
[19:34:19] CPU: Intel(R) Core(TM) i5-4690 CPU @ 3.50GHz
[19:34:19]  - Intel microarchitecture Haswell
[19:34:19]  - logical processor count: 4
[19:34:19] hb_scan: path=/Users/dvillalobos/LocalDesktop/01 - Introduction, title_index=0
[19:34:19] thread 7000101df000 started ("scan")
disc.c:424: error opening file BDMV/index.bdmv
disc.c:424: error opening file BDMV/BACKUP/index.bdmv
[19:34:19] bd: not a bd - trying as a stream/file instead
libdvdnav: Using dvdnav version 6.0.0
libdvdread: Encrypted DVD support unavailable.
libdvdread: Couldn't find device name.
libdvdread:DVDOpenFilePath:findDVDFile /VIDEO_TS/VIDEO_TS.IFO failed
libdvdread:DVDOpenFilePath:findDVDFile /VIDEO_TS/VIDEO_TS.BUP failed
libdvdread: Can't open file VIDEO_TS.IFO.
libdvdnav: vm: failed to read VIDEO_TS.IFO
[19:34:19] dvd: not a dvd - trying as a stream/file instead
[19:34:19] batch: scanning /Users/dvillalobos/LocalDesktop/01 - Introduction/01 - Automate administration with PowerShell.mp4
Input #0, mov,mp4,m4a,3gp,3g2,mj2, from '/Users/dvillalobos/LocalDesktop/01 - Introduction/01 - Automate administration with PowerShell.mp4':
  Metadata:
    major_brand     : mp42
    minor_version   : 0
    compatible_brands: mp42isom
    creation_time   : 2018-07-26T10:34:01.000000Z
  Duration: 00:01:03.07, start: 0.000000, bitrate: 603 kb/s
    Stream #0:0(eng): Video: h264 (Main) (avc1 / 0x31637661), yuv420p, 1280x720 [SAR 1:1 DAR 16:9], 436 kb/s, 30 fps, 30 tbr, 30 tbn, 60 tbc (default)
    Metadata:
      handler_name    : Telestream Inc. Dib Library - ReleaseVantage 2014.59.138974
      encoder         : Apple ProRes 422
    Stream #0:1(eng): Audio: aac (LC) (mp4a / 0x6134706D), 48000 Hz, stereo, fltp, 159 kb/s (default)
    Metadata:
      handler_name    : Telestream Inc. Dib Library - ReleaseVantage 2014.59.138974
[19:34:19] Found ffmpeg 0 chapters, container=mov,mp4,m4a,3gp,3g2,mj2
[19:34:19] batch: scanning /Users/dvillalobos/LocalDesktop/01 - Introduction/01 - Automate administration with PowerShell.srt
Input #0, srt, from '/Users/dvillalobos/LocalDesktop/01 - Introduction/01 - Automate administration with PowerShell.srt':
  Duration: N/A, bitrate: N/A
    Stream #0:0: Subtitle: subrip
[19:34:19] hb_stream_open: open /Users/dvillalobos/LocalDesktop/01 - Introduction/01 - Automate administration with PowerShell.srt failed
[19:34:19] batch: scanning /Users/dvillalobos/LocalDesktop/01 - Introduction/02 - What you should know.mp4
Input #0, mov,mp4,m4a,3gp,3g2,mj2, from '/Users/dvillalobos/LocalDesktop/01 - Introduction/02 - What you should know.mp4':
  Metadata:
    major_brand     : mp42
    minor_version   : 0
    compatible_brands: mp42isom
    creation_time   : 2018-08-06T12:06:15.000000Z
  Duration: 00:01:51.10, start: 0.000000, bitrate: 261 kb/s
    Stream #0:0(eng): Video: h264 (Main) (avc1 / 0x31637661), yuv420p, 1280x720 [SAR 1:1 DAR 16:9], 126 kb/s, 30 fps, 30 tbr, 30 tbn, 60 tbc (default)
    Metadata:
      handler_name    : Telestream Inc. Dib Library - ReleaseVantage 2014.59.138974
      encoder         : Apple ProRes 422
    Stream #0:1(eng): Audio: aac (LC) (mp4a / 0x6134706D), 48000 Hz, stereo, fltp, 127 kb/s (default)
    Metadata:
      handler_name    : Telestream Inc. Dib Library - ReleaseVantage 2014.59.138974
[19:34:19] Found ffmpeg 0 chapters, container=mov,mp4,m4a,3gp,3g2,mj2
[19:34:19] batch: scanning /Users/dvillalobos/LocalDesktop/01 - Introduction/02 - What you should know.srt
Input #0, srt, from '/Users/dvillalobos/LocalDesktop/01 - Introduction/02 - What you should know.srt':
  Duration: N/A, bitrate: N/A
    Stream #0:0: Subtitle: subrip
[19:34:19] hb_stream_open: open /Users/dvillalobos/LocalDesktop/01 - Introduction/02 - What you should know.srt failed
[19:34:19] scan: decoding previews for title 1 (/Users/dvillalobos/LocalDesktop/01 - Introduction/01 - Automate administration with PowerShell.mp4)
[19:34:19] scan: preview 1
[19:34:19] fifo_close: trashing 0 buffer(s)
[19:34:19] scan: audio 0x1: aac, rate=48000Hz, bitrate=159890 English (AAC LC) (2.0 ch)
[19:34:19] scan: preview 2
[19:34:19] scan: preview 3
[19:34:19] scan: preview 4
[19:34:19] scan: preview 5
[19:34:19] scan: preview 6
[19:34:19] scan: preview 7
[19:34:19] scan: preview 8
[19:34:19] scan: preview 9
[19:34:19] scan: preview 10
[19:34:19] scan: 10 previews, 1280x720, 30.000 fps, autocrop = 0/0/108/2, aspect 16:9, PAR 1:1
[19:34:19] scan: decoding previews for title 3 (/Users/dvillalobos/LocalDesktop/01 - Introduction/02 - What you should know.mp4)
[19:34:19] scan: preview 1
[19:34:19] fifo_close: trashing 0 buffer(s)
[19:34:19] scan: audio 0x1: aac, rate=48000Hz, bitrate=127976 English (AAC LC) (2.0 ch)
[19:34:19] scan: preview 2
[19:34:19] scan: preview 3
[19:34:19] scan: preview 4
[19:34:19] scan: preview 5
[19:34:19] scan: preview 6
[19:34:19] scan: preview 7
[19:34:19] scan: preview 8
[19:34:19] scan: preview 9
[19:34:19] scan: preview 10
[19:34:19] scan: 10 previews, 1280x720, 30.000 fps, autocrop = 0/0/2/2, aspect 16:9, PAR 1:1
[19:34:19] Freed 1 buffers of size 1024
[19:34:19] Freed 1 buffers of size 2048
[19:34:19] Freed 1 buffers of size 4096
[19:34:19] Freed 1 buffers of size 8192
[19:34:19] Freed 1 buffers of size 16384
[19:34:19] Freed 1 buffers of size 32768
[19:34:19] Freed 1 buffers of size 65536
[19:34:19] Freed 1 buffers of size 131072
[19:34:19] Freed 1 buffers of size 262144
[19:34:19] Freed 2 buffers of size 2097152
[19:34:19] Allocated 4717568 bytes of buffers on this pass and Freed 4717568 bytes, 0 bytes leaked
[19:34:19] thread 7000101df000 exited ("scan")
[19:34:20] thread 7000101df000 joined ("scan")
[19:34:20] libhb: scan thread found 2 valid title(s)
[19:34:20] macgui: ScanCore scan done
.

Post Reply