Converting Motion JPEG into MP4 issues

HandBrake for Mac support
Forum rules
An Activity Log is required for support requests. Please read How-to get an activity log? for details on how and why this should be provided.
Post Reply
price412
Posts: 4
Joined: Wed Apr 10, 2019 8:32 pm

Converting Motion JPEG into MP4 issues

Post by price412 » Wed Apr 10, 2019 8:40 pm

Description of problem or question: Handbrake is only allowing me to convert my file to 1440x1080 (4:3) instead of 1920x1080 (16:9). When I view the file on a Windows computer it's in the 16:9 format but to edit in Adobe I have to convert it to MP4 (Adobe stopped supporting the Motion JPEG AVI file type). Handbrake says the source is 1920x1080 29.97fps but won't allow it to be converted to that.

These videos are recorded from our Blackmagic Design ATEM TV Studio HD to our PC via the Blackmagic Design Decklink and using Blackmagic's Media Express software. This was part of a webcast so videos recording immediately before and after this segment are converting to 1920x1080 with no issues. This one specific file is not allowing it.

Steps to reproduce the problem (If Applicable): NA

HandBrake version (e.g., 1.0.0): 1.2.2

Operating system and version (e.g., Ubuntu 16.04 LTS, macOS 10.13 High Sierra, Windows 10 Creators Update): macOS 10.14.3 Mojave

HandBrake Activity Log ***required*** (see How-to get an activity log)

Code: Select all

[10:12:28] macgui: Handbrake Version: 1.2.2  (2019022300)
[10:12:28] hb_init: starting libhb thread
[10:12:28] hb_init: starting libhb thread
[10:12:38] macgui: trying to open a folder or file
[10:12:38] macgui: ScanCore scanning titles with a duration of 10 seconds or more
[10:12:38] CPU: Intel(R) Xeon(R) CPU E5-2697 v2 @ 2.70GHz
[10:12:38]  - Intel microarchitecture Ivy Bridge
[10:12:38]  - logical processor count: 24
[10:12:38] hb_scan: path=/Volumes/G-SPEED Studio XL/xxChris Price/2019/lawn_&_garden/recordings/day_1/Camp Chef.avi, title_index=0
udfread ERROR: ECMA 167 Volume Recognition failed
disc.c:323: failed opening UDF image /Volumes/G-SPEED Studio XL/xxChris Price/2019/lawn_&_garden/recordings/day_1/Camp Chef.avi
disc.c:424: error opening file BDMV/index.bdmv
disc.c:424: error opening file BDMV/BACKUP/index.bdmv
[10:12:38] bd: not a bd - trying as a stream/file instead
libdvdnav: Using dvdnav version 6.0.0
libdvdread: Encrypted DVD support unavailable.
libdvdread:DVDOpenFileUDF:UDFFindFile /VIDEO_TS/VIDEO_TS.IFO failed
libdvdread:DVDOpenFileUDF:UDFFindFile /VIDEO_TS/VIDEO_TS.BUP failed
libdvdread: Can't open file VIDEO_TS.IFO.
libdvdnav: vm: failed to read VIDEO_TS.IFO
[10:12:38] dvd: not a dvd - trying as a stream/file instead
Input #0, avi, from '/Volumes/G-SPEED Studio XL/xxChris Price/2019/lawn_&_garden/recordings/day_1/Camp Chef.avi':
  Duration: 00:37:12.80, start: 0.000000, bitrate: 83088 kb/s
    Stream #0:0: Video: mjpeg (MJPG / 0x47504A4D), yuvj422p(pc, bt470bg/unknown/unknown), 1920x1080, 80771 kb/s, 29.97 fps, 29.97 tbr, 29.97 tbn, 29.97 tbc
    Stream #0:1: Audio: pcm_s24le ([1][0][0][0] / 0x0001), 48000 Hz, 2 channels, s32 (24 bit), 2304 kb/s
[10:12:39] scan: decoding previews for title 1
[10:12:39] scan: audio 0x1: pcm_s24le, rate=48000Hz, bitrate=2304000 Unknown (pcm_s24le) (2.0 ch)
[10:12:39] scan: 10 previews, 1920x1080, 29.970 fps, autocrop = 0/0/0/0, aspect 16:9, PAR 1:1
[10:12:39] libhb: scan thread found 1 valid title(s)
[10:12:40] macgui: ScanCore scan done
[10:12:57] macgui: QueueCore prevented sleep
[10:12:57] macgui: QueueCore scanning specifically for title: 1
[10:12:57] CPU: Intel(R) Xeon(R) CPU E5-2697 v2 @ 2.70GHz
[10:12:57]  - Intel microarchitecture Ivy Bridge
[10:12:57]  - logical processor count: 24
[10:12:57] hb_scan: path=/Volumes/G-SPEED Studio XL/xxChris Price/2019/lawn_&_garden/recordings/day_1/Camp Chef.avi, title_index=1
udfread ERROR: ECMA 167 Volume Recognition failed
disc.c:323: failed opening UDF image /Volumes/G-SPEED Studio XL/xxChris Price/2019/lawn_&_garden/recordings/day_1/Camp Chef.avi
disc.c:424: error opening file BDMV/index.bdmv
disc.c:424: error opening file BDMV/BACKUP/index.bdmv
[10:12:57] bd: not a bd - trying as a stream/file instead
libdvdnav: Using dvdnav version 6.0.0
libdvdread: Encrypted DVD support unavailable.
libdvdread:DVDOpenFileUDF:UDFFindFile /VIDEO_TS/VIDEO_TS.IFO failed
libdvdread:DVDOpenFileUDF:UDFFindFile /VIDEO_TS/VIDEO_TS.BUP failed
libdvdread: Can't open file VIDEO_TS.IFO.
libdvdnav: vm: failed to read VIDEO_TS.IFO
[10:12:57] dvd: not a dvd - trying as a stream/file instead
Input #0, avi, from '/Volumes/G-SPEED Studio XL/xxChris Price/2019/lawn_&_garden/recordings/day_1/Camp Chef.avi':
  Duration: 00:37:12.80, start: 0.000000, bitrate: 83088 kb/s
    Stream #0:0: Video: mjpeg (MJPG / 0x47504A4D), yuvj422p(pc, bt470bg/unknown/unknown), 1920x1080, 80771 kb/s, 29.97 fps, 29.97 tbr, 29.97 tbn, 29.97 tbc
    Stream #0:1: Audio: pcm_s24le ([1][0][0][0] / 0x0001), 48000 Hz, 2 channels, s32 (24 bit), 2304 kb/s
[10:12:57] scan: decoding previews for title 1
[10:12:57] scan: audio 0x1: pcm_s24le, rate=48000Hz, bitrate=2304000 Unknown (pcm_s24le) (2.0 ch)
[10:12:57] scan: 10 previews, 1920x1080, 29.970 fps, autocrop = 0/0/0/0, aspect 16:9, PAR 1:1
[10:12:57] libhb: scan thread found 1 valid title(s)
[10:12:57] macgui: QueueCore scan done
[10:12:57] 1 job(s) to process
[10:12:57] starting job
[10:12:57] macgui: QueueCore started encoding Camp_Chef_converted.mp4
[10:12:57] macgui: QueueCore with preset Chris Preset
[10:12:57] decomb filter thread started for segment 0
[10:12:57] decomb filter thread started for segment 4
[10:12:57] decomb filter thread started for segment 5
[10:12:57] decomb filter thread started for segment 8
[10:12:57] decomb filter thread started for segment 9
[10:12:57] decomb filter thread started for segment 3
[10:12:57] decomb filter thread started for segment 2
[10:12:57] decomb filter thread started for segment 7
[10:12:57] decomb filter thread started for segment 14
[10:12:57] decomb filter thread started for segment 1
[10:12:57] decomb filter thread started for segment 10
[10:12:57] decomb filter thread started for segment 18
[10:12:57] decomb filter thread started for segment 19
[10:12:57] decomb filter thread started for segment 20
[10:12:57] decomb filter thread started for segment 21
[10:12:57] decomb filter thread started for segment 22
[10:12:57] decomb filter thread started for segment 23
[10:12:57] decomb filter thread started for segment 17
[10:12:57] decomb check thread started for segment 0
[10:12:57] decomb filter thread started for segment 12
[10:12:57] decomb filter thread started for segment 13
[10:12:57] decomb filter thread started for segment 6
[10:12:57] decomb check thread started for segment 4
[10:12:57] decomb check thread started for segment 5
[10:12:57] decomb check thread started for segment 6
[10:12:57] decomb check thread started for segment 7
[10:12:57] decomb check thread started for segment 8
[10:12:57] decomb check thread started for segment 9
[10:12:57] decomb check thread started for segment 10
[10:12:57] decomb check thread started for segment 11
[10:12:57] decomb filter thread started for segment 11
[10:12:57] decomb check thread started for segment 13
[10:12:57] decomb check thread started for segment 14
[10:12:57] decomb check thread started for segment 15
[10:12:57] decomb check thread started for segment 16
[10:12:57] decomb check thread started for segment 17
[10:12:57] decomb check thread started for segment 18
[10:12:57] decomb check thread started for segment 19
[10:12:57] decomb check thread started for segment 20
[10:12:57] decomb check thread started for segment 21
[10:12:57] decomb check thread started for segment 22
[10:12:57] decomb check thread started for segment 23
[10:12:57] decomb check thread started for segment 12
[10:12:57] mask filter thread started for segment 1
[10:12:57] mask filter thread started for segment 2
[10:12:57] mask filter thread started for segment 3
[10:12:57] mask filter thread started for segment 4
[10:12:57] mask filter thread started for segment 5
[10:12:57] mask filter thread started for segment 6
[10:12:57] mask filter thread started for segment 7
[10:12:57] mask filter thread started for segment 8
[10:12:57] mask filter thread started for segment 9
[10:12:57] mask filter thread started for segment 10
[10:12:57] mask filter thread started for segment 11
[10:12:57] mask filter thread started for segment 12
[10:12:57] mask filter thread started for segment 13
[10:12:57] mask filter thread started for segment 14
[10:12:57] mask filter thread started for segment 15
[10:12:57] mask filter thread started for segment 16
[10:12:57] mask filter thread started for segment 17
[10:12:57] mask filter thread started for segment 18
[10:12:57] mask filter thread started for segment 19
[10:12:57] mask filter thread started for segment 20
[10:12:57] mask filter thread started for segment 21
[10:12:57] mask filter thread started for segment 22
[10:12:57] mask filter thread started for segment 23
[10:12:57] mask filter thread started for segment 0
[10:12:57] mask erode thread started for segment 1
[10:12:57] mask erode thread started for segment 2
[10:12:57] mask erode thread started for segment 3
[10:12:57] decomb filter thread started for segment 15
[10:12:57] mask erode thread started for segment 5
[10:12:57] mask erode thread started for segment 6
[10:12:57] decomb check thread started for segment 1
[10:12:57] mask erode thread started for segment 8
[10:12:57] mask erode thread started for segment 9
[10:12:57] mask erode thread started for segment 10
[10:12:57] mask erode thread started for segment 11
[10:12:57] mask erode thread started for segment 12
[10:12:57] mask erode thread started for segment 13
[10:12:57] mask erode thread started for segment 14
[10:12:57] mask erode thread started for segment 15
[10:12:57] mask erode thread started for segment 16
[10:12:57] mask erode thread started for segment 17
[10:12:57] mask erode thread started for segment 0
[10:12:57] mask erode thread started for segment 19
[10:12:57] mask erode thread started for segment 20
[10:12:57] decomb check thread started for segment 3
[10:12:57] mask erode thread started for segment 4
[10:12:57] mask erode thread started for segment 23
[10:12:57] mask dilate thread started for segment 0
[10:12:57] mask dilate thread started for segment 1
[10:12:57] mask dilate thread started for segment 2
[10:12:57] mask dilate thread started for segment 3
[10:12:57] mask dilate thread started for segment 4
[10:12:57] mask dilate thread started for segment 5
[10:12:57] mask dilate thread started for segment 6
[10:12:57] mask dilate thread started for segment 7
[10:12:57] mask dilate thread started for segment 8
[10:12:57] mask erode thread started for segment 21
[10:12:57] mask dilate thread started for segment 10
[10:12:57] decomb filter thread started for segment 16
[10:12:57] mask dilate thread started for segment 12
[10:12:57] mask dilate thread started for segment 13
[10:12:57] decomb check thread started for segment 2
[10:12:57] mask dilate thread started for segment 9
[10:12:57] mask dilate thread started for segment 16
[10:12:57] mask dilate thread started for segment 17
[10:12:57] mask dilate thread started for segment 18
[10:12:57] mask erode thread started for segment 7
[10:12:57] mask dilate thread started for segment 20
[10:12:57] mask dilate thread started for segment 15
[10:12:57] mask dilate thread started for segment 22
[10:12:57] mask dilate thread started for segment 11
[10:12:57] mask erode thread started for segment 18
[10:12:57] yadif thread started for segment 1
[10:12:57] mask dilate thread started for segment 14
[10:12:57] yadif thread started for segment 3
[10:12:57] yadif thread started for segment 4
[10:12:57] mask dilate thread started for segment 23
[10:12:57] yadif thread started for segment 0
[10:12:57] yadif thread started for segment 7
[10:12:57] yadif thread started for segment 8
[10:12:57] mask dilate thread started for segment 21
[10:12:57] mask erode thread started for segment 22
[10:12:57] yadif thread started for segment 11
[10:12:57] yadif thread started for segment 6
[10:12:57] yadif thread started for segment 13
[10:12:57] yadif thread started for segment 14
[10:12:57] yadif thread started for segment 9
[10:12:57] yadif thread started for segment 16
[10:12:57] yadif thread started for segment 17
[10:12:57] yadif thread started for segment 18
[10:12:57] yadif thread started for segment 19
[10:12:57] yadif thread started for segment 20
[10:12:57] yadif thread started for segment 21
[10:12:57] yadif thread started for segment 22
[10:12:57] yadif thread started for segment 23
[10:12:57] yadif thread started for segment 12
[10:12:57] mask dilate thread started for segment 19
[10:12:57] work: only 1 chapter, disabling chapter markers
[10:12:57] yadif thread started for segment 15
[10:12:57] yadif thread started for segment 10
[10:12:57] yadif thread started for segment 5
[10:12:57] yadif thread started for segment 2
[10:12:57] job configuration:
[10:12:57]  * source
[10:12:57]    + /Volumes/G-SPEED Studio XL/xxChris Price/2019/lawn_&_garden/recordings/day_1/Camp Chef.avi
[10:12:57]    + title 1, chapter(s) 1 to 1
[10:12:57]    + container: avi
[10:12:57]    + data rate: 83088 kbps
[10:12:57]  * destination
[10:12:57]    + /Volumes/G-SPEED Studio XL/xxChris Price/2019/lawn_&_garden/recordings/day_1/converted/Camp_Chef_converted.mp4
[10:12:57]    + container: MPEG-4 (libavformat)
[10:12:57]      + align initial A/V stream timestamps
[10:12:57]  * video track
[10:12:57]    + decoder: mjpeg
[10:12:57]      + bitrate 80771 kbps
[10:12:57]    + filters
[10:12:57]      + Comb Detect (mode=3:spatial-metric=2:motion-thresh=1:spatial-thresh=1:filter-mode=2:block-thresh=40:block-width=16:block-height=16)
[10:12:57]      + Decomb (mode=39)
[10:12:57]      + Framerate Shaper (mode=1:rate=27000000/900900)
[10:12:57]        + frame rate: 29.970 fps -> constant 29.970 fps
[10:12:57]      + Crop and Scale (width=1920:height=1080:crop-top=0:crop-bottom=0:crop-left=0:crop-right=0)
[10:12:57]        + source: 1920 * 1080, crop (0/0/0/0): 1920 * 1080, scale: 1920 * 1080
[10:12:57]    + Output geometry
[10:12:57]      + storage dimensions: 1920 x 1080
[10:12:57]      + pixel aspect ratio: 1 : 1
[10:12:57]      + display dimensions: 1920 x 1080
[10:12:57]    + encoder: H.264 (libx264)
[10:12:57]      + preset:  fast
[10:12:57]      + profile: main
[10:12:57]      + level:   4.0
[10:12:57]      + quality: 25.50 (RF)
[10:12:57]      + color profile: 1-1-6
[10:12:57]  * audio track 1
[10:12:57]    + decoder: Unknown (pcm_s24le) (2.0 ch) (track 1, id 0x1)
[10:12:57]      + bitrate: 2304 kbps, samplerate: 48000 Hz
[10:12:57]    + mixdown: Stereo
[10:12:57]    + dither: triangular
[10:12:57]    + encoder: AAC (Apple AudioToolbox)
[10:12:57]      + bitrate: 160 kbps, samplerate: 48000 Hz
[10:12:57] sync: expecting 66916 video frames
[10:12:57] encx264: min-keyint: 30, keyint: 300
[10:12:57] encx264: encoding at constant RF 25.500000
[10:12:57] encx264: unparsed options: level=4.0:ref=2:8x8dct=0:weightp=1:subme=6:vbv-bufsize=25000:vbv-maxrate=20000:rc-lookahead=30
x264 [info]: using SAR=1/1
x264 [info]: using cpu capabilities: MMX2 SSE2Fast SSSE3 SSE4.2 AVX
x264 [info]: profile Main, level 4.0, 4:2:0, 8-bit
[10:12:58] sync: first pts video is 0
[10:12:58] sync: "Chapter 1" (1) at frame 1 time 0
[10:12:58] sync: first pts audio 0x1 is 0
[10:34:46] reader: done. 1 scr changes
[10:34:46] work: average encoding speed for job is 51.148720 fps
[10:34:46] comb detect: heavy 19238 | light 24832 | uncombed 22847 | total 66917
[10:34:47] decomb: deinterlaced 19238 | blended 24832 | unfiltered 22847 | total 66917
[10:34:47] vfr: 66917 frames output, 0 dropped and 0 duped for CFR/PFR
[10:34:47] vfr: lost time: 0 (0 frames)
[10:34:47] vfr: gained time: 0 (0 frames) (0 not accounted for)
[10:34:47] pcm_s24le-decoder done: 105772 frames, 0 decoder errors
[10:34:47] mjpeg-decoder done: 66917 frames, 0 decoder errors
[10:34:47] sync: got 66917 frames, 66916 expected
[10:34:47] sync: framerate min 29.970 fps, max 29.970 fps, avg 29.970 fps
x264 [info]: frame I:247   Avg QP:20.06  size: 94252
x264 [info]: frame P:17595 Avg QP:22.86  size:  7040
x264 [info]: frame B:49075 Avg QP:26.68  size:  1926
x264 [info]: consecutive B-frames:  2.1%  0.1%  0.9% 96.9%
x264 [info]: mb I  I16..4: 47.3%  0.0% 52.7%
x264 [info]: mb P  I16..4:  3.4%  0.0%  1.0%  P16..4: 15.8%  2.6%  1.7%  0.0%  0.0%    skip:75.5%
x264 [info]: mb B  I16..4:  1.0%  0.0%  0.0%  B16..8:  5.0%  0.7%  0.0%  direct: 3.9%  skip:89.4%  L0:41.1% L1:54.1% BI: 4.8%
x264 [info]: coded y,uvDC,uvAC intra: 19.3% 33.9% 6.5% inter: 1.2% 4.7% 0.0%
x264 [info]: i16 v,h,dc,p: 56% 19% 14% 11%
x264 [info]: i4 v,h,dc,ddl,ddr,vr,hd,vl,hu: 27% 20% 24%  5%  6%  5%  5%  4%  3%
x264 [info]: i8c dc,h,v,p: 62% 16% 20%  2%
x264 [info]: Weighted P-Frames: Y:2.0% UV:1.8%
x264 [info]: ref P L0: 63.2% 36.8%
x264 [info]: ref B L0: 78.7% 21.3%
x264 [info]: ref B L1: 94.0%  6.0%
x264 [info]: kb/s:865.88
[10:34:47] mux: track 0, 66917 frames, 241656766 bytes, 865.83 kbps, fifo 8192
[10:34:47] mux: track 1, 104665 frames, 40022091 bytes, 143.39 kbps, fifo 16384
[10:34:47] libhb: work result = 0
[10:34:47] macgui: QueueCore work done
[10:34:47] macgui: Queue Done, there are no more pending encodes
[10:34:47] macgui: QueueCore stopped preventing sleep
[12:48:46] macgui: trying to open a folder or file
[12:48:46] macgui: ScanCore scanning titles with a duration of 10 seconds or more
[12:48:46] CPU: Intel(R) Xeon(R) CPU E5-2697 v2 @ 2.70GHz
[12:48:46]  - Intel microarchitecture Ivy Bridge
[12:48:46]  - logical processor count: 24
[12:48:46] hb_scan: path=/Volumes/G-SPEED Studio XL/xxChris Price/2019/lawn_&_garden/recordings/day_3/Bayer.avi, title_index=0
udfread ERROR: ECMA 167 Volume Recognition failed
disc.c:323: failed opening UDF image /Volumes/G-SPEED Studio XL/xxChris Price/2019/lawn_&_garden/recordings/day_3/Bayer.avi
disc.c:424: error opening file BDMV/index.bdmv
disc.c:424: error opening file BDMV/BACKUP/index.bdmv
[12:48:46] bd: not a bd - trying as a stream/file instead
libdvdnav: Using dvdnav version 6.0.0
libdvdread: Encrypted DVD support unavailable.
libdvdread:DVDOpenFileUDF:UDFFindFile /VIDEO_TS/VIDEO_TS.IFO failed
libdvdread:DVDOpenFileUDF:UDFFindFile /VIDEO_TS/VIDEO_TS.BUP failed
libdvdread: Can't open file VIDEO_TS.IFO.
libdvdnav: vm: failed to read VIDEO_TS.IFO
[12:48:46] dvd: not a dvd - trying as a stream/file instead
Input #0, avi, from '/Volumes/G-SPEED Studio XL/xxChris Price/2019/lawn_&_garden/recordings/day_3/Bayer.avi':
  Duration: 00:43:33.88, start: 0.000000, bitrate: 77497 kb/s
    Stream #0:0: Video: mjpeg (MJPG / 0x47504A4D), yuvj422p(pc, bt470bg/unknown/unknown), 1920x1080, 75180 kb/s, 29.97 fps, 29.97 tbr, 29.97 tbn, 29.97 tbc
    Stream #0:1: Audio: pcm_s24le ([1][0][0][0] / 0x0001), 48000 Hz, 2 channels, s32 (24 bit), 2304 kb/s
[12:48:46] scan: decoding previews for title 1
[12:48:46] scan: audio 0x1: pcm_s24le, rate=48000Hz, bitrate=2304000 Unknown (pcm_s24le) (2.0 ch)
[12:48:47] scan: 10 previews, 1920x1080, 29.970 fps, autocrop = 0/0/240/240, aspect 16:9, PAR 1:1
[12:48:47] libhb: scan thread found 1 valid title(s)
[12:48:47] macgui: ScanCore scan done
[13:08:46] macgui: trying to open a folder or file
[13:08:46] macgui: ScanCore scanning titles with a duration of 10 seconds or more
[13:08:46] CPU: Intel(R) Xeon(R) CPU E5-2697 v2 @ 2.70GHz
[13:08:46]  - Intel microarchitecture Ivy Bridge
[13:08:46]  - logical processor count: 24
[13:08:46] hb_scan: path=/Volumes/G-SPEED Studio XL/xxChris Price/2019/lawn_&_garden/recordings/day_3/Bayer.avi, title_index=0
udfread ERROR: ECMA 167 Volume Recognition failed
disc.c:323: failed opening UDF image /Volumes/G-SPEED Studio XL/xxChris Price/2019/lawn_&_garden/recordings/day_3/Bayer.avi
disc.c:424: error opening file BDMV/index.bdmv
disc.c:424: error opening file BDMV/BACKUP/index.bdmv
[13:08:46] bd: not a bd - trying as a stream/file instead
libdvdnav: Using dvdnav version 6.0.0
libdvdread: Encrypted DVD support unavailable.
libdvdread:DVDOpenFileUDF:UDFFindFile /VIDEO_TS/VIDEO_TS.IFO failed
libdvdread:DVDOpenFileUDF:UDFFindFile /VIDEO_TS/VIDEO_TS.BUP failed
libdvdread: Can't open file VIDEO_TS.IFO.
libdvdnav: vm: failed to read VIDEO_TS.IFO
[13:08:46] dvd: not a dvd - trying as a stream/file instead
Input #0, avi, from '/Volumes/G-SPEED Studio XL/xxChris Price/2019/lawn_&_garden/recordings/day_3/Bayer.avi':
  Duration: 00:43:33.88, start: 0.000000, bitrate: 77497 kb/s
    Stream #0:0: Video: mjpeg (MJPG / 0x47504A4D), yuvj422p(pc, bt470bg/unknown/unknown), 1920x1080, 75180 kb/s, 29.97 fps, 29.97 tbr, 29.97 tbn, 29.97 tbc
    Stream #0:1: Audio: pcm_s24le ([1][0][0][0] / 0x0001), 48000 Hz, 2 channels, s32 (24 bit), 2304 kb/s
[13:08:46] scan: decoding previews for title 1
[13:08:46] scan: audio 0x1: pcm_s24le, rate=48000Hz, bitrate=2304000 Unknown (pcm_s24le) (2.0 ch)
[13:08:46] scan: 10 previews, 1920x1080, 29.970 fps, autocrop = 0/0/240/240, aspect 16:9, PAR 1:1
[13:08:46] libhb: scan thread found 1 valid title(s)
[13:08:46] macgui: ScanCore scan done
[14:21:07] macgui: trying to open a folder or file
[14:21:07] macgui: ScanCore scanning titles with a duration of 10 seconds or more
[14:21:07] CPU: Intel(R) Xeon(R) CPU E5-2697 v2 @ 2.70GHz
[14:21:07]  - Intel microarchitecture Ivy Bridge
[14:21:07]  - logical processor count: 24
[14:21:07] hb_scan: path=/Users/cprice/Desktop/Bayer.avi, title_index=0
udfread ERROR: ECMA 167 Volume Recognition failed
disc.c:323: failed opening UDF image /Users/cprice/Desktop/Bayer.avi
disc.c:424: error opening file BDMV/index.bdmv
disc.c:424: error opening file BDMV/BACKUP/index.bdmv
[14:21:07] bd: not a bd - trying as a stream/file instead
libdvdnav: Using dvdnav version 6.0.0
libdvdread: Encrypted DVD support unavailable.
libdvdread:DVDOpenFileUDF:UDFFindFile /VIDEO_TS/VIDEO_TS.IFO failed
libdvdread:DVDOpenFileUDF:UDFFindFile /VIDEO_TS/VIDEO_TS.BUP failed
libdvdread: Can't open file VIDEO_TS.IFO.
libdvdnav: vm: failed to read VIDEO_TS.IFO
[14:21:07] dvd: not a dvd - trying as a stream/file instead
Input #0, avi, from '/Users/cprice/Desktop/Bayer.avi':
  Duration: 00:43:33.88, start: 0.000000, bitrate: 77497 kb/s
    Stream #0:0: Video: mjpeg (MJPG / 0x47504A4D), yuvj422p(pc, bt470bg/unknown/unknown), 1920x1080, 75180 kb/s, 29.97 fps, 29.97 tbr, 29.97 tbn, 29.97 tbc
    Stream #0:1: Audio: pcm_s24le ([1][0][0][0] / 0x0001), 48000 Hz, 2 channels, s32 (24 bit), 2304 kb/s
[14:21:07] scan: decoding previews for title 1
[14:21:07] scan: audio 0x1: pcm_s24le, rate=48000Hz, bitrate=2304000 Unknown (pcm_s24le) (2.0 ch)
[14:21:08] scan: 10 previews, 1920x1080, 29.970 fps, autocrop = 0/0/240/240, aspect 16:9, PAR 1:1
[14:21:08] libhb: scan thread found 1 valid title(s)
[14:21:08] macgui: ScanCore scan done
.

User avatar
JohnAStebbins
HandBrake Team
Posts: 5456
Joined: Sat Feb 09, 2008 7:21 pm

Re: Converting Motion JPEG into MP4 issues

Post by JohnAStebbins » Wed Apr 10, 2019 9:42 pm

HandBrake is autocropping 240 pixels from the left and right side. Your source has black bars on both sides. If you don't want to crop them, you'll have to disable cropping on the dimensions pane.

Code: Select all

[13:08:46] scan: 10 previews, 1920x1080, 29.970 fps, autocrop = 0/0/240/240, aspect 16:9, PAR 1:1

price412
Posts: 4
Joined: Wed Apr 10, 2019 8:32 pm

Re: Converting Motion JPEG into MP4 issues

Post by price412 » Thu Apr 11, 2019 2:00 pm

Yep! That was it. Such a simple fix haha. I even set up a preset and all the other videos I've converted didn't have that! Thank you for your help!

price412
Posts: 4
Joined: Wed Apr 10, 2019 8:32 pm

Re: Converting Motion JPEG into MP4 issues

Post by price412 » Thu Apr 11, 2019 2:06 pm

JohnAStebbins wrote:
Wed Apr 10, 2019 9:42 pm
HandBrake is autocropping 240 pixels from the left and right side. Your source has black bars on both sides. If you don't want to crop them, you'll have to disable cropping on the dimensions pane.

Code: Select all

[13:08:46] scan: 10 previews, 1920x1080, 29.970 fps, autocrop = 0/0/240/240, aspect 16:9, PAR 1:1
I now see what Handbrake was doing. I think it was recognizing a frame with black bars on the side which was when a powerpoint slide was on the screen but when we switch back to the camera feed it's, of course, the 1920x1080 dimensions. So it was autocropping to get rid of the black bars. I didn't think about this until you said "Your source has black bars on both sides."

I'm fairly new to handbrake and this definitely helped!

User avatar
JohnAStebbins
HandBrake Team
Posts: 5456
Joined: Sat Feb 09, 2008 7:21 pm

Re: Converting Motion JPEG into MP4 issues

Post by JohnAStebbins » Thu Apr 11, 2019 2:29 pm

HandBrake looks at 10 frames distributed evenly through the video and looks for and measures black bars on each of those 10 frames. It then chooses the median value it measured from those 10 frames for autocrop. So for it to have chosen to crop anything, at least 5 of the 10 previews must have had a black border. You can look at the preview frames in the GUI to verify. If this is not the case, I would be very interested in getting a sample that I can reproduce the problem with myself.

mduell
Veteran User
Posts: 6710
Joined: Sat Apr 21, 2007 8:54 pm

Re: Converting Motion JPEG into MP4 issues

Post by mduell » Thu Apr 11, 2019 2:55 pm

You can increase the number of samples in the app preferences, which may improve the false detection rate.

price412
Posts: 4
Joined: Wed Apr 10, 2019 8:32 pm

Re: Converting Motion JPEG into MP4 issues

Post by price412 » Thu Apr 11, 2019 10:39 pm

Thank you all. I can confirm it was the powerpoint slides the vendor was using. We had a three camera set up plus the powerpoint for a lawn & garden webcast. They referenced pictures on the slides so we'd switch to the slides as the feed then back to the cameras. I looked at the preview frames for one video that auto-cropped and it had multiple frames of powerpoint slides.

Glad I learned something today!

Post Reply