First subtitle disappears

HandBrake for Mac support
Forum rules
An Activity Log is required for support requests. Please read How-to get an activity log? for details on how and why this should be provided.
Post Reply
sst108
Posts: 2
Joined: Sat Feb 02, 2019 9:38 am

First subtitle disappears

Post by sst108 » Sat Feb 02, 2019 9:43 am

Description of problem or question:
I'm trying to add burned in .srt subtites to an mp4 iMovie (10.1.10) file using Handbrake, and every time the first subtitle doesn't appear. They don't start at the beginning of the movie, but about 8 seconds in. I've tried a lot of different fixes, splitting the clip, moving the first subtitle later, putting in a blank subtitle before it, etc.



Steps to reproduce the problem (If Applicable):




HandBrake version (e.g., 1.0.0):
1.2.0



Operating system and version (e.g., Ubuntu 16.04 LTS, macOS 10.13 High Sierra, Windows 10 Creators Update):
MacOS Mojave


HandBrake Activity Log ***required*** (see How-to get an activity log)

Code: Select all

HandBrake Activity Log for Session: 2019-02-02T09:17:03Z
Handbrake Version: 1.2.0 (2018122200)
Padmasambhava Statue at Chandrakirti Centre last cut.mp4
Preset: Fast 1080p30
[22:17:03] macgui: QueueCore prevented sleep
[22:17:03] macgui: QueueCore scanning specifically for title: 1
[22:17:03] CPU: Intel(R) Core(TM) i7-8850H CPU @ 2.60GHz
[22:17:03]  - Intel microarchitecture Kaby Lake
[22:17:03]  - logical processor count: 12
[22:17:03] hb_scan: path=/Volumes/Seagate Backup Plus Drive/Pictures/FPMT/Chandrakirti Centre/Bruce videos/Padmasambhava Statue at Chandrakirti Centre last cut.mp4, title_index=1
udfread ERROR: ECMA 167 Volume Recognition failed
disc.c:323: failed opening UDF image /Volumes/Seagate Backup Plus Drive/Pictures/FPMT/Chandrakirti Centre/Bruce videos/Padmasambhava Statue at Chandrakirti Centre last cut.mp4
disc.c:424: error opening file BDMV/index.bdmv
disc.c:424: error opening file BDMV/BACKUP/index.bdmv
[22:17:03] bd: not a bd - trying as a stream/file instead
libdvdnav: Using dvdnav version 6.0.0
libdvdread: Encrypted DVD support unavailable.
libdvdread:DVDOpenFileUDF:UDFFindFile /VIDEO_TS/VIDEO_TS.IFO failed
libdvdread:DVDOpenFileUDF:UDFFindFile /VIDEO_TS/VIDEO_TS.BUP failed
libdvdread: Can't open file VIDEO_TS.IFO.
libdvdnav: vm: failed to read VIDEO_TS.IFO
[22:17:03] dvd: not a dvd - trying as a stream/file instead
Input #0, mov,mp4,m4a,3gp,3g2,mj2, from '/Volumes/Seagate Backup Plus Drive/Pictures/FPMT/Chandrakirti Centre/Bruce videos/Padmasambhava Statue at Chandrakirti Centre last cut.mp4':
  Metadata:
    major_brand     : mp42
    minor_version   : 1
    compatible_brands: mp41mp42isom
    creation_time   : 2019-02-02T09:10:06.000000Z
  Duration: 00:03:07.49, start: 0.000000, bitrate: 19875 kb/s
    Stream #0:0(eng): Audio: aac (LC) (mp4a / 0x6134706D), 48000 Hz, stereo, fltp, 122 kb/s (default)
    Metadata:
      creation_time   : 2019-02-02T09:10:06.000000Z
      handler_name    : Core Media Audio
    Stream #0:1(und): Video: h264 (High) (avc1 / 0x31637661), yuv420p(tv, bt709, progressive), 1920x1080 [SAR 1:1 DAR 16:9], 19724 kb/s, 29.97 fps, 29.97 tbr, 30k tbn, 60k tbc (default)
    Metadata:
      creation_time   : 2019-02-02T09:10:06.000000Z
      handler_name    : Core Media Video
[22:17:03] scan: decoding previews for title 1
[22:17:03] scan: audio 0x0: aac, rate=48000Hz, bitrate=122744 English (AAC LC) (2.0 ch)
[22:17:04] scan: 10 previews, 1920x1080, 29.970 fps, autocrop = 0/0/0/0, aspect 16:9, PAR 1:1
[22:17:04] libhb: scan thread found 1 valid title(s)
[22:17:04] macgui: QueueCore scan done
[22:17:04] 1 job(s) to process
[22:17:04] starting job
[22:17:04] macgui: QueueCore started encoding Padmasambhava Statue at Chandrakirti Centre last cut.mp4
[22:17:04] macgui: QueueCore with preset Fast 1080p30
[22:17:04] decomb filter thread started for segment 1
[22:17:04] decomb filter thread started for segment 2
[22:17:04] decomb filter thread started for segment 0
[22:17:04] decomb filter thread started for segment 3
[22:17:04] decomb filter thread started for segment 4
[22:17:04] decomb filter thread started for segment 5
[22:17:04] decomb filter thread started for segment 6
[22:17:04] decomb filter thread started for segment 8
[22:17:04] decomb filter thread started for segment 7
[22:17:04] decomb filter thread started for segment 9
[22:17:04] decomb filter thread started for segment 10
[22:17:04] decomb filter thread started for segment 11
[22:17:04] decomb check thread started for segment 1
[22:17:04] decomb check thread started for segment 0
[22:17:04] decomb check thread started for segment 3
[22:17:04] decomb check thread started for segment 2
[22:17:04] decomb check thread started for segment 4
[22:17:04] decomb check thread started for segment 5
[22:17:04] decomb check thread started for segment 6
[22:17:04] decomb check thread started for segment 7
[22:17:04] decomb check thread started for segment 8
[22:17:04] decomb check thread started for segment 9
[22:17:04] decomb check thread started for segment 11
[22:17:04] decomb check thread started for segment 10
[22:17:04] mask filter thread started for segment 0
[22:17:04] mask filter thread started for segment 1
[22:17:04] mask filter thread started for segment 2
[22:17:04] mask filter thread started for segment 3
[22:17:04] mask filter thread started for segment 4
[22:17:04] mask filter thread started for segment 6
[22:17:04] mask filter thread started for segment 5
[22:17:04] mask filter thread started for segment 7
[22:17:04] mask filter thread started for segment 8
[22:17:04] mask filter thread started for segment 9
[22:17:04] mask filter thread started for segment 10
[22:17:04] mask erode thread started for segment 0
[22:17:04] mask erode thread started for segment 1
[22:17:04] mask filter thread started for segment 11
[22:17:04] mask erode thread started for segment 3
[22:17:04] mask erode thread started for segment 2
[22:17:04] mask erode thread started for segment 4
[22:17:04] mask erode thread started for segment 6
[22:17:04] mask erode thread started for segment 5
[22:17:04] mask erode thread started for segment 7
[22:17:04] mask erode thread started for segment 8
[22:17:04] mask erode thread started for segment 9
[22:17:04] mask erode thread started for segment 10
[22:17:04] mask erode thread started for segment 11
[22:17:04] mask dilate thread started for segment 1
[22:17:04] mask dilate thread started for segment 0
[22:17:04] mask dilate thread started for segment 2
[22:17:04] mask dilate thread started for segment 4
[22:17:04] mask dilate thread started for segment 3
[22:17:04] mask dilate thread started for segment 5
[22:17:04] mask dilate thread started for segment 6
[22:17:04] mask dilate thread started for segment 7
[22:17:04] mask dilate thread started for segment 8
[22:17:04] mask dilate thread started for segment 9
[22:17:04] mask dilate thread started for segment 10
[22:17:04] mask dilate thread started for segment 11
[22:17:04] yadif thread started for segment 0
[22:17:04] yadif thread started for segment 1
[22:17:04] yadif thread started for segment 2
[22:17:04] yadif thread started for segment 3
[22:17:04] yadif thread started for segment 4
[22:17:04] yadif thread started for segment 5
[22:17:04] yadif thread started for segment 7
[22:17:04] yadif thread started for segment 6
[22:17:04] yadif thread started for segment 8
[22:17:04] yadif thread started for segment 9
[22:17:04] yadif thread started for segment 10
[22:17:04] yadif thread started for segment 11
[22:17:04] [ass] Shaper: FriBidi 0.19.7 (SIMPLE) HarfBuzz-ng 1.7.2 (COMPLEX)
[22:17:04] [ass] Using font provider coretext
[22:17:04] work: only 1 chapter, disabling chapter markers
[22:17:04] job configuration:
[22:17:04]  * source
[22:17:04]    + /Volumes/Seagate Backup Plus Drive/Pictures/FPMT/Chandrakirti Centre/Bruce videos/Padmasambhava Statue at Chandrakirti Centre last cut.mp4
[22:17:04]    + title 1, chapter(s) 1 to 1
[22:17:04]    + container: mov,mp4,m4a,3gp,3g2,mj2
[22:17:04]    + data rate: 19875 kbps
[22:17:04]  * destination
[22:17:04]    + /Users/sarahbrooks 1/Movies/Padmasambhava Statue at Chandrakirti Centre last cut.mp4
[22:17:04]    + container: MPEG-4 (libavformat)
[22:17:04]      + align initial A/V stream timestamps
[22:17:04]  * video track
[22:17:04]    + decoder: h264
[22:17:04]      + bitrate 19724 kbps
[22:17:04]    + filters
[22:17:04]      + Comb Detect (mode=3:spatial-metric=2:motion-thresh=1:spatial-thresh=1:filter-mode=2:block-thresh=40:block-width=16:block-height=16)
[22:17:04]      + Decomb (mode=39)
[22:17:04]      + Framerate Shaper (mode=2:rate=27000000/900000)
[22:17:04]        + frame rate: 29.970 fps -> peak rate limited to 30.000 fps
[22:17:04]      + Subtitle renderer ()
[22:17:04]      + Crop and Scale (width=1920:height=1080:crop-top=0:crop-bottom=0:crop-left=0:crop-right=0)
[22:17:04]        + source: 1920 * 1080, crop (0/0/0/0): 1920 * 1080, scale: 1920 * 1080
[22:17:04]    + Output geometry
[22:17:04]      + storage dimensions: 1920 x 1080
[22:17:04]      + pixel aspect ratio: 1 : 1
[22:17:04]      + display dimensions: 1920 x 1080
[22:17:04]    + encoder: H.264 (libx264)
[22:17:04]      + preset:  fast
[22:17:04]      + profile: main
[22:17:04]      + level:   4.0
[22:17:04]      + quality: 22.00 (RF)
[22:17:04]      + color profile: 1-1-1
[22:17:04]  * subtitle track 1, English [SRT] (track 0, id 0xff, Text) -> Render/Burn-in, offset: 0, charset: ISO-8859-1
[22:17:04]  * audio track 1
[22:17:04]    + decoder: English (AAC LC) (2.0 ch) (track 1, id 0x0)
[22:17:04]      + bitrate: 122 kbps, samplerate: 48000 Hz
[22:17:04]    + mixdown: Stereo
[22:17:04]    + dither: triangular
[22:17:04]    + encoder: AAC (Apple AudioToolbox)
[22:17:04]      + bitrate: 160 kbps, samplerate: 48000 Hz
[22:17:04] sync: expecting 5619 video frames
[22:17:04] encx264: min-keyint: 30, keyint: 300
[22:17:04] encx264: encoding at constant RF 22.000000
[22:17:04] encx264: unparsed options: level=4.0:ref=2:8x8dct=0:weightp=1:subme=6:vbv-bufsize=25000:vbv-maxrate=20000:rc-lookahead=30
x264 [info]: using SAR=1/1
x264 [info]: using cpu capabilities: MMX2 SSE2Fast SSSE3 SSE4.2 AVX FMA3 BMI2 AVX2
x264 [info]: profile Main, level 4.0, 4:2:0, 8-bit
[22:17:04] sync: first pts video is 0
[22:17:04] sync: "Chapter 1" (1) at frame 1 time 0
[22:17:04] sync: first pts audio 0x0 is 0
[22:17:04] sync: first pts subtitle 0xff is 0
[22:17:04] sync: subtitle 0xff duration <= 0, PTS 0
[22:17:08] [ass] fontselect: (sans-serif, 400, 0) -> /System/Library/Fonts/Helvetica.ttc, -1, Helvetica
[22:18:12] reader: done. 1 scr changes
[22:18:13] work: average encoding speed for job is 81.956497 fps
[22:18:13] comb detect: heavy 0 | light 1 | uncombed 5618 | total 5619
[22:18:13] decomb: deinterlaced 0 | blended 1 | unfiltered 5618 | total 5619
[22:18:13] vfr: 5619 frames output, 0 dropped and 0 duped for CFR/PFR
[22:18:13] vfr: lost time: 0 (0 frames)
[22:18:13] vfr: gained time: 0 (0 frames) (0 not accounted for)
[22:18:13] aac-decoder done: 8789 frames, 0 decoder errors
[22:18:13] h264-decoder done: 5619 frames, 0 decoder errors
[22:18:13] sync: got 5619 frames, 5619 expected
[22:18:13] sync: framerate min 29.970 fps, max 29.970 fps, avg 29.970 fps
x264 [info]: frame I:20    Avg QP:17.71  size:366829
x264 [info]: frame P:1570  Avg QP:20.85  size: 30717
x264 [info]: frame B:4029  Avg QP:26.39  size:  1342
x264 [info]: consecutive B-frames:  1.5%  2.1% 19.9% 76.5%
x264 [info]: mb I  I16..4:  9.6%  0.0% 90.4%
x264 [info]: mb P  I16..4:  0.4%  0.0%  0.9%  P16..4: 45.7%  6.6%  6.5%  0.0%  0.0%    skip:39.9%
x264 [info]: mb B  I16..4:  0.1%  0.0%  0.1%  B16..8:  3.0%  0.5%  0.0%  direct: 2.8%  skip:93.6%  L0:45.2% L1:47.1% BI: 7.7%
x264 [info]: coded y,uvDC,uvAC intra: 78.1% 91.4% 71.1% inter: 6.1% 12.8% 0.7%
x264 [info]: i16 v,h,dc,p: 42% 15% 25% 18%
x264 [info]: i4 v,h,dc,ddl,ddr,vr,hd,vl,hu: 30% 17% 13%  6%  7%  8%  6%  6%  6%
x264 [info]: i8c dc,h,v,p: 41% 18% 31% 11%
x264 [info]: Weighted P-Frames: Y:0.0% UV:0.0%
x264 [info]: ref P L0: 73.5% 26.5%
x264 [info]: ref B L0: 81.3% 18.7%
x264 [info]: ref B L1: 93.5%  6.5%
x264 [info]: kb/s:2601.51
[22:18:13] mux: track 0, 5619 frames, 60967989 bytes, 2600.55 kbps, fifo 2048
[22:18:13] mux: track 1, 8792 frames, 3771032 bytes, 160.85 kbps, fifo 2048
[22:18:13] libhb: work result = 0


Woodstock
Veteran User
Posts: 2924
Joined: Tue Aug 27, 2013 6:39 am

Re: First subtitle disappears

Post by Woodstock » Sat Feb 02, 2019 3:38 pm

[22:17:04] sync: first pts subtitle 0xff is 0
[22:17:04] sync: subtitle 0xff duration <= 0, PTS 0
The first subtitle has a duration of "less than or equal to zero milliseconds", so it would not be rendered. How long it it supposed to be displayed?

User avatar
Rodeo
HandBrake Team
Posts: 12008
Joined: Tue Mar 03, 2009 8:55 pm

Re: First subtitle disappears

Post by Rodeo » Sat Feb 02, 2019 5:07 pm

This can also happen if your subtitle file is actually Unicode (e.g. UTF-8) with a Byte Order Mark and you select a non-Unicode charset in the drop-down…

Woodstock
Veteran User
Posts: 2924
Joined: Tue Aug 27, 2013 6:39 am

Re: First subtitle disappears

Post by Woodstock » Sun Feb 03, 2019 1:28 am

Yeah, the log does show that ISO-8859-1 was the selected character set...

sst108
Posts: 2
Joined: Sat Feb 02, 2019 9:38 am

Re: First subtitle disappears

Post by sst108 » Sun Feb 03, 2019 8:40 am

The first one that is super short was my attempt at a work around, where I put a blank subtitle in to see if that would disappear and let the first subtitle show, but it didn't work. The work around did work when I put text in, so this is the file where I was able to put in text I didn't care about in the first line that disappeared, then the second line appeared as the first:

HandBrake Activity Log for Session: 2019-02-03T01:03:59Z
Handbrake Version: 1.2.0 (2018122200)
Padmasambhava Statue at Chandrakirti Centre split clip.mp4
Preset: Fast 1080p30
[14:03:59] macgui: QueueCore prevented sleep
[14:03:59] macgui: QueueCore scanning specifically for title: 1
[14:03:59] CPU: Intel(R) Core(TM) i7-8850H CPU @ 2.60GHz
[14:03:59] - Intel microarchitecture Kaby Lake
[14:03:59] - logical processor count: 12
[14:03:59] hb_scan: path=/Volumes/Seagate Backup Plus Drive/Pictures/FPMT/Chandrakirti Centre/Bruce videos/Padmasambhava Statue at Chandrakirti Centre split clip.mp4, title_index=1
udfread ERROR: ECMA 167 Volume Recognition failed
disc.c:323: failed opening UDF image /Volumes/Seagate Backup Plus Drive/Pictures/FPMT/Chandrakirti Centre/Bruce videos/Padmasambhava Statue at Chandrakirti Centre split clip.mp4
disc.c:424: error opening file BDMV/index.bdmv
disc.c:424: error opening file BDMV/BACKUP/index.bdmv
[14:03:59] bd: not a bd - trying as a stream/file instead
libdvdnav: Using dvdnav version 6.0.0
libdvdread: Encrypted DVD support unavailable.
libdvdread:DVDOpenFileUDF:UDFFindFile /VIDEO_TS/VIDEO_TS.IFO failed
libdvdread:DVDOpenFileUDF:UDFFindFile /VIDEO_TS/VIDEO_TS.BUP failed
libdvdread: Can't open file VIDEO_TS.IFO.
libdvdnav: vm: failed to read VIDEO_TS.IFO
[14:03:59] dvd: not a dvd - trying as a stream/file instead
Input #0, mov,mp4,m4a,3gp,3g2,mj2, from '/Volumes/Seagate Backup Plus Drive/Pictures/FPMT/Chandrakirti Centre/Bruce videos/Padmasambhava Statue at Chandrakirti Centre split clip.mp4':
Metadata:
major_brand : mp42
minor_version : 1
compatible_brands: mp41mp42isom
creation_time : 2019-02-03T00:58:15.000000Z
Duration: 00:03:07.49, start: 0.000000, bitrate: 19875 kb/s
Stream #0:0(eng): Audio: aac (LC) (mp4a / 0x6134706D), 48000 Hz, stereo, fltp, 122 kb/s (default)
Metadata:
creation_time : 2019-02-03T00:58:15.000000Z
handler_name : Core Media Audio
Stream #0:1(und): Video: h264 (High) (avc1 / 0x31637661), yuv420p(tv, bt709, progressive), 1920x1080 [SAR 1:1 DAR 16:9], 19724 kb/s, 29.97 fps, 29.97 tbr, 30k tbn, 60k tbc (default)
Metadata:
creation_time : 2019-02-03T00:58:15.000000Z
handler_name : Core Media Video
[14:03:59] scan: decoding previews for title 1
[14:03:59] scan: audio 0x0: aac, rate=48000Hz, bitrate=122744 English (AAC LC) (2.0 ch)
[14:03:59] scan: 10 previews, 1920x1080, 29.970 fps, autocrop = 0/0/0/0, aspect 16:9, PAR 1:1
[14:04:00] libhb: scan thread found 1 valid title(s)
[14:04:00] macgui: QueueCore scan done
[14:04:00] 1 job(s) to process
[14:04:00] starting job
[14:04:00] macgui: QueueCore started encoding Padmasambhava Statue at Chandrakirti Centre split clip.mp4
[14:04:00] macgui: QueueCore with preset Fast 1080p30
[14:04:00] decomb filter thread started for segment 0
[14:04:00] decomb filter thread started for segment 3
[14:04:00] decomb filter thread started for segment 4
[14:04:00] decomb filter thread started for segment 1
[14:04:00] decomb filter thread started for segment 2
[14:04:00] decomb filter thread started for segment 6
[14:04:00] decomb filter thread started for segment 7
[14:04:00] decomb filter thread started for segment 5
[14:04:00] decomb filter thread started for segment 8
[14:04:00] decomb filter thread started for segment 9
[14:04:00] decomb filter thread started for segment 10
[14:04:00] decomb filter thread started for segment 11
[14:04:00] decomb check thread started for segment 1
[14:04:00] decomb check thread started for segment 2
[14:04:00] decomb check thread started for segment 0
[14:04:00] decomb check thread started for segment 4
[14:04:00] decomb check thread started for segment 3
[14:04:00] decomb check thread started for segment 5
[14:04:00] decomb check thread started for segment 6
[14:04:00] decomb check thread started for segment 7
[14:04:00] decomb check thread started for segment 9
[14:04:00] decomb check thread started for segment 10
[14:04:00] decomb check thread started for segment 8
[14:04:00] decomb check thread started for segment 11
[14:04:00] mask filter thread started for segment 1
[14:04:00] mask filter thread started for segment 0
[14:04:00] mask filter thread started for segment 2
[14:04:00] mask filter thread started for segment 3
[14:04:00] mask filter thread started for segment 4
[14:04:00] mask filter thread started for segment 5
[14:04:00] mask filter thread started for segment 6
[14:04:00] mask filter thread started for segment 7
[14:04:00] mask filter thread started for segment 8
[14:04:00] mask filter thread started for segment 9
[14:04:00] mask filter thread started for segment 10
[14:04:00] mask filter thread started for segment 11
[14:04:00] mask erode thread started for segment 0
[14:04:00] mask erode thread started for segment 1
[14:04:00] mask erode thread started for segment 2
[14:04:00] mask erode thread started for segment 3
[14:04:00] mask erode thread started for segment 4
[14:04:00] mask erode thread started for segment 5
[14:04:00] mask erode thread started for segment 6
[14:04:00] mask erode thread started for segment 7
[14:04:00] mask erode thread started for segment 8
[14:04:00] mask erode thread started for segment 9
[14:04:00] mask erode thread started for segment 10
[14:04:00] mask erode thread started for segment 11
[14:04:00] mask dilate thread started for segment 0
[14:04:00] mask dilate thread started for segment 1
[14:04:00] mask dilate thread started for segment 2
[14:04:00] mask dilate thread started for segment 3
[14:04:00] mask dilate thread started for segment 4
[14:04:00] mask dilate thread started for segment 5
[14:04:00] mask dilate thread started for segment 6
[14:04:00] mask dilate thread started for segment 7
[14:04:00] mask dilate thread started for segment 8
[14:04:00] mask dilate thread started for segment 9
[14:04:00] mask dilate thread started for segment 10
[14:04:00] mask dilate thread started for segment 11
[14:04:00] yadif thread started for segment 0
[14:04:00] yadif thread started for segment 1
[14:04:00] yadif thread started for segment 2
[14:04:00] yadif thread started for segment 3
[14:04:00] yadif thread started for segment 4
[14:04:00] yadif thread started for segment 5
[14:04:00] yadif thread started for segment 6
[14:04:00] yadif thread started for segment 7
[14:04:00] yadif thread started for segment 8
[14:04:00] yadif thread started for segment 9
[14:04:00] yadif thread started for segment 10
[14:04:00] yadif thread started for segment 11
[14:04:00] [ass] Shaper: FriBidi 0.19.7 (SIMPLE) HarfBuzz-ng 1.7.2 (COMPLEX)
[14:04:00] [ass] Using font provider coretext
[14:04:00] work: only 1 chapter, disabling chapter markers
[14:04:00] job configuration:
[14:04:00] * source
[14:04:00] + /Volumes/Seagate Backup Plus Drive/Pictures/FPMT/Chandrakirti Centre/Bruce videos/Padmasambhava Statue at Chandrakirti Centre split clip.mp4
[14:04:00] + title 1, chapter(s) 1 to 1
[14:04:00] + container: mov,mp4,m4a,3gp,3g2,mj2
[14:04:00] + data rate: 19875 kbps
[14:04:00] * destination
[14:04:00] + /Users/sarahbrooks 1/Movies/Padmasambhava Statue at Chandrakirti Centre split clip.mp4
[14:04:00] + container: MPEG-4 (libavformat)
[14:04:00] + align initial A/V stream timestamps
[14:04:00] * video track
[14:04:00] + decoder: h264
[14:04:00] + bitrate 19724 kbps
[14:04:00] + filters
[14:04:00] + Comb Detect (mode=3:spatial-metric=2:motion-thresh=1:spatial-thresh=1:filter-mode=2:block-thresh=40:block-width=16:block-height=16)
[14:04:00] + Decomb (mode=39)
[14:04:00] + Framerate Shaper (mode=2:rate=27000000/900000)
[14:04:00] + frame rate: 29.970 fps -> peak rate limited to 30.000 fps
[14:04:00] + Subtitle renderer ()
[14:04:00] + Crop and Scale (width=1920:height=1080:crop-top=0:crop-bottom=0:crop-left=0:crop-right=0)
[14:04:00] + source: 1920 * 1080, crop (0/0/0/0): 1920 * 1080, scale: 1920 * 1080
[14:04:00] + Output geometry
[14:04:00] + storage dimensions: 1920 x 1080
[14:04:00] + pixel aspect ratio: 1 : 1
[14:04:00] + display dimensions: 1920 x 1080
[14:04:00] + encoder: H.264 (libx264)
[14:04:00] + preset: fast
[14:04:00] + profile: main
[14:04:00] + level: 4.0
[14:04:00] + quality: 22.00 (RF)
[14:04:00] + color profile: 1-1-1
[14:04:00] * subtitle track 1, English [SRT] (track 0, id 0xff, Text) -> Render/Burn-in, offset: 0, charset: ISO-8859-1
[14:04:00] * audio track 1
[14:04:00] + decoder: English (AAC LC) (2.0 ch) (track 1, id 0x0)
[14:04:00] + bitrate: 122 kbps, samplerate: 48000 Hz
[14:04:00] + mixdown: Stereo
[14:04:00] + dither: triangular
[14:04:00] + encoder: AAC (Apple AudioToolbox)
[14:04:00] + bitrate: 160 kbps, samplerate: 48000 Hz
[14:04:00] sync: expecting 5619 video frames
[14:04:00] encx264: min-keyint: 30, keyint: 300
[14:04:00] encx264: encoding at constant RF 22.000000
[14:04:00] encx264: unparsed options: level=4.0:ref=2:8x8dct=0:weightp=1:subme=6:vbv-bufsize=25000:vbv-maxrate=20000:rc-lookahead=30
x264 [info]: using SAR=1/1
x264 [info]: using cpu capabilities: MMX2 SSE2Fast SSSE3 SSE4.2 AVX FMA3 BMI2 AVX2
x264 [info]: profile Main, level 4.0, 4:2:0, 8-bit
[14:04:00] sync: first pts video is 0
[14:04:00] sync: "Chapter 1" (1) at frame 1 time 0
[14:04:00] sync: first pts audio 0x0 is 0
[14:04:00] sync: first pts subtitle 0xff is 0
[14:04:00] sync: subtitle 0xff duration <= 0, PTS 0
[14:04:02] [ass] fontselect: (sans-serif, 400, 0) -> /System/Library/Fonts/Helvetica.ttc, -1, Helvetica
[14:05:10] reader: done. 1 scr changes
[14:05:11] work: average encoding speed for job is 79.393898 fps
[14:05:11] comb detect: heavy 0 | light 1 | uncombed 5618 | total 5619
[14:05:11] decomb: deinterlaced 0 | blended 1 | unfiltered 5618 | total 5619
[14:05:11] vfr: 5619 frames output, 0 dropped and 0 duped for CFR/PFR
[14:05:11] vfr: lost time: 0 (0 frames)
[14:05:11] vfr: gained time: 0 (0 frames) (0 not accounted for)
[14:05:11] aac-decoder done: 8789 frames, 0 decoder errors
[14:05:11] h264-decoder done: 5619 frames, 0 decoder errors
[14:05:11] sync: got 5619 frames, 5619 expected
[14:05:11] sync: framerate min 29.970 fps, max 29.970 fps, avg 29.970 fps
x264 [info]: frame I:20 Avg QP:17.71 size:366829
x264 [info]: frame P:1571 Avg QP:20.85 size: 30700
x264 [info]: frame B:4028 Avg QP:26.39 size: 1340
x264 [info]: consecutive B-frames: 1.5% 2.2% 19.8% 76.5%
x264 [info]: mb I I16..4: 9.6% 0.0% 90.4%
x264 [info]: mb P I16..4: 0.4% 0.0% 0.9% P16..4: 45.7% 6.6% 6.5% 0.0% 0.0% skip:40.0%
x264 [info]: mb B I16..4: 0.1% 0.0% 0.1% B16..8: 3.0% 0.5% 0.0% direct: 2.8% skip:93.6% L0:45.2% L1:47.1% BI: 7.7%
x264 [info]: coded y,uvDC,uvAC intra: 78.2% 91.4% 71.1% inter: 6.1% 12.8% 0.7%
x264 [info]: i16 v,h,dc,p: 42% 15% 25% 18%
x264 [info]: i4 v,h,dc,ddl,ddr,vr,hd,vl,hu: 30% 17% 13% 6% 7% 8% 6% 6% 6%
x264 [info]: i8c dc,h,v,p: 41% 18% 31% 11%
x264 [info]: Weighted P-Frames: Y:0.0% UV:0.0%
x264 [info]: ref P L0: 73.5% 26.5%
x264 [info]: ref B L0: 81.3% 18.7%
x264 [info]: ref B L1: 93.5% 6.5%
x264 [info]: kb/s:2601.36
[14:05:11] mux: track 0, 5619 frames, 60964496 bytes, 2600.40 kbps, fifo 2048
[14:05:11] mux: track 1, 8792 frames, 3771032 bytes, 160.85 kbps, fifo 2048
[14:05:11] libhb: work result = 0

Woodstock
Veteran User
Posts: 2924
Joined: Tue Aug 27, 2013 6:39 am

Re: First subtitle disappears

Post by Woodstock » Sun Feb 03, 2019 3:46 pm

[14:04:00] * subtitle track 1, English [SRT] (track 0, id 0xff, Text) -> Render/Burn-in, offset: 0, charset: ISO-8859-1
Are you editing the SRT file on the Mac? If so, you should select "UTF-8" as the character set for the SRT file; Macs, by default, use UTF-8 for text files, especially if they have the Byte Order Mark Rodeo mentions. You won't see the BOM in the editor - but it is there in the text, and will cause issues if you aren't expecting UTF-8.

I've run in to this for years - I used to help out on a support forum where files that were originally ISO-8859 variants would "suddenly" grow BOMs and stop working, just because the user opened them up to look at them, and used "save/exit" instead of "close", and then their systems stopped working. But they couldn't see the BOMs... the editor made sure to hide them (as it should!), it would just say the file was UTF-8 instead of ISO-8859-1.

Post Reply