Page 1 of 1

NO VALID SOURCE FOUND - Compact Disc

Posted: Sat Jan 19, 2019 12:59 am
by LENNONOLOGY
Purchased a new BD burner (LG WH16NS40) and updated Handbrake. Handbrake scans a silver-pressed CD (I tried several different titles), recognizes the correct number of tracks and immediately throws up the "No Valid Source Found" error message. Then I tried a commercial copy-guarded DVD and it scanned it just fine. So my issue is only with CDs. The "Audio CD" appears on the desktop and will play in both VLC and JRiver Media Center 22.




Steps to reproduce the problem (If Applicable): Put in a silver-pressed CD or CD-R, try to scan it. Handbrake proceeds normally and then throws up the error message.




HandBrake version (e.g., 1.0.0): 1.2.0 (2018122200)




Operating system and version (e.g., Ubuntu 16.04 LTS, macOS 10.13 High Sierra, Windows 10 Creators Update): Mac OS X El Capitan 10.11.6 - 27" iMac (c. 2013) 3.5GHz Core i7, 32MB Memory




HandBrake Activity Log ***required*** (see How-to get an activity log)

Code: Select all

[18:23:23] macgui: Handbrake Version: 1.2.0  (2018122200)
[18:23:23] hb_init: starting libhb thread
[18:23:23] hb_init: starting libhb thread
[18:29:51] macgui: trying to open a folder or file
[18:29:51] macgui: ScanCore scanning titles with a duration of 10 seconds or more
[18:29:51] CPU: Intel(R) Core(TM) i7-4771 CPU @ 3.50GHz
[18:29:51]  - Intel microarchitecture Haswell
[18:29:51]  - logical processor count: 8
[18:29:51] hb_scan: path=/Volumes/Audio CD, title_index=0
disc.c:424: error opening file BDMV/index.bdmv
disc.c:424: error opening file BDMV/BACKUP/index.bdmv
[18:29:51] bd: not a bd - trying as a stream/file instead
libdvdnav: Using dvdnav version 6.0.0
libdvdread: Encrypted DVD support unavailable.
libdvdread: Attempting to use device /dev/rdisk4 mounted on /Volumes/Audio CD for CSS authentication
libdvdread: Can't seek to block 4294967295
libdvdread: Can't seek to block 4294967295
libdvdread,ifoOpenVMGI(): Invalid main menu IFO (VIDEO_TS.IFO).
libdvdnav: vm: failed to read VIDEO_TS.IFO
[18:29:51] dvd: not a dvd - trying as a stream/file instead
[18:29:51] batch: scanning /Volumes/Audio CD/.TOC.plist
[18:29:51] hb_stream_open: open /Volumes/Audio CD/.TOC.plist failed
[18:29:51] batch: scanning /Volumes/Audio CD/1 Audio Track.aiff
Input #0, aiff, from '/Volumes/Audio CD/1 Audio Track.aiff':
  Duration: 00:03:29.07, start: 0.000000, bitrate: 1411 kb/s
    Stream #0:0: Audio: pcm_s16le (sowt / 0x74776F73), 44100 Hz, 2 channels, s16, 1411 kb/s
[18:29:52] hb_stream_open: open /Volumes/Audio CD/1 Audio Track.aiff failed
[18:29:52] batch: scanning /Volumes/Audio CD/10 Audio Track.aiff
Input #0, aiff, from '/Volumes/Audio CD/10 Audio Track.aiff':
  Duration: 00:03:35.11, start: 0.000000, bitrate: 1411 kb/s
    Stream #0:0: Audio: pcm_s16le (sowt / 0x74776F73), 44100 Hz, 2 channels, s16, 1411 kb/s
[18:29:52] hb_stream_open: open /Volumes/Audio CD/10 Audio Track.aiff failed
[18:29:52] batch: scanning /Volumes/Audio CD/2 Audio Track.aiff
Input #0, aiff, from '/Volumes/Audio CD/2 Audio Track.aiff':
  Duration: 00:03:52.23, start: 0.000000, bitrate: 1411 kb/s
    Stream #0:0: Audio: pcm_s16le (sowt / 0x74776F73), 44100 Hz, 2 channels, s16, 1411 kb/s
[18:29:53] hb_stream_open: open /Volumes/Audio CD/2 Audio Track.aiff failed
[18:29:53] batch: scanning /Volumes/Audio CD/3 Audio Track.aiff
Input #0, aiff, from '/Volumes/Audio CD/3 Audio Track.aiff':
  Duration: 00:04:09.84, start: 0.000000, bitrate: 1411 kb/s
    Stream #0:0: Audio: pcm_s16le (sowt / 0x74776F73), 44100 Hz, 2 channels, s16, 1411 kb/s
[18:29:53] hb_stream_open: open /Volumes/Audio CD/3 Audio Track.aiff failed
[18:29:53] batch: scanning /Volumes/Audio CD/4 Audio Track.aiff
Input #0, aiff, from '/Volumes/Audio CD/4 Audio Track.aiff':
  Duration: 00:03:54.73, start: 0.000000, bitrate: 1411 kb/s
    Stream #0:0: Audio: pcm_s16le (sowt / 0x74776F73), 44100 Hz, 2 channels, s16, 1411 kb/s
[18:29:53] hb_stream_open: open /Volumes/Audio CD/4 Audio Track.aiff failed
[18:29:53] batch: scanning /Volumes/Audio CD/5 Audio Track.aiff
Input #0, aiff, from '/Volumes/Audio CD/5 Audio Track.aiff':
  Duration: 00:04:39.27, start: 0.000000, bitrate: 1411 kb/s
    Stream #0:0: Audio: pcm_s16le (sowt / 0x74776F73), 44100 Hz, 2 channels, s16, 1411 kb/s
[18:29:53] hb_stream_open: open /Volumes/Audio CD/5 Audio Track.aiff failed
[18:29:53] batch: scanning /Volumes/Audio CD/6 Audio Track.aiff
Input #0, aiff, from '/Volumes/Audio CD/6 Audio Track.aiff':
  Duration: 00:04:44.27, start: 0.000000, bitrate: 1411 kb/s
    Stream #0:0: Audio: pcm_s16le (sowt / 0x74776F73), 44100 Hz, 2 channels, s16, 1411 kb/s
[18:29:54] hb_stream_open: open /Volumes/Audio CD/6 Audio Track.aiff failed
[18:29:54] batch: scanning /Volumes/Audio CD/7 Audio Track.aiff
Input #0, aiff, from '/Volumes/Audio CD/7 Audio Track.aiff':
  Duration: 00:03:36.53, start: 0.000000, bitrate: 1411 kb/s
    Stream #0:0: Audio: pcm_s16le (sowt / 0x74776F73), 44100 Hz, 2 channels, s16, 1411 kb/s
[18:29:54] hb_stream_open: open /Volumes/Audio CD/7 Audio Track.aiff failed
[18:29:54] batch: scanning /Volumes/Audio CD/8 Audio Track.aiff
Input #0, aiff, from '/Volumes/Audio CD/8 Audio Track.aiff':
  Duration: 00:04:25.20, start: 0.000000, bitrate: 1411 kb/s
    Stream #0:0: Audio: pcm_s16le (sowt / 0x74776F73), 44100 Hz, 2 channels, s16, 1411 kb/s
[18:29:54] hb_stream_open: open /Volumes/Audio CD/8 Audio Track.aiff failed
[18:29:54] batch: scanning /Volumes/Audio CD/9 Audio Track.aiff
Input #0, aiff, from '/Volumes/Audio CD/9 Audio Track.aiff':
  Duration: 00:03:43.56, start: 0.000000, bitrate: 1411 kb/s
    Stream #0:0: Audio: pcm_s16le (sowt / 0x74776F73), 44100 Hz, 2 channels, s16, 1411 kb/s
[18:29:54] hb_stream_open: open /Volumes/Audio CD/9 Audio Track.aiff failed
[18:29:54] libhb: scan thread found 0 valid title(s)
[18:29:55] macgui: ScanCore scan done

Re: NO VALID SOURCE FOUND - Compact Disc

Posted: Sat Jan 19, 2019 8:17 am
by rollin_eng
HB is a video transcoder, it will not do anything with an audio CD.

Re: NO VALID SOURCE FOUND - Compact Disc

Posted: Sat Jan 19, 2019 12:41 pm
by Woodstock
And remember, handbrake is NOT intended for ripping DVDs or Bluray, either. It does not do decryption of commercial disks.

There are specialized tools for that, such as MakeMKV, which handle most forms of copy protection.

Re: NO VALID SOURCE FOUND - Compact Disc

Posted: Thu Jan 24, 2019 6:35 pm
by discless
Woodstock wrote:
Sat Jan 19, 2019 12:41 pm
And remember, handbrake is NOT intended for ripping DVDs or Bluray, either. It does not do decryption of commercial disks.

There are specialized tools for that, such as MakeMKV, which handle most forms of copy protection.
Does that mean the link to VLC's libraries have been severed?

Re: NO VALID SOURCE FOUND - Compact Disc

Posted: Thu Jan 24, 2019 6:43 pm
by Rodeo
Like, almost 10 years ago?

Re: NO VALID SOURCE FOUND - Compact Disc

Posted: Thu Jan 24, 2019 6:52 pm
by discless
Wow: that's interesting!

It was 9 years ago, I was doing my research and moderated a panel on "Piracy - can we compete with free?" in 2010.